#TITLE:Incomplete;
#SUBTITLE:(The Factory Team Remix);
#ARTIST:Lawrence;
#TITLETRANSLIT:;
#SUBTITLETRANSLIT:;
#ARTISTTRANSLIT:;
#GENRE:;
#CREDIT:Braeden47 & usaminseijin;
#BANNER:[ZIv Academy II] - Incomplete.png;
#BACKGROUND:[ZIv Academy II] - Incomplete-bg.png;
#LYRICSPATH:[ZIv Academy II] - Incomplete.lrc;
#CDTITLE:cdtitle.png;
#MUSIC:[ZIv Academy II] - Incomplete.mp3;
#OFFSET:-0.040000;
#SAMPLESTART:42.876999;
#SAMPLELENGTH:12.000000;
#SELECTABLE:YES;
#BPMS:0.000000=140.000000
;
#STOPS:
;
#BGCHANGES:;
#KEYSOUNDS:;
#ATTACKS:;

//---------------dance-single - ----------------
#NOTES:
     dance-single:
     :
     Easy:
     1:
     0.142538,0.166672,0.056691,0.056691,0.000000,88.000000,83.000000,5.000000,5.000000,0.000000,0.000000,0.142538,0.166672,0.056691,0.056691,0.000000,88.000000,83.000000,5.000000,5.000000,0.000000,0.000000:
0000
0000
0000
0000
,
1000
0000
0000
0000
,
0001
0000
0000
0000
,
0100
0000
0000
0000
,
1001
0000
0000
0000
,
0100
0000
0000
0000
,
0010
0000
0000
0000
,
1000
0000
0001
0000
,
1001
0000
1000
0000
,
0010
0000
0100
0000
,
0001
0000
0100
0000
,
0010
0000
1000
0000
,
0001
0000
0100
0000
,
0010
0000
1000
0000
,
0001
0000
0100
0000
,
0010
0000
0000
0000
,
1000
0000
0000
0000
,
0010
0000
0000
0000
,
0100
0000
0001
0000
,
1000
0000
0010
0000
,
0100
0000
0001
0000
,
0010
0000
0100
0000
,
1000
0000
0010
0000
,
0100
0000
0001
0000
,
1001
0000
0000
0000
,
2000
0000
0000
3000
,
0002
0000
0103
0000
,
0010
0000
1000
0000
,
0001
0000
0010
0000
,
0100
0000
1000
0000
,
0010
0000
0100
0000
,
0002
0000
1003
0000
,
0010
0000
0010
0000
,
0010
0000
0100
0000
,
1001
0000
1000
1000
,
0000
0000
0000
0010
,
0010
0000
0100
0000
,
0001
0000
0000
0010
,
0010
0000
0100
0000
,
1000
0000
0001
0001
,
0000
1000
0000
0000
,
0020
0000
0230
0000
,
0310
0000
1000
0000
,
0001
0000
0100
0000
,
0010
0000
1000
0000
,
0001
0000
1000
0000
,
1001
0000
0000
0000
,
1000
0000
0000
0000
,
0010
0000
0000
0000
,
1000
0000
0000
0000
;

//---------------dance-single - ----------------
#NOTES:
     dance-single:
     :
     Medium:
     5:
     0.298034,0.339297,0.113383,0.181412,0.113383,184.000000,174.000000,10.000000,16.000000,0.000000,0.000000,0.298034,0.339297,0.113383,0.181412,0.113383,184.000000,174.000000,10.000000,16.000000,0.000000,0.000000:
0000
0000
0000
0000
,
1000
0000
0010
0000
,
0100
0000
0000
0001
0000
0000
0000
0000
0100
0000
0000
0010
0000
0000
0000
0000
,
1000
0000
0000
0001
0000
0000
0000
0000
0010
0000
0000
0100
0000
0000
0000
0000
,
1001
0000
0000
0010
0000
0000
0100
0000
0000
0000
0000
0010
0000
0000
0010
0000
,
0000
0000
0000
0100
0000
0000
1000
0000
0000
0000
0000
0100
0000
0000
0010
0000
,
0000
0000
0000
0001
0000
0000
0010
0000
0000
0000
0000
0100
0000
0000
1000
0000
,
0000
0000
0000
0100
0000
0000
0010
0000
0000
0000
0000
0001
0000
0000
0010
0000
,
0000
0000
0000
0100
0000
1000
0000
0000
,
0010
0000
0000
0100
0000
0001
0000
0000
,
0010
0000
0000
0100
0000
1000
0000
0001
,
0000
0100
0000
0020
0000
0000
0000
0000
,
1030
0000
0000
0001
0000
0100
0000
0000
,
1010
0000
0000
0100
0000
0001
0000
0000
,
0011
0000
0000
0001
0000
0100
0000
0020
,
0000
0000
0000
1030
0000
0001
0100
0000
,
0010
1000
0010
0000
0100
0000
0001
0000
,
0010
0001
0010
0000
0001
0000
0100
0000
,
0010
0100
0010
0000
1000
0000
0001
0000
,
0010
0100
0010
0000
0100
0000
1000
0000
,
1001
0010
0100
0010
,
1001
0100
0010
0100
,
1000
0000
0001
0000
0100
0000
0010
1000
,
0010
0000
0100
0001
0000
0010
0000
0100
,
1000
0001
0100
0000
,
0010
1000
0001
0000
,
1001
0001
0200
0020
,
0000
0000
0000
0000
0330
0000
0000
1000
,
0001
0100
0000
0010
0000
1000
0000
0001
,
0000
0010
0000
0100
0000
2000
0000
0000
,
3000
0001
0100
0020
,
0000
0000
0000
0000
0030
0000
1000
0001
,
0100
0000
0010
1000
0000
0001
0200
0000
,
0000
0000
0310
1000
,
1001
0001
0100
0020
,
0000
0000
0000
0000
0030
0000
1000
0001
,
0100
0000
0010
1000
0000
0001
0000
0010
,
0000
0100
0000
0000
1000
0000
0001
0100
,
0010
0000
1000
0001
0000
0100
0000
0010
,
0000
1000
0001
0020
,
0000
0230
0000
0300
,
2200
3300
0022
0033
,
2200
3300
0001
0010
,
0100
1000
0010
0100
,
0001
0010
0100
1000
,
0010
0100
0001
0010
,
0100
0000
0000
1000
0000
0000
0000
0000
0000
0000
0000
1000
0000
0000
0000
0000
,
0000
0000
0000
0010
0000
0000
0000
0000
0000
0000
0000
0100
0000
0000
0000
0000
,
0000
0000
0000
1000
0000
0000
0001
0000
0000
0000
0000
0100
0000
0000
0010
0000
,
0000
0000
0000
1000
0000
0000
0001
0000
0000
0000
0000
0100
0000
0000
0100
0000
;

//---------------dance-single - ----------------
#NOTES:
     dance-single:
     :
     Hard:
     8:
     0.518320,0.593770,0.113383,0.215427,0.413846,320.000000,310.000000,10.000000,19.000000,0.000000,0.000000,0.518320,0.593770,0.113383,0.215427,0.413846,320.000000,310.000000,10.000000,19.000000,0.000000,0.000000:
0000
0000
0000
0000
,
1000
0000
0000
0100
0000
0000
0010
0000
0001
0000
0000
0001
0000
0000
0010
0000
,
0100
0000
0000
1000
0000
0000
0100
0000
1000
0000
0000
0001
0000
0000
0010
0000
,
0100
0000
0000
1000
0000
0000
0100
0000
1000
0000
0000
0001
0000
0000
0001
0000
,
1001
0000
0000
0001
0000
0000
0100
0000
0010
0000
0000
1000
0000
0000
0001
0000
,
0100
0000
0000
0010
0000
0000
1000
0000
0001
0000
0000
0010
0000
0000
0100
0000
,
1000
0010
1000
0010
0100
0001
0100
0001
,
1000
0000
0010
0000
1000
0000
0010
0000
0100
0001
0100
0001
1000
0010
1000
0010
,
0100
0000
0100
0001
0000
0000
0001
0010
0000
0000
0010
0100
0000
0000
0100
1000
,
0000
0000
1000
0001
0000
0000
0001
0100
0000
0000
0100
0001
0000
0000
0001
1000
,
0000
0000
0001
0010
0000
0000
0200
0000
0000
0000
2300
0000
0000
0000
3002
0000
,
0000
2003
0000
0200
0000
3300
0000
0000
,
1000
0001
0000
0100
0000
0010
0000
1000
,
0100
0000
0010
0001
0000
0000
0001
0100
0000
0000
0100
0001
0000
0000
0001
0000
,
0100
0010
0000
1000
0000
0010
0000
0200
,
0000
0000
0000
0301
0000
0010
0100
1000
,
1100
0000
1000
0001
0100
0010
1000
0010
,
0100
0001
0100
0000
0010
0000
1000
0000
0100
0000
0010
0000
0001
0000
0100
0000
,
0001
0010
0001
0000
0100
0000
0010
0000
1000
0000
0010
0000
0100
0000
0001
0000
,
0010
0100
0010
0000
0100
0000
1000
0000
0001
0000
0100
0000
0010
0000
0000
0000
,
1000
0001
1000
0000
0001
0000
0100
0000
0010
0000
1000
0000
0010
0000
1000
0000
,
1000
0010
1000
0000
0001
0000
0001
0000
0010
0000
0010
0000
0001
0000
0001
0000
,
1000
0010
1000
0000
1000
0000
0100
0000
0010
0000
0100
0000
0010
0000
0001
0000
,
0020
0000
0130
2000
0000
3001
0000
0010
,
0210
0010
0010
0310
,
0012
0010
0010
0013
,
0101
0000
0000
0001
1000
0000
0000
0001
1000
0000
0000
1000
0001
0000
0000
0001
,
1000
0000
0000
1000
0001
0000
0000
0001
0100
0000
0000
0100
0010
0000
0000
0010
,
1000
0000
0000
1000
0010
0000
0000
0010
0100
0000
0000
0100
0010
0000
0000
0010
,
0100
0000
0000
0100
0001
0000
0000
0001
0010
0000
0000
0010
0100
0000
1000
0000
,
0100
0000
0000
0000
0010
0000
0000
0010
0100
0000
0000
0100
1000
0000
0000
1000
,
0100
0000
0000
0100
0010
0000
0000
0010
0001
0000
0000
0001
0010
0000
0000
0010
,
0100
0000
0000
0100
0010
0000
0000
0010
0001
0000
0000
0001
1000
0000
0000
0000
,
1000
0100
0010
0001
0100
0010
1000
0010
,
1010
0000
1000
0100
0001
0100
1000
0010
,
0100
0100
0001
0010
0001
0100
0001
0010
,
0001
0000
0100
0020
0000
2030
0000
3020
,
0000
0130
0000
0000
0000
0000
0001
0010
,
1100
0000
1000
0001
0100
0010
1000
0010
,
0100
0001
0010
0100
1000
0100
0010
0000
,
0001
0010
0001
0000
1000
0001
1000
0000
,
2002
3003
0220
0330
,
0002
0000
0000
0100
0000
0000
0100
0000
0000
0000
0000
0010
0000
0000
0010
0000
,
0000
0000
0000
1000
0000
0000
1000
0000
0003
0000
0000
1000
0000
0000
2000
0000
,
0000
0000
0000
0001
0000
0000
0001
0000
0000
0000
0000
0100
0000
0000
0100
0000
,
0000
0000
0000
0010
0000
0000
3010
0000
0000
0000
0000
0100
0000
0000
0010
0000
,
0110
0000
0000
1000
0000
0000
0010
0000
0000
0000
0000
0100
0000
0000
0001
0000
,
0000
0000
0000
0010
0000
0000
0100
0000
0000
0000
0000
1000
0000
0000
0001
0000
,
0000
0000
0000
0100
0000
0000
0010
0000
0000
0000
0000
1000
0000
0000
0001
0000
,
0000
0000
0000
0100
0000
0000
0010
0000
0000
0000
0000
1000
0000
0000
0001
0000
;

//---------------dance-single - ----------------
#NOTES:
     dance-single:
     :
     Challenge:
     10:
     0.621984,0.933067,0.000000,0.317471,0.521560,384.000000,384.000000,0.000000,28.000000,56.000000,0.000000,0.621984,0.933067,0.000000,0.317471,0.521560,384.000000,384.000000,0.000000,28.000000,56.000000,0.000000:
0000
0000
0000
0000
,
0000
0000
0000
0000
,
0000
0000
0000
0000
,
0000
0000
0000
0000
,
1000
0100
1000
0001
0000
0000
1000
0000
0001
0010
0001
1000
0000
0000
0001
0000
,
1000
0010
1000
0001
0000
0000
1000
0000
0001
0100
0001
1000
0000
0000
0001
0000
,
1000
0001
1000
0001
1000
0001
1000
0001
0100
0010
0100
0010
0100
0010
0100
0010
,
1000
0100
1000
0100
0010
0001
0010
0001
1000
0010
1000
0010
0100
0001
0100
0001
,
1000
0001
1000
0010
0100
0001
1000
0001
,
1000
0100
0010
0001
1000
0010
0100
0001
,
1000
0001
0100
0001
1000
0010
0100
0010
,
1000
0010
0100
0001
1000
0001
0010
0001
,
1000
0001
0100
0010
1000
0010
0100
0001
,
1000
0100
1000
0001
0100
0001
0010
0001
,
1000
0010
0100
0010
1000
0001
0010
0001
,
1000
0100
1000
0010
0100
0001
0010
0001
,
1000
0001
1000
0000
0001
1000
0001
0000
1000
0100
1000
0000
0100
1000
0100
0000
,
1000
0010
1000
0000
0010
1000
0010
0000
1000
0001
1000
0000
0001
1000
0001
0000
,
0010
0001
0010
0000
0001
0010
0001
0000
0100
0010
0100
0000
0010
0100
0010
0000
,
1000
0100
1000
0000
0100
1000
0100
0000
1000
0001
1000
0000
0001
1000
0001
0000
,
0100
0010
0100
0000
0010
0100
0010
0000
0100
0001
0100
0000
0001
0100
0001
0000
,
1000
0001
1000
0000
0001
1000
0001
0000
1000
0100
1000
0000
0100
1000
0100
0000
,
1000
0010
1000
0000
0010
1000
0010
0000
0100
0010
0100
0000
0010
0100
0010
0000
,
0100
0001
0100
0000
0001
0100
0001
0000
1000
0001
1000
0000
0001
1000
0001
0000
,
2000
0000
3001
0000
0200
0000
0301
0000
1000
0000
0001
1000
0000
0010
1000
0000
,
0002
0000
0103
0000
0020
0000
0130
0000
0001
0000
1000
0010
0000
1000
0001
0000
,
2000
0100
0010
0001
,
3020
1000
0100
0001
,
0230
0001
1000
0010
,
0302
1000
0100
1000
,
2003
0001
0100
0010
,
3002
1000
0100
1000
,
0023
0100
1000
0001
,
0230
1000
0001
1000
,
1300
0001
1000
MMMM
0010
0100
0010
MMMM
,
1000
0100
1000
MMMM
0001
0010
0001
MMMM
,
1000
0010
1000
MMMM
0001
0100
0001
MMMM
,
0100
0010
0100
MMMM
0001
1000
0001
MMMM
,
1000
0010
1000
MMMM
0001
0100
0001
MMMM
,
1000
0100
1000
MMMM
0001
0010
0001
MMMM
,
1000
0001
1000
MMMM
0010
0100
0010
MMMM
,
1000
0001
1000
0001
1000
0001
1000
0001
0100
0010
0100
0010
0100
0010
0100
0010
,
1000
0100
1000
0001
0000
0000
1000
0000
0001
0010
0001
1000
0000
0000
0001
0000
,
1000
0010
1000
0100
0000
0000
1000
0000
0001
0010
0001
0100
0000
0000
0001
0000
,
1000
0001
1000
0010
0000
0000
0100
0000
0001
1000
0001
0100
0000
0000
0010
0000
,
0100
0010
0100
0001
0000
0000
1000
0000
0010
0100
0010
1000
0000
0000
0001
0000
,
2000
0000
0000
3002
0000
0000
0103
0000
0020
0000
0000
0230
0000
0000
0301
0000
,
2000
0000
0000
3002
0000
0000
0103
0000
0020
0000
0000
0230
0000
0000
0301
0000
,
2000
0000
0000
3200
0000
0000
1300
0000
0002
0000
0000
0023
0000
0000
0031
0000
,
0200
0000
0000
0302
0000
0000
1003
0000
0020
0000
0000
0230
0000
0000
0301
0000
;

//---------------dance-single - ----------------
#NOTES:
     dance-single:
     :
     Beginner:
     1:
     0.160355,0.224497,0.022677,0.113383,0.000000,99.000000,97.000000,2.000000,10.000000,0.000000,0.000000,0.160355,0.224497,0.022677,0.113383,0.000000,99.000000,97.000000,2.000000,10.000000,0.000000,0.000000:
// measure 0
0000
0000
0000
0000
,  // measure 1
0000
0000
0000
0000
,  // measure 2
0000
0000
0000
0000
,  // measure 3
0000
0000
0000
0000
,  // measure 4
1000
0000
1000
0000
,  // measure 5
0001
0000
0001
0000
,  // measure 6
0200
0000
0300
0000
,  // measure 7
0020
0000
0030
0000
,  // measure 8
1000
0000
1000
0000
,  // measure 9
0001
0000
0001
0000
,  // measure 10
0100
0000
0100
0000
,  // measure 11
0010
0000
0010
0000
,  // measure 12
1000
0000
1000
0000
,  // measure 13
0010
0000
0010
0000
,  // measure 14
0100
0000
0100
0000
,  // measure 15
0001
0000
0001
0000
,  // measure 16
1000
1000
1000
0000
,  // measure 17
0001
0001
0001
0000
,  // measure 18
0100
0100
0100
0000
,  // measure 19
0010
0010
0010
0000
,  // measure 20
1000
1000
1000
0000
,  // measure 21
0100
0100
0100
0000
,  // measure 22
0010
0010
0010
0000
,  // measure 23
0001
0001
0001
0000
,  // measure 24
2002
0000
0000
0000
,  // measure 25
0000
0000
3003
0000
,  // measure 26
1000
0000
1000
0000
,  // measure 27
0001
0000
0001
0000
,  // measure 28
0100
0000
0100
0000
,  // measure 29
0010
0000
0010
0000
,  // measure 30
1000
0000
1000
0000
,  // measure 31
0010
0000
0010
0000
,  // measure 32
0100
0000
0100
0000
,  // measure 33
0001
0000
0001
0000
,  // measure 34
1000
1000
1000
0000
,  // measure 35
0001
0001
0001
0000
,  // measure 36
0100
0100
0100
0000
,  // measure 37
0010
0010
0010
0000
,  // measure 38
1000
1000
1000
0000
,  // measure 39
0001
0001
0001
0000
,  // measure 40
0100
0100
0100
0000
,  // measure 41
2002
0000
3003
0000
,  // measure 42
1000
0000
1000
0000
,  // measure 43
0001
0000
0001
0000
,  // measure 44
0100
0000
0100
0000
,  // measure 45
0010
0000
0010
0000
,  // measure 46
2000
0000
3000
0000
,  // measure 47
0002
0000
0003
0000
,  // measure 48
0200
0000
0300
0000
,  // measure 49
0020
0000
0030
0000
;
