#TITLE:儚きもの人間;
#SUBTITLE:;
#ARTIST:豚乙女;
#TITLETRANSLIT:Hakanakimono Ningen;
#SUBTITLETRANSLIT:;
#ARTISTTRANSLIT:BUTAOTOME;
#GENRE:;
#CREDIT:;
#BANNER:[ZIv Academy II] - Hakanakimono Ningen.png;
#BACKGROUND:[ZIv Academy II] - Hakanakimono Ningen-bg.png;
#LYRICSPATH:[ZIv Academy II] - Hakanakimono Ningen.lrc;
#CDTITLE:cdtitle.png;
#MUSIC:[ZIv Academy II] - Hakanakimono Ningen.ogg;
#OFFSET:0.000000;
#SAMPLESTART:43.980000;
#SAMPLELENGTH:16.000000;
#SELECTABLE:YES;
#BPMS:0.000000=180.000000
;
#STOPS:
;
#BGCHANGES:-0.500=[ZIv Academy II] - Hakanakimono Ningen.avi=1.000=1=0=0=StretchNoLoop==CrossFade==,
99999=-nosongbg-=1.000=0=0=0 // don't automatically add -songbackground-
;
#KEYSOUNDS:;
#ATTACKS:TIME=113.363333:LEN=50.000000:MODS=*999 50% Stealth:TIME=116.030000:LEN=5.000000:MODS=*0.25 Stealth:TIME=118.030000:LEN=5.000000:MODS=*6 No Stealth;

//---------------dance-single - ----------------
#NOTES:
     dance-single:
     C 07 X 10:
     Medium:
     7:
     0.508333,0.592500,0.041667,0.191667,0.062500,427.000000,422.000000,5.000000,23.000000,0.000000,0.000000,0.508333,0.592500,0.041667,0.191667,0.062500,427.000000,422.000000,5.000000,23.000000,0.000000,0.000000:
// measure 0
0000
0000
0000
0000
,  // measure 1
0000
0000
0000
0000
,  // measure 2
0000
0000
0000
0000
,  // measure 3
0000
0000
0000
0000
,  // measure 4
0000
0000
0000
0000
,  // measure 5
0001
0000
0010
0100
0000
0100
0010
0000
,  // measure 6
0001
0100
0000
0100
0001
0000
0001
0000
,  // measure 7
1000
0000
0010
0100
0000
0100
0010
0000
,  // measure 8
1000
0100
0000
0100
1000
0000
1000
0000
,  // measure 9
0001
0100
0001
0000
1000
0010
1000
0000
,  // measure 10
0001
0100
0010
1000
0001
0000
1001
0000
,  // measure 11
1000
0100
1000
0000
0001
0010
0001
0000
,  // measure 12
1000
0100
0010
0001
1000
0000
1001
0000
,  // measure 13
0001
0100
0010
0000
1000
0010
0100
0000
,  // measure 14
0001
0100
0010
1000
0001
0000
1000
0100
,  // measure 15
0020
0000
0000
0000
0130
0000
0000
0000
1000
0000
0000
1000
0000
0000
1000
0000
,  // measure 16
0002
0023
0230
1300
,  // measure 17
0001
0100
0001
0100
0020
0000
0000
0030
,  // measure 18
1000
0010
1000
0000
0001
0100
0001
0000
,  // measure 19
2000
3100
0020
0000
,  // measure 20
0100
0100
0130
0000
,  // measure 21
1000
0100
1000
0100
0020
0000
0000
0030
,  // measure 22
0001
0010
0001
0000
1000
0100
1000
0000
,  // measure 23
0002
0100
0100
0103
,  // measure 24
0001
0100
0010
0000
1000
0010
0100
0000
,  // measure 25
0001
0010
0001
0010
0200
0000
0000
0300
,  // measure 26
1000
0100
1000
0000
0001
0010
0001
0000
,  // measure 27
2000
3010
0200
0000
,  // measure 28
0010
0000
0310
0000
1000
0001
1000
0000
,  // measure 29
0001
0000
0000
0100
0000
0000
0010
0000
2000
0000
0000
0000
0100
0000
0000
0000
,  // measure 30
3001
0000
0000
0010
0000
0000
0100
0000
2000
0000
0000
0000
0010
0000
0000
0000
,  // measure 31
3002
0100
0100
0103
,  // measure 32
0010
1000
0010
0000
0100
0001
0100
0000
,  // measure 33
0001
0010
0001
0000
0010
0000
0100
0000
,  // measure 34
1000
0001
1000
0000
0010
0000
0100
0000
,  // measure 35
0001
0010
0001
0000
0010
0000
0100
0000
,  // measure 36
1000
0001
1000
0000
0100
0000
1000
0000
,  // measure 37
0001
0010
0001
0000
0010
0000
0100
0000
,  // measure 38
1000
0001
1000
0000
0010
0000
1000
0001
,  // measure 39
0100
0000
0010
1000
0001
0000
0010
0000
,  // measure 40
0100
1000
0001
1000
,  // measure 41
0001
0010
0100
0010
0001
0010
0100
0010
,  // measure 42
0001
0010
0100
0010
0001
0000
0001
0000
,  // measure 43
1000
0010
0100
0010
1000
0010
0100
0010
,  // measure 44
1000
0010
0100
0010
1000
0000
1000
0000
,  // measure 45
0001
0000
0000
0010
0000
0000
0100
0000
0000
1000
0000
0000
0100
0000
1000
0000
,  // measure 46
0001
0000
0000
0100
0000
0000
0010
0000
0000
1000
0000
0000
0010
0000
1000
0000
,  // measure 47
0001
0000
0000
0010
0000
0000
1000
0000
0000
0010
0000
0000
0001
0000
1000
0000
,  // measure 48
0001
0000
0000
0100
0000
0000
1000
0000
0000
0100
0000
0000
0001
0000
1000
0000
,  // measure 49
0001
0001
0000
0000
0000
0000
0000
0000
,  // measure 50
0020
0000
0000
0000
,  // measure 51
0130
0100
0000
0000
0000
0000
0000
0000
,  // measure 52
2000
0000
0000
0000
,  // measure 53
3001
0001
0000
0000
0000
0000
0000
0000
,  // measure 54
0200
0000
0000
0000
,  // measure 55
0310
0010
0000
0000
0000
0000
0000
0000
,  // measure 56
1000
0000
1000
0000
1000
0001
1000
0000
,  // measure 57
0001
0000
0010
0000
0100
0010
0100
0000
,  // measure 58
1000
0100
0010
0001
1000
0000
0001
0000
,  // measure 59
1000
0000
0010
0000
0100
0010
0100
0000
,  // measure 60
0001
0100
0010
1000
0001
0000
1000
0000
,  // measure 61
0001
0000
0010
0000
0100
0010
0100
0000
,  // measure 62
1000
0100
0010
0001
1000
0000
0001
1000
,  // measure 63
0020
0000
1030
0001
0020
0000
0130
0000
,  // measure 64
2000
0001
0001
3001
,  // measure 65
0001
0100
0010
0100
0001
0100
0010
0100
,  // measure 66
0001
0100
0010
0100
0001
0000
0001
0000
,  // measure 67
1000
0100
0010
0100
1000
0100
0010
0100
,  // measure 68
1000
0100
0010
0100
1000
0000
1000
0000
,  // measure 69
0001
0000
0100
0000
0010
1000
0100
0000
,  // measure 70
1000
0000
0010
0000
0100
0001
0010
0000
,  // measure 71
0001
0100
0010
1000
,  // measure 72
0001
0010
0100
1000
0001
0000
1001
0000
,  // measure 73
0001
0000
0100
0000
0010
0100
0010
0000
,  // measure 74
1000
0000
0000
0000
0001
0000
0000
0000
0010
0000
0000
0100
0000
0000
0010
0000
,  // measure 75
0001
0000
0000
1000
0000
0000
0001
0000
0100
0000
0000
0010
0000
0000
0100
0000
,  // measure 76
0001
0000
0000
1000
0000
0000
0001
0000
0010
0000
0000
0000
1001
0000
0000
0000
,  // measure 77
0001
0010
0100
0010
0001
0010
0100
0010
,  // measure 78
0001
0010
0100
0010
0001
0000
0001
0000
,  // measure 79
1000
0010
0100
0010
1000
0010
0100
0010
,  // measure 80
1000
0010
0100
0010
1000
0000
1000
0000
,  // measure 81
0001
0010
0100
1000
0010
0100
0001
0010
,  // measure 82
0100
1000
0010
0100
0001
0000
0001
0000
,  // measure 83
1000
0010
0100
0001
0010
0100
1000
0010
,  // measure 84
0100
0001
0010
0100
1000
0000
1000
0000
,  // measure 85
0220
0000
0000
0000
,  // measure 86
0000
0000
0000
0000
,  // measure 87
0000
0000
0000
0000
,  // measure 88
0000
0000
0000
0000
0330
0000
0010
0100
;

//---------------dance-single - ----------------
#NOTES:
     dance-single:
     C 11 X 16:
     Challenge:
     11:
     0.820238,0.925781,0.633333,0.308333,0.416667,689.000000,613.000000,76.000000,37.000000,0.000000,0.000000,0.820238,0.925781,0.633333,0.308333,0.416667,689.000000,613.000000,76.000000,37.000000,0.000000,0.000000:
// measure 0
0000
0000
0000
0000
,  // measure 1
0000
0000
0000
0000
,  // measure 2
0000
0000
0000
0000
,  // measure 3
0000
0000
0000
0000
,  // measure 4
0000
0000
0000
0000
,  // measure 5
0001
0000
1000
0010
0100
0000
0001
0000
1000
0100
0010
0000
0001
0000
1000
0010
,  // measure 6
0100
0000
0001
0000
1000
0100
0010
0000
1001
0000
0000
0000
1001
0000
0000
0000
,  // measure 7
1000
0000
0001
0010
0100
0000
1000
0000
0001
0100
0010
0000
1000
0000
0001
0010
,  // measure 8
0100
0000
1000
0000
0001
0100
0010
0000
1000
0000
0100
0000
0001
0000
0100
0000
,  // measure 9
1000
0010
0100
0010
1000
0100
0010
0100
,  // measure 10
1000
0010
0100
0001
0010
0000
1001
0000
,  // measure 11
0001
0010
0100
0010
0001
0100
0010
0100
,  // measure 12
0001
0010
0100
1000
0010
0000
1001
0000
,  // measure 13
1000
0100
0010
0100
1000
0010
0100
0010
,  // measure 14
1000
0001
0010
0100
0010
0000
0001
1000
,  // measure 15
2010
0000
0000
0000
3100
0000
0000
0000
0011
0000
0000
0110
0000
0000
1100
0000
,  // measure 16
0110
1001
0220
0330
,  // measure 17
0001
0100
0100
1000
0020
0000
0001
0000
,  // measure 18
1030
0000
0100
0010
0100
0000
0010
0100
0010
0000
0001
0000
0010
0000
0100
0000
,  // measure 19
2000
0000
3010
0002
0100
0000
1003
0100
,  // measure 20
0010
0001
0100
0010
0100
0001
0010
0100
,  // measure 21
1000
0100
0100
0001
0020
0000
1000
0000
,  // measure 22
0031
0000
0100
0010
0100
0000
0010
0100
0010
0000
1000
0000
0010
0000
0100
0000
,  // measure 23
0002
0000
0013
2000
0100
0000
3001
0010
,  // measure 24
0100
0000
0010
0100
0010
0000
0100
0010
0100
0000
1000
0000
0010
0000
0100
0000
,  // measure 25
0001
0100
0100
1000
0020
0000
0001
0000
,  // measure 26
1030
0010
0001
1000
0100
0001
0010
1000
,  // measure 27
0020
0000
0130
1000
0002
0000
0103
0010
,  // measure 28
1000
0000
0100
0010
0100
0000
0010
0100
0010
0000
0001
0000
1000
0000
0000
0000
,  // measure 29
0020
0000
0000
0130
0000
0000
0101
0000
1200
0000
0000
0000
0301
0000
0000
0000
,  // measure 30
0010
0000
0000
0100
0000
0000
1100
0000
0201
0000
0000
0000
1300
0000
0000
0000
,  // measure 31
0110
0000
1000
0001
1000
0001
1000
0001
,  // measure 32
0200
0000
0010
0000
0310
0000
0100
0010
0100
0000
0020
0000
0100
0000
0130
0000
,  // measure 33
0001
0000
0010
0100
0010
0000
0001
0000
1000
0000
0000
0000
0010
0000
0100
0000
,  // measure 34
0010
0000
1000
0001
1000
0000
0100
0000
0010
0000
0000
0000
0110
0000
0000
0000
,  // measure 35
1000
0000
0100
0010
0100
0000
1000
0000
0001
0000
0000
0000
0100
0000
0010
0000
,  // measure 36
0100
0000
0001
1000
0001
0000
0010
0000
0100
0000
0000
0000
0110
0000
0000
0000
,  // measure 37
0001
0000
0010
0100
0010
0000
0001
0000
1000
0000
0000
0000
0010
0000
0100
0000
,  // measure 38
0010
0000
1000
0001
1000
0000
0100
0000
0010
0000
0000
0000
0210
0000
0310
0000
,  // measure 39
0012
0000
0103
0010
2010
0000
0100
0000
,  // measure 40
3001
0000
0100
0010
0100
0000
0001
1000
0001
1000
0100
0010
0100
0000
1000
0000
,  // measure 41
0001
0000
0010
0100
1000
0000
0001
0000
0100
0010
1000
0000
0001
0000
0010
0100
,  // measure 42
1000
0000
0001
0000
0100
0010
1000
0000
1001
0000
0000
0000
1001
0000
0000
0000
,  // measure 43
1000
0000
0010
0100
0001
0000
1000
0000
0100
0010
0001
0000
1000
0000
0010
0100
,  // measure 44
0001
0000
1000
0000
0100
0010
0001
0000
1001
0000
0000
0000
1001
0000
0000
0000
,  // measure 45
0011
0000
0000
0101
0000
0000
1100
0000
0000
0011
0000
0000
0100
0000
1000
0000
,  // measure 46
1010
0000
0000
1100
0000
0000
0101
0000
0000
1010
0000
0000
0100
0000
0001
0000
,  // measure 47
0011
0000
0000
1100
0000
0000
1010
0000
0000
0011
0000
0000
0100
0000
1000
0000
,  // measure 48
1010
0000
0000
0101
0000
0000
0011
0000
0000
1010
0000
0000
0100
0000
0001
0000
,  // measure 49
0110
0110
0000
0000
0000
0000
0000
0000
,  // measure 50
2002
0000
0000
0000
3003
0000
0000
0000
0001
1000
0001
0000
0010
0000
0100
0000
,  // measure 51
0110
0110
0000
0000
0000
0000
0000
0000
,  // measure 52
0220
0000
0000
0000
0330
0000
0000
0000
0010
0000
0100
1000
0002
0000
1003
0000
,  // measure 53
1001
1001
0000
0000
0000
0000
0000
0000
,  // measure 54
2002
0000
0000
0000
3003
0000
0000
0000
0001
1000
0001
0100
0010
0000
0100
0000
,  // measure 55
0110
0220
0000
0000
0000
0000
0330
0000
,  // measure 56
0010
0000
0100
0010
0100
0000
0010
0100
0001
0000
1000
0001
1000
0000
0001
1000
,  // measure 57
0001
0000
0100
0010
0100
0000
0001
0000
1000
0000
0100
0010
0100
0000
1000
0000
,  // measure 58
0001
0000
0100
0010
0100
0000
0001
0000
1000
0000
0100
0000
0110
0000
0000
0000
,  // measure 59
1000
0000
0100
0010
0100
0000
1000
0000
0001
0000
0100
0010
0100
0000
0001
0000
,  // measure 60
1000
0000
0100
0010
0100
0000
1000
0000
0001
0000
0100
0000
0110
0000
0100
0000
,  // measure 61
0001
0000
0010
0100
0010
0000
0100
0000
1000
0000
0010
0100
0010
0000
0100
0000
,  // measure 62
0001
0000
0010
0100
0010
0000
0100
0000
1000
0000
0010
0000
0120
0000
0130
0000
,  // measure 63
2010
0000
3100
0010
0012
0000
1000
0000
,  // measure 64
0103
0000
0010
0000
0100
0000
0010
0000
1000
0001
1000
0001
0010
0100
0010
0000
,  // measure 65
0001
0000
0100
0010
1000
0000
0001
0000
0010
0100
1000
0000
0001
0000
0100
0010
,  // measure 66
1000
0000
0001
0000
0010
0100
1000
0000
1001
0000
0000
0000
1001
0000
0000
0000
,  // measure 67
1000
0000
0100
0010
0001
0000
1000
0000
0010
0100
0001
0000
1000
0000
0100
0010
,  // measure 68
0001
0000
1000
0000
0010
0100
0001
0000
1001
0000
0000
0000
1001
0000
0000
0000
,  // measure 69
0001
0000
0100
0010
0100
0000
0010
0100
0010
0000
0100
0000
0001
0000
1000
0000
,  // measure 70
0001
0000
0010
0100
0010
0000
0100
0010
0100
0000
0010
0000
0001
0000
1000
0000
,  // measure 71
0001
0100
1000
0001
1000
0100
0001
2000
,  // measure 72
0000
0000
3100
0000
0010
0100
0010
0000
0001
0000
0100
0000
0010
0000
1000
0000
,  // measure 73
0001
0000
0010
0000
1000
0000
0020
0000
0000
0000
0031
0000
0100
0010
0100
0000
,  // measure 74
0001
0000
0010
0000
0100
0000
0010
0000
0011
0000
0000
1100
0000
0000
1000
0000
,  // measure 75
0001
0000
0000
0101
0000
0000
0010
0000
1000
0000
0000
1100
0000
0000
0010
0000
,  // measure 76
0001
0000
0000
0101
0000
0000
0010
0000
2000
0000
0000
0000
3001
0000
0000
0000
,  // measure 77
0001
0000
0100
0010
1000
0000
0001
0000
0010
0100
1000
0000
0001
0000
0100
0010
,  // measure 78
1000
0000
0001
0000
0010
0100
1000
0000
1001
0000
0000
0000
1001
0000
0000
0000
,  // measure 79
1000
0000
0100
0010
0001
0000
1000
0000
0010
0100
0001
0000
1000
0000
0100
0010
,  // measure 80
0001
0000
1000
0000
0010
0100
0001
0000
1001
0000
0000
0000
1001
0000
0000
0000
,  // measure 81
0001
0000
0100
0010
0001
0000
1000
0000
0100
0010
1000
0000
0001
0000
0010
0100
,  // measure 82
0001
0000
1000
0000
0010
0100
1000
0000
1001
0000
0000
0000
1001
0000
0000
0000
,  // measure 83
1000
0000
0100
0010
1000
0000
0001
0000
0100
0010
0001
0000
1000
0000
0010
0100
,  // measure 84
1000
0000
0001
0000
0010
0100
0001
0000
1001
0000
0000
0000
0110
0000
0000
0000
,  // measure 85
2002
0000
0000
0000
,  // measure 86
0000
0000
0000
0000
,  // measure 87
0000
0000
0000
0000
,  // measure 88
0000
0000
0000
0000
3003
0000
0010
0110
;

//---------------dance-single - ----------------
#NOTES:
     dance-single:
     C 02 X 03:
     Beginner:
     2:
     0.195238,0.247917,0.150000,0.025000,0.000000,164.000000,146.000000,18.000000,3.000000,0.000000,0.000000,0.195238,0.247917,0.150000,0.025000,0.000000,164.000000,146.000000,18.000000,3.000000,0.000000,0.000000:
// measure 0
0000
0000
0000
0000
,  // measure 1
0000
0000
0000
0000
,  // measure 2
0000
0000
0000
0000
,  // measure 3
0000
0000
0000
0000
,  // measure 4
0000
0000
0000
0000
,  // measure 5
0001
0000
0001
0000
,  // measure 6
0001
0000
1001
0000
,  // measure 7
1000
0000
1000
0000
,  // measure 8
1000
0000
1001
0000
,  // measure 9
0010
0000
0010
0000
,  // measure 10
0010
0000
0000
0000
,  // measure 11
0100
0000
0100
0000
,  // measure 12
0100
0000
0000
0000
,  // measure 13
0001
0000
0001
0000
,  // measure 14
0001
0000
0000
0000
,  // measure 15
1000
0000
1000
0000
,  // measure 16
0002
0000
0003
0000
,  // measure 17
1000
0000
0000
0000
,  // measure 18
1000
0000
0000
0000
,  // measure 19
0010
0000
0010
0000
,  // measure 20
1000
1000
1000
0000
,  // measure 21
0001
0000
0000
0000
,  // measure 22
0001
0000
0000
0000
,  // measure 23
0010
0000
0000
0000
,  // measure 24
0001
0001
0001
0000
,  // measure 25
1000
0000
0000
0000
,  // measure 26
1000
0000
0000
0000
,  // measure 27
0010
0000
0000
0000
,  // measure 28
0010
0000
0000
0000
,  // measure 29
0110
0000
0000
0000
,  // measure 30
1001
0000
0000
0000
,  // measure 31
0002
0000
0003
0000
,  // measure 32
2000
0000
3000
0000
,  // measure 33
0001
0001
0001
0000
,  // measure 34
1000
1000
1000
0000
,  // measure 35
0010
0010
0010
0000
,  // measure 36
1000
1000
1000
0000
,  // measure 37
0001
0001
0001
0000
,  // measure 38
0010
0010
0010
0000
,  // measure 39
0100
0000
1000
0000
,  // measure 40
1001
0000
0000
0000
,  // measure 41
1000
0000
1000
0000
,  // measure 42
1000
0000
1001
0000
,  // measure 43
0001
0000
0001
0000
,  // measure 44
0001
0000
1001
0000
,  // measure 45
1000
0000
0000
0000
,  // measure 46
0010
0000
0000
0000
,  // measure 47
0100
0000
0000
0000
,  // measure 48
0001
0000
0000
0000
,  // measure 49
1000
0000
0000
0000
,  // measure 50
1001
0000
0000
0000
,  // measure 51
0010
0000
0000
0000
,  // measure 52
0110
0000
0000
0000
,  // measure 53
0001
0000
0000
0000
,  // measure 54
1001
0000
0000
0000
,  // measure 55
1000
0000
1000
0000
,  // measure 56
1000
0000
0001
0000
,  // measure 57
1000
1000
1000
0000
,  // measure 58
0010
0010
0010
0000
,  // measure 59
1000
1000
1000
0000
,  // measure 60
0001
0001
0001
0000
,  // measure 61
0010
0010
0010
0000
,  // measure 62
0100
0100
0100
0000
,  // measure 63
1000
0000
0001
0000
,  // measure 64
1001
0000
0000
0000
,  // measure 65
0001
0000
0001
0000
,  // measure 66
0001
0000
1001
0000
,  // measure 67
1000
0000
1000
0000
,  // measure 68
1000
0000
1001
0000
,  // measure 69
0010
0000
0010
0000
,  // measure 70
0100
0000
0100
0000
,  // measure 71
0001
0000
0001
0000
,  // measure 72
1000
0000
1000
0000
,  // measure 73
0001
0000
1000
0000
,  // measure 74
0010
0000
0100
0000
,  // measure 75
0010
0000
0100
0000
,  // measure 76
0001
0000
1000
0000
,  // measure 77
0001
0000
0001
0000
,  // measure 78
0001
0000
1001
0000
,  // measure 79
1000
0000
1000
0000
,  // measure 80
1000
0000
1001
0000
,  // measure 81
0010
0000
0010
0000
,  // measure 82
0010
0000
0110
0000
,  // measure 83
0100
0000
0100
0000
,  // measure 84
0100
0000
0110
0000
,  // measure 85
1001
0000
0000
0000
;

//---------------dance-single - ----------------
#NOTES:
     dance-single:
     C 04 X 06:
     Easy:
     4:
     0.273810,0.370313,0.300000,0.400000,0.000000,230.000000,194.000000,36.000000,48.000000,0.000000,0.000000,0.273810,0.370313,0.300000,0.400000,0.000000,230.000000,194.000000,36.000000,48.000000,0.000000,0.000000:
// measure 0
0000
0000
0000
0000
,  // measure 1
0000
0000
0000
0000
,  // measure 2
0000
0000
0000
0000
,  // measure 3
0000
0000
0000
0000
,  // measure 4
0000
0000
0000
0000
,  // measure 5
2000
0000
0000
3001
0000
0000
0002
0000
,  // measure 6
0000
1003
0000
0000
1001
0000
0000
0000
,  // measure 7
0200
0000
0000
0310
0000
0000
0020
0000
,  // measure 8
0000
0130
0000
0000
0110
0000
0000
0000
,  // measure 9
0001
0000
0001
0000
,  // measure 10
0002
1000
1003
0000
,  // measure 11
0100
0000
0100
0000
,  // measure 12
0200
1000
1300
0000
,  // measure 13
0010
0000
0010
0000
,  // measure 14
0020
0100
0130
0000
,  // measure 15
1001
0000
1001
0000
,  // measure 16
1000
1000
1000
0000
,  // measure 17
0002
0100
1003
0000
,  // measure 18
2000
0100
3001
0000
,  // measure 19
0020
0000
0200
0000
,  // measure 20
0000
0000
0000
0000
0000
0330
0000
0000
,  // measure 21
2000
0010
3100
0000
,  // measure 22
0200
0010
1300
0000
,  // measure 23
0002
0000
0000
0000
0000
0000
0000
0003
,  // measure 24
0010
0000
0010
0000
,  // measure 25
0002
0010
0103
0000
,  // measure 26
0200
0010
0301
0000
,  // measure 27
2000
0000
0020
0000
,  // measure 28
0000
3030
0000
0000
1000
0000
0000
0000
,  // measure 29
1010
0001
0010
0000
,  // measure 30
0011
1000
0001
0000
,  // measure 31
2002
0000
0000
0000
0000
0000
0000
3000
,  // measure 32
0000
0000
0000
0000
0000
0000
0000
0000
0003
0000
0000
0000
,  // measure 33
1000
0010
1000
0000
,  // measure 34
0100
0100
0100
0000
,  // measure 35
0010
0001
0010
0000
,  // measure 36
0100
0100
0100
0000
,  // measure 37
1000
0001
1000
0000
,  // measure 38
0010
0010
0010
0000
,  // measure 39
0110
0000
1001
0000
,  // measure 40
0022
0000
0000
0033
,  // measure 41
2000
0000
0000
3001
0000
0000
0002
0000
,  // measure 42
0000
1003
0000
0000
1001
0000
0000
0000
,  // measure 43
0200
0000
0000
0310
0000
0000
0020
0000
,  // measure 44
0000
0130
0000
0000
0110
0000
0000
0000
,  // measure 45
2002
0000
0000
0000
,  // measure 46
0000
0000
0000
3000
,  // measure 47
1000
0000
0000
1000
0000
0000
1000
0000
,  // measure 48
0103
0000
0000
0001
0000
0000
0100
0000
,  // measure 49
0101
0000
0010
0000
,  // measure 50
2020
0000
3030
0000
,  // measure 51
1100
0000
0010
0000
,  // measure 52
0022
0000
0033
0000
,  // measure 53
0110
0000
0001
0000
,  // measure 54
2002
0000
3003
0000
,  // measure 55
1000
0000
0001
1000
,  // measure 56
0002
0000
0000
0003
,  // measure 57
1000
1000
0001
0001
,  // measure 58
1000
0001
0001
0000
,  // measure 59
0010
0010
0100
0100
,  // measure 60
0010
0100
0100
0000
,  // measure 61
1000
1000
0100
0100
,  // measure 62
0010
0001
0001
0000
,  // measure 63
1000
0010
0100
0001
,  // measure 64
0202
0000
0000
0303
,  // measure 65
1002
0000
0000
1000
0000
0000
2003
0000
,  // measure 66
0000
0001
0000
0000
3001
0000
0000
0000
,  // measure 67
0210
0000
0000
0010
0000
0000
0320
0000
,  // measure 68
0000
0100
0000
0000
0130
0000
0000
0000
,  // measure 69
2001
0000
0001
0000
,  // measure 70
0100
0000
0100
0000
,  // measure 71
3001
0001
0010
0010
,  // measure 72
0100
0100
1000
0000
,  // measure 73
0001
0001
0100
0000
,  // measure 74
0010
0010
2000
0000
,  // measure 75
3020
1000
2030
0000
,  // measure 76
3200
0010
0310
0000
,  // measure 77
0011
0000
0000
0001
0000
0000
0011
0000
,  // measure 78
0000
0010
0000
0000
0011
0000
0000
0000
,  // measure 79
1010
0000
0000
1000
0000
0000
1010
0000
,  // measure 80
0000
0010
0000
0000
1010
0000
0000
0000
,  // measure 81
0101
0000
0000
0001
0000
0000
0101
0000
,  // measure 82
0000
0100
0000
0000
0101
0000
0000
0000
,  // measure 83
1100
0000
0000
1000
0000
0000
1100
0000
,  // measure 84
0000
0100
0000
0000
1100
0000
0000
0000
,  // measure 85
2002
0000
0000
0000
,  // measure 86
0000
0000
0000
0000
,  // measure 87
0000
0000
0000
0000
,  // measure 88
0000
0000
0000
0000
0000
0000
3000
0003
;

//---------------dance-single - ----------------
#NOTES:
     dance-single:
     C 09 X 14:
     Hard:
     9:
     0.679762,0.703594,0.300000,0.350000,0.120833,571.000000,535.000000,36.000000,42.000000,0.000000,0.000000,0.679762,0.703594,0.300000,0.350000,0.120833,571.000000,535.000000,36.000000,42.000000,0.000000,0.000000:
// measure 0
0000
0000
0000
0000
,  // measure 1
0000
0000
0000
0000
,  // measure 2
0000
0000
0000
0000
,  // measure 3
0000
0000
0000
0000
,  // measure 4
0000
0000
0000
0000
,  // measure 5
1000
0010
1000
0001
0010
0001
1000
0010
,  // measure 6
1000
0001
0010
0001
1000
0000
1001
0000
,  // measure 7
0001
0100
0001
1000
0100
1000
0001
0100
,  // measure 8
0001
1000
0100
1000
0001
0010
0100
1000
,  // measure 9
1100
0000
0001
0000
0100
0001
0000
0001
,  // measure 10
0000
1000
0100
0010
0001
0020
0130
1000
,  // measure 11
0001
0000
1000
0000
0100
1000
0000
1000
,  // measure 12
0000
0001
0100
0010
1000
0020
0130
0001
,  // measure 13
1000
0000
0010
0000
1000
0001
0000
0001
,  // measure 14
0000
0100
0010
1000
0100
0020
0031
0000
,  // measure 15
1100
0001
0011
1000
,  // measure 16
0110
0000
0000
0000
1001
0000
0000
0000
0110
0000
0000
0000
0001
1000
0001
0000
,  // measure 17
1000
0010
0100
0010
1000
0001
0000
0001
,  // measure 18
1000
0100
0010
0100
1000
0001
0010
0001
,  // measure 19
2000
0001
0000
0010
3020
1000
0000
0100
,  // measure 20
0000
0000
0001
0000
0000
0000
0100
0000
0000
0000
1030
0000
1000
0010
1000
0000
,  // measure 21
0001
0010
0100
0010
0001
1000
0000
1000
,  // measure 22
0001
0100
0010
0100
0001
1000
0010
1000
,  // measure 23
0002
0010
0000
0100
0000
0010
0000
0103
,  // measure 24
0000
0000
0010
0000
1000
0000
0100
0000
0010
0000
0001
0000
0100
0001
0100
0000
,  // measure 25
0001
0010
0100
0010
1000
0010
0000
0010
,  // measure 26
0001
0100
0010
0100
1000
0100
0010
0100
,  // measure 27
0002
0100
0000
0010
0023
0001
0000
0100
,  // measure 28
0000
1030
0000
0010
0100
1000
0001
0000
,  // measure 29
1001
0000
0000
1000
0000
0000
0001
0000
0100
0000
0000
0000
0010
0000
0000
0000
,  // measure 30
0110
0000
0000
0100
0000
0000
0001
0000
0101
0000
0000
0000
1010
0000
0000
0000
,  // measure 31
0002
0010
0000
1000
0000
0100
0000
2000
,  // measure 32
0003
0000
0000
0100
0000
0000
0100
0000
0000
0000
0000
0000
0000
0000
0000
0010
3000
0000
0010
0000
0000
0000
0000
0000
,  // measure 33
1000
0010
0100
0010
2000
0000
3001
0100
,  // measure 34
0010
0000
0000
0000
0000
0000
0000
0000
0000
0000
0000
0000
0000
0000
0000
0000
0000
0000
0000
0000
0000
0000
0000
0000
0100
0000
0000
0000
0000
0000
0000
0000
0000
0000
0000
0000
0000
0000
0000
0000
0000
0000
0000
0000
0000
0000
0000
0000
1000
0000
0000
0000
0000
0000
0000
0000
0000
0000
0000
0000
0000
0000
0000
0000
0000
0000
0000
0000
0000
0000
0000
0000
0100
0000
0000
0000
0000
0000
0000
0000
0000
0000
0000
0000
0000
0000
0000
0000
0000
0000
0000
0000
0000
0000
0000
0000
0002
0000
0000
0000
0000
0000
0000
0000
0000
0000
0000
0000
0000
0000
0000
0000
0000
0000
0000
0000
0000
0000
0000
0000
0000
0000
0000
0000
0000
0000
0000
0000
0000
0000
0000
0000
0000
0000
0000
0000
0000
0000
0000
0000
0000
0000
0000
0003
0001
0000
0000
0000
0000
0000
0000
0000
0000
0000
0000
0000
0000
0000
0000
0000
0000
0000
0000
0000
0000
0000
0000
0000
0000
0000
0000
0000
0000
0000
0000
0000
0000
0000
0000
0000
0000
0000
0000
0000
0000
0000
0000
0000
0000
0000
0000
0000
,  // measure 35
1000
0100
0010
0100
2000
0000
3001
0010
,  // measure 36
0100
0000
0000
0000
0000
0000
0000
0000
0000
0000
0000
0000
0000
0000
0000
0000
0000
0000
0000
0000
0000
0000
0000
0000
0010
0000
0000
0000
0000
0000
0000
0000
0000
0000
0000
0000
0000
0000
0000
0000
0000
0000
0000
0000
0000
0000
0000
0000
1000
0000
0000
0000
0000
0000
0000
0000
0000
0000
0000
0000
0000
0000
0000
0000
0000
0000
0000
0000
0000
0000
0000
0000
0010
0000
0000
0000
0000
0000
0000
0000
0000
0000
0000
0000
0000
0000
0000
0000
0000
0000
0000
0000
0000
0000
0000
0000
0002
0000
0000
0000
0000
0000
0000
0000
0000
0000
0000
0000
0000
0000
0000
0000
0000
0000
0000
0000
0000
0000
0000
0000
0000
0000
0000
0000
0000
0000
0000
0000
0000
0000
0000
0000
0000
0000
0000
0000
0000
0000
0000
0000
0000
0000
0000
0003
0001
0000
0000
0000
0000
0000
0000
0000
0000
0000
0000
0000
0000
0000
0000
0000
0000
0000
0000
0000
0000
0000
0000
0000
0000
0000
0000
0000
0000
0000
0000
0000
0000
0000
0000
0000
0000
0000
0000
0000
0000
0000
0000
0000
0000
0000
0000
0000
,  // measure 37
0100
0001
1000
0001
0200
0000
0310
1000
,  // measure 38
0100
0001
0100
1000
0010
0000
1000
0001
,  // measure 39
0020
0000
0031
0100
2000
0000
3020
0000
,  // measure 40
0032
0000
0000
0000
0000
0000
0000
0000
0000
0000
0000
0000
0000
0000
0000
0000
0000
0000
0000
0000
0000
0000
0000
0000
1000
0000
0000
0000
0000
0000
0000
0000
0000
0000
0000
0000
0000
0000
0000
0000
0000
0000
0000
0000
0000
0000
0000
0000
0000
0000
0000
0000
0000
0000
0000
0000
0000
0000
0000
0000
0000
0000
0000
0000
0000
0000
0000
0000
0000
0000
0000
0000
1000
0000
0000
0000
0000
0000
0000
0000
0000
0000
0000
0000
0000
0000
0000
0000
0000
0000
0000
0000
0000
0000
0000
0000
0100
0000
0000
0000
0000
0000
0000
0000
0000
0000
0000
0000
0000
0000
0000
0000
0000
0000
0000
0000
0000
0000
0000
0000
0000
0000
0000
0000
0000
0000
0000
0000
0000
0000
0000
0000
0000
0000
0000
0000
0000
0000
0000
0000
0000
0000
0000
0003
0101
0000
0000
0000
0000
0000
0000
0000
0000
0000
0000
0000
0000
0000
0000
0000
0000
0000
0000
0000
0000
0000
0000
0000
0000
0000
0000
0000
0000
0000
0000
0000
0000
0000
0000
0000
0000
0000
0000
0000
0000
0000
0000
0000
0000
0000
0000
0000
,  // measure 41
0001
0100
0010
1000
0100
0010
0001
0100
,  // measure 42
0010
1000
0100
0010
0001
0000
1100
0000
,  // measure 43
1000
0010
0100
0001
0010
0100
1000
0010
,  // measure 44
0100
0001
0010
0100
1000
0000
0011
0000
,  // measure 45
1002
0000
0000
1000
0000
0000
1000
0000
0000
1000
0000
0000
0200
0000
0300
0000
,  // measure 46
1000
0000
0000
1000
0000
0000
1000
0000
0000
1000
0000
0000
0023
0000
0030
0000
,  // measure 47
0001
0000
0000
0010
0000
0000
1000
0000
0000
0010
0000
0000
0100
0010
0100
0000
,  // measure 48
0001
0000
0000
0100
0000
0000
1000
0000
0000
0100
0000
0000
0010
0100
0010
0000
,  // measure 49
0001
0001
0001
0100
0010
0000
0100
0001
,  // measure 50
1000
0000
0001
0000
1000
0000
0100
0000
0010
0001
0010
0000
0001
0000
0000
0000
,  // measure 51
1000
1000
1000
0010
0001
0000
0010
1000
,  // measure 52
0100
0000
0001
0000
0100
0000
1000
0000
0100
0000
0000
0100
0010
0000
0000
0000
,  // measure 53
0001
0001
0001
0100
1000
0000
0100
0001
,  // measure 54
0010
0000
0001
0000
0010
0000
0100
0000
1000
0010
0000
0010
1000
0000
0100
0000
,  // measure 55
0001
0000
1000
0010
0002
0000
0203
0000
,  // measure 56
1300
0000
0100
0000
0010
0000
0100
0000
0001
0100
0001
0000
1000
0010
1000
0000
,  // measure 57
0001
0010
0100
0010
1000
0010
0001
0010
,  // measure 58
1000
0010
0100
0010
0001
1000
1000
0000
,  // measure 59
0001
0100
0010
0100
1000
0100
0001
0100
,  // measure 60
1000
0100
0010
0100
0110
0000
0001
0000
,  // measure 61
1000
0010
0100
0010
0001
0010
1000
0100
,  // measure 62
0001
0100
0010
0100
1000
0000
0001
0100
,  // measure 63
0101
0000
0001
0010
0011
0000
1010
0000
,  // measure 64
2100
0100
0000
0010
0010
0000
3001
0000
,  // measure 65
0001
0010
1000
0001
0100
1000
0001
0010
,  // measure 66
1000
0001
0100
1000
0001
0000
1001
0000
,  // measure 67
1000
0010
0001
1000
0100
0001
1000
0010
,  // measure 68
0001
1000
0100
0001
1000
0000
0110
0000
,  // measure 69
2002
0000
0003
3002
0000
0010
0010
0013
,  // measure 70
0002
0000
0000
0000
1003
0000
1000
0000
0010
0100
0010
0000
1000
0000
0100
0000
,  // measure 71
1000
0010
0100
0001
1000
0100
0010
0002
,  // measure 72
0000
0000
0000
0000
0000
0000
0000
0000
0000
0000
0000
0000
0000
0000
0000
0000
0000
0000
0000
0000
0000
0000
0000
0003
0001
0000
0000
0000
0000
0000
0000
0000
0000
0000
0000
0000
0000
0000
0000
0000
0000
0000
0000
0000
0000
0000
0000
0000
0100
0000
0000
0000
0000
0000
0000
0000
0000
0000
0000
0000
0010
0000
0000
0000
0000
0000
0000
0000
0000
0000
0000
0000
0100
0000
0000
0000
0000
0000
0000
0000
0000
0000
0000
0000
0000
0000
0000
0000
0000
0000
0000
0000
0000
0000
0000
0000
1000
0000
0000
0000
0000
0000
0000
0000
0000
0000
0000
0000
0000
0000
0000
0000
0000
0000
0000
0000
0000
0000
0000
0000
0100
0000
0000
0000
0000
0000
0000
0000
0000
0000
0000
0000
0000
0000
0000
0000
0000
0000
0000
0000
0000
0000
0000
0000
0010
0000
0000
0000
0000
0000
0000
0000
0000
0000
0000
0000
0000
0000
0000
0000
0000
0000
0000
0000
0000
0000
0000
0000
0100
0000
0000
0000
0000
0000
0000
0000
0000
0000
0000
0000
0000
0000
0000
0000
0000
0000
0000
0000
0000
0000
0000
0000
,  // measure 73
0001
0000
0000
0000
0000
0000
0000
0000
0000
0000
0000
0000
0000
0000
0000
0000
0000
0000
0000
0000
0000
0000
0000
0000
0010
0000
0000
0000
0000
0000
0000
0000
0000
0000
0000
0000
0000
0000
0000
0000
0000
0000
0000
0000
0000
0000
0000
0000
0100
0000
0000
0000
0000
0000
0000
0000
0000
0000
0000
0000
0000
0000
0000
0000
0000
0000
0000
0000
0000
0000
0000
0000
2000
0000
0000
0000
0000
0000
0000
0000
0000
0000
0000
0000
0000
0000
0000
0000
0000
0000
0000
0000
0000
0000
0000
0000
0000
0000
0000
0000
0000
0000
0000
0000
0000
0000
0000
0000
0000
0000
0000
0000
0000
0000
0000
0000
0000
0000
0000
3000
1000
0000
0000
0000
0000
0000
0000
0000
0000
0000
0000
0000
0000
0000
0000
0000
0000
0000
0000
0000
0000
0000
0000
0000
0010
0000
0000
0000
0000
0000
0000
0000
0000
0000
0000
0000
0100
0000
0000
0000
0000
0000
0000
0000
0000
0000
0000
0000
0010
0000
0000
0000
0000
0000
0000
0000
0000
0000
0000
0000
0000
0000
0000
0000
0000
0000
0000
0000
0000
0000
0000
0000
,  // measure 74
1000
0000
0010
0000
1000
0000
0001
0000
0020
0000
0000
0032
0000
0000
0103
0000
,  // measure 75
2020
0000
0000
0000
0000
0000
0000
0000
0000
0000
0000
0000
0000
0000
0000
0000
0000
0000
0000
0000
0000
0000
0000
0000
0000
0000
0000
0000
0000
0000
0000
0000
0000
0000
0000
3000
1000
0000
0000
0000
0000
0000
0000
0000
0000
0000
0000
0000
0000
0000
0000
0000
0000
0000
0000
0000
0000
0000
0000
0000
0000
0000
0000
0000
0000
0000
0000
0000
0000
0000
0000
0030
0010
0000
0000
0000
0000
0000
0000
0000
0000
0000
0000
0000
0000
0000
0000
0000
0000
0000
0000
0000
0000
0000
0000
0000
2002
0000
0000
0000
0000
0000
0000
0000
0000
0000
0000
0000
0000
0000
0000
0000
0000
0000
0000
0000
0000
0000
0000
0000
0000
0000
0000
0000
0000
0000
0000
0000
0000
0000
0000
3000
1000
0000
0000
0000
0000
0000
0000
0000
0000
0000
0000
0000
0000
0000
0000
0000
0000
0000
0000
0000
0000
0000
0000
0000
0000
0000
0000
0000
0000
0000
0000
0000
0000
0000
0000
0003
0001
0000
0000
0000
0000
0000
0000
0000
0000
0000
0000
0000
0000
0000
0000
0000
0000
0000
0000
0000
0000
0000
0000
0000
,  // measure 76
2200
0000
0000
0000
0000
0000
0000
0000
0000
0000
0000
0000
0000
0000
0000
0000
0000
0000
0000
0000
0000
0000
0000
0000
0000
0000
0000
0000
0000
0000
0000
0000
0000
0000
0000
3000
1000
0000
0000
0000
0000
0000
0000
0000
0000
0000
0000
0000
0000
0000
0000
0000
0000
0000
0000
0000
0000
0000
0000
0000
0000
0000
0000
0000
0000
0000
0000
0000
0000
0000
0000
0300
0100
0000
0000
0000
0000
0000
0000
0000
0000
0000
0000
0000
0000
0000
0000
0000
0000
0000
0000
0000
0000
0000
0000
0000
2000
0000
0000
0000
0000
0000
0000
0000
0000
0000
0000
0000
0000
0000
0000
0000
0000
0000
0000
0000
0000
0000
0000
0000
0000
0000
0000
0000
0000
0000
0000
0000
0000
0000
0000
0000
0000
0000
0000
0000
0000
0000
0000
0000
0000
0000
0000
0000
3001
0000
0000
0000
0000
0000
0000
0000
0000
0000
0000
0000
0010
0000
0000
0000
0000
0000
0000
0000
0000
0000
0000
0000
0100
0000
0000
0000
0000
0000
0000
0000
0000
0000
0000
0000
0000
0000
0000
0000
0000
0000
0000
0000
0000
0000
0000
0000
,  // measure 77
0001
0100
1000
0001
0100
1000
0001
0010
,  // measure 78
1000
0001
0010
1000
1010
0000
1010
0000
,  // measure 79
1000
0010
0001
1000
0010
0001
1000
0100
,  // measure 80
0001
1000
0100
0001
0101
0000
1100
0000
,  // measure 81
0001
0100
1000
0001
1000
0100
0001
0010
,  // measure 82
1000
0001
1000
0010
1010
0000
0011
0000
,  // measure 83
1000
0010
0001
1000
0001
0010
1000
0100
,  // measure 84
0001
1000
0001
0100
0101
0000
0110
0000
,  // measure 85
2002
0000
0000
0000
,  // measure 86
0000
0000
0000
0000
,  // measure 87
0000
0000
0000
0000
,  // measure 88
0000
0000
0000
0000
3003
0000
0100
0110
;
