#TITLE:Gourmet Race;
#SUBTITLE:(Drumstep Remix);
#ARTIST:dj-Jo;
#TITLETRANSLIT:;
#SUBTITLETRANSLIT:;
#ARTISTTRANSLIT:;
#GENRE:;
#CREDIT:;
#BANNER:[ZIv Academy II] - Gourmet Race (Drumstep Remix).png;
#BACKGROUND:[ZIv Academy II] - Gourmet Race (Drumstep Remix)-bg.png;
#LYRICSPATH:;
#CDTITLE:cdtitle.png;
#MUSIC:[ZIv Academy II] - Gourmet Race (Drumstep Remix).ogg;
#OFFSET:-0.116000;
#SAMPLESTART:69.425003;
#SAMPLELENGTH:10.200000;
#SELECTABLE:YES;
#DISPLAYBPM:94.000000:187.000000;
#BPMS:0.000000=93.500000
,3.000000=187.000000
,84.000000=93.500000
,92.000000=187.000000
,108.000000=93.500000
,116.000000=187.000000
,140.000000=93.500000
,144.000000=187.000000
,176.000000=93.500000
,184.000000=187.000000
,247.000000=374.000000
,249.000000=187.000000
,313.000000=93.500000
;
#STOPS:3.000000=0.321000
;
#BGCHANGES:;
#KEYSOUNDS:;
#ATTACKS:;

//---------------dance-single - ----------------
#NOTES:
     dance-single:
     :
     Beginner:
     3:
     0.207143,0.315174,0.026852,0.053704,0.000000,162.000000,159.000000,3.000000,6.000000,18.000000,0.000000,0.207143,0.315174,0.026852,0.053704,0.000000,162.000000,159.000000,3.000000,6.000000,18.000000,0.000000:
0000
0000
0000
MMMM
,
0010
0000
0001
0000
,
1000
0000
0100
0000
,
1000
0000
0001
0000
,
0100
0000
0100
0000
,
0010
0000
1000
0000
,
0001
0000
0010
0000
,
0100
0000
1000
0000
,
0001
0000
0100
0000
,
0010
0000
1000
0000
,
0001
0000
0100
0000
,
0001
0000
1000
0000
,
0100
0000
0100
0000
,
0010
0000
0001
0000
,
1000
0000
0010
0000
,
0100
0000
0001
0000
,
1000
0000
0100
0000
,
1000
0000
1000
0000
,
0010
0000
0010
0000
,
0100
0000
0100
0000
,
0001
0000
0001
0000
,
10M0
0100
0010
0100
,
0001
0100
0010
0001
,
M001
0000
0001
0000
,
0100
0000
0100
0000
,
0010
0000
0010
0000
,
1000
0000
1000
0000
,
0M01
0100
0010
0100
,
1000
0100
0002
0003
,
10M0
0000
0010
0000
,
0100
0000
0001
0000
,
0001
0000
0010
0000
,
0100
0000
1000
0000
,
0001
0000
0100
0000
,
1000
0000
0100
0000
,
001M
0010
0100
0100
,
M001
0000
0010
0000
,
0100
0000
1000
0000
,
1000
0000
0010
0000
,
0100
0000
0001
0000
,
1000
0000
0001
0000
,
0010
0000
1000
0000
,
0001
0000
0100
0000
,
2000
0000
0000
0000
,
0M02
0000
0000
0000
,
0000
0000
0000
3000
,
M013
0000
0100
0000
,
1000
0000
0001
0000
,
0100
0000
0010
0000
,
0100
0000
2001
0000
,
3010
0000
0100
0000
,
0001
0000
1000
0000
,
0100
0000
0010
0000
,
0100
0000
1002
0000
,
1003
0000
0010
0000
,
0001
0000
0010
0000
,
1000
0000
0100
0000
,
0001
0000
0100
0000
,
1000
0000
0001
0000
,
0100
0000
0010
0000
,
1000
0000
0001
0000
,
0010
0000
0100
000M
,
0000
100M
0000
0100
,
0000
0010
0000
0001
,
0000
0001
0000
0010
,
0000
0100
0000
1000
,
0000
0001
0000
0100
,
0000
0010
0000
1000
,
0000
1000
0000
0010
,
0000
0100
0000
1002
,
0000
1003
0000
1000
,
0000
0100
0000
0100
,
0000
0010
0000
0010
,
0000
0001
0000
0001
,
0000
0010
0000
0001
,
0000
0100
0000
1000
,
0000
0100
0000
0001
,
0000
0010
0000
0100
,
0000
MMMM
0000
0000
;

//---------------dance-single - ----------------
#NOTES:
     dance-single:
     :
     Easy:
     5:
     0.411729,0.630348,0.447531,0.295371,0.000000,322.000000,272.000000,50.000000,33.000000,18.000000,0.000000,0.411729,0.630348,0.447531,0.295371,0.000000,322.000000,272.000000,50.000000,33.000000,18.000000,0.000000:
// measure 0
0000
0000
0000
MMMM
,  // measure 1
2020
3030
0202
0303
,  // measure 2
1001
0110
2200
3300
,  // measure 3
0001
0100
0010
1000
,  // measure 4
0100
0010
0002
0003
,  // measure 5
0022
0033
2200
3300
,  // measure 6
0110
2001
3100
0100
,  // measure 7
1000
0010
0100
0001
,  // measure 8
1010
0100
0011
0000
,  // measure 9
0220
0330
2002
3003
,  // measure 10
0001
1000
0100
0000
,  // measure 11
1000
0100
0010
0001
,  // measure 12
0100
0010
2000
3000
,  // measure 13
2020
3030
0202
0303
,  // measure 14
1001
0210
0301
0001
,  // measure 15
1000
0100
0010
0001
,  // measure 16
0011
0100
1010
0000
,  // measure 17
1100
1100
0101
1001
,  // measure 18
0011
1010
1001
0110
,  // measure 19
0101
0101
1100
1001
,  // measure 20
0011
1010
0220
0030
,  // measure 21
M301
0000
1000
0000
0100
1000
0010
0000
,  // measure 22
1000
0000
0001
0000
0100
0001
0010
0000
,  // measure 23
M101
1100
1001
0110
,  // measure 24
1010
0011
0110
1001
,  // measure 25
1100
0101
1001
0110
,  // measure 26
1010
0011
0220
0030
,  // measure 27
130M
0000
1000
0000
0010
1000
0001
0100
,  // measure 28
0001
0000
0001
0000
2000
0000
0000
3001
,  // measure 29
01M0
0001
0010
0100
,  // measure 30
1000
0100
0010
0000
,  // measure 31
0001
1000
0010
1000
,  // measure 32
0100
1000
0010
0000
,  // measure 33
1000
0001
0010
0001
,  // measure 34
0100
0001
0010
0100
,  // measure 35
100M
0010
0100
0001
,  // measure 36
10M0
0100
0010
0100
,  // measure 37
0001
0100
0010
0000
,  // measure 38
0001
0100
0010
0100
,  // measure 39
1000
0100
0010
0000
,  // measure 40
1000
0100
0010
0001
,  // measure 41
1000
0010
0100
0001
,  // measure 42
1000
1000
0001
0001
,  // measure 43
0200
0000
0000
0300
,  // measure 44
20M2
0000
0000
0000
,  // measure 45
0000
0000
0000
3003
,  // measure 46
1M00
1000
0010
0010
,  // measure 47
0100
0100
0001
0001
,  // measure 48
1000
0100
0010
0001
,  // measure 49
1000
0001
0001
1000
,  // measure 50
0001
0001
0010
0010
,  // measure 51
0100
0100
1000
1000
,  // measure 52
0001
0100
1000
0100
,  // measure 53
0001
0010
0200
0000
,  // measure 54
0310
0010
0001
0001
,  // measure 55
1000
1000
0100
0100
,  // measure 56
1000
0001
0010
0100
,  // measure 57
1000
0010
0100
0100
,  // measure 58
0010
0010
1000
1000
,  // measure 59
0001
0001
0100
0100
,  // measure 60
0001
0010
1000
0010
,  // measure 61
0001
0100
0010
000M
,  // measure 62
0000
1M00
0100
0000
,  // measure 63
0010
0000
0001
0010
,  // measure 64
0001
0000
1000
0010
,  // measure 65
1000
0001
0100
0010
,  // measure 66
0100
0000
0001
1000
,  // measure 67
0100
0000
1000
0001
,  // measure 68
0010
0000
0001
0100
,  // measure 69
0010
1000
0010
0200
,  // measure 70
0000
0301
0010
1000
,  // measure 71
0001
0100
1000
0001
,  // measure 72
0001
1000
0010
0001
,  // measure 73
1000
0100
0001
1000
,  // measure 74
1000
0010
1000
0100
,  // measure 75
0001
0100
1000
0010
,  // measure 76
0100
1000
0001
0010
,  // measure 77
1000
0001
0020
0130
,  // measure 78
0000
MMMM
0000
0000
;

//---------------dance-single - Loodee----------------
#NOTES:
     dance-single:
     Loodee:
     Challenge:
     11:
     0.837523,1.092536,0.501235,0.438581,0.429630,655.000000,599.000000,56.000000,49.000000,26.000000,0.000000,0.837523,1.092536,0.501235,0.438581,0.429630,655.000000,599.000000,56.000000,49.000000,26.000000,0.000000:
0000
0000
0000
0000
,
1020
0000
0000
0130
0102
0000
1000
0000
,
0013
0000
0000
0000
0100
0000
0000
0000
1100
0000
0000
0000
0100
0000
1000
0001
,
0100
0000
0000
0010
0000
0000
1010
0000
0110
0000
1001
0000
,
0011
0000
0000
0000
0010
0000
0100
1000
0001
0000
0000
0000
0100
0000
0010
1000
,
0001
1000
0001
1000
1200
0000
0310
0010
,
0001
0000
1000
0000
0010
0000
0000
0000
0110
0000
0100
0001
1000
0000
0100
0000
,
1000
0001
0000
1000
0100
0000
0110
0000
,
0011
0000
0000
0000
0010
0001
1000
0001
1000
0010
1000
0010
0400
0000
0300
0000
,
2001
0000
0000
3010
1002
0000
0010
0000
,
1003
0000
0000
0000
0010
0000
0000
0000
0201
0000
0000
0000
0301
0000
1000
0100
,
1000
0000
0000
0100
0000
0000
0110
0000
0011
0000
1001
0000
,
1010
0000
0000
0000
0010
0100
0001
1000
0001
0000
0010
0000
0100
0000
1000
0001
,
0100
0010
0100
0001
1001
1000
0100
0010
,
0011
0000
0001
0000
2000
0000
0000
0000
3010
0000
0100
0001
1000
0000
0100
0010
,
0001
1000
0000
0001
0100
0000
0110
0000
,
1010
0000
1000
0000
0001
0010
0001
0010
0100
1000
0001
1000
0001
0100
0010
1000
,
0001
1000
0001
1000
0010
0100
0001
0010
,
0100
1000
0100
0010
0001
1000
0010
1000
,
0100
1000
0100
0010
0001
0100
0010
0100
,
0001
1000
0010
0100
2000
0000
3100
0000
,
M0M2
0000
0000
1003
0100
0000
0010
0100
1000
0000
0101
0000
2001
0000
0000
0000
,
3001
0000
0000
0010
0001
0000
1000
0000
0010
0000
0000
0000
0100
0000
0001
0000
0100
0000
0000
0000
0010
0000
0000
0000
2001
0000
0000
0000
3100
0000
0000
0000
,
M01M
0001
0010
0001
1000
0010
0100
0001
,
0010
0100
0010
0001
1000
0010
1000
0100
,
1000
0100
1000
0100
0010
0001
0100
0010
,
1000
0100
0010
0100
0001
0100
0001
0100
,
20MM
0000
0000
0000
0000
0000
3001
0000
0100
0000
0000
0010
1000
0000
0001
0000
0020
0000
0000
0000
0130
0000
0000
0000
2100
0000
0000
0000
3001
0000
0000
0000
,
0100
0000
0000
0010
0100
0000
0001
0000
1000
0000
0000
0100
0010
0000
0001
0000
2000
0000
0000
0000
0001
0000
0000
0000
3010
0000
0100
0000
0001
0000
0000
0000
,
MM10
0000
0100
1000
0100
0000
0010
0000
0001
0000
1000
0010
0100
0000
0010
1000
,
0001
0000
0010
0100
0010
0000
0001
0000
2000
0000
0000
0000
3010
0000
1000
0100
,
0010
0000
0001
0010
0001
0000
1000
0000
0010
0000
0100
0001
1000
0000
0001
0010
,
0100
0000
0010
0001
1000
0000
0001
0000
0200
0000
0000
0000
0310
0000
0100
0001
,
1000
0000
0100
1000
0100
0000
0010
0000
0001
0000
1000
0001
0100
0000
0010
0000
,
0100
0000
0001
0010
0100
0000
0010
0000
0200
0000
0000
0000
2300
0000
0000
0000
,
30M1
0000
0100
0010
0100
0000
0001
0000
1000
0000
0100
0010
0001
0000
1000
0000
0010
0000
0100
0001
0100
0000
0010
0000
1000
0000
0001
0000
1000
0000
0001
0000
,
0M10
0000
0100
1000
0001
0000
0100
0000
0010
0000
1000
0100
0010
0000
0001
0010
,
0001
0000
1000
0010
0100
0000
0001
0000
2000
0000
0000
0000
3100
0000
0010
0100
,
1000
0000
0010
0100
0010
0000
0100
0000
0001
0000
0010
0100
0010
0000
0001
1000
,
0010
0000
0100
0001
1000
0000
0100
0000
0020
0000
0000
0000
0031
0000
1000
0001
,
1000
0000
0010
0100
0001
0000
1000
0000
0001
0000
0010
0001
0100
0000
0010
0000
,
1000
0000
0010
0100
0010
0000
1000
0000
0001
0000
0010
0100
1000
0000
0100
0000
,
1000
0010
0100
0001
0100
0010
1000
0100
,
0110
0000
0000
0000
0000
0011
0000
0000
0000
0000
0000
0000
2020
0000
0000
0000
0000
0000
3030
0000
2002
0000
0000
0000
0000
0000
0000
0000
0000
0000
3003
0000
,
2200
0000
0000
0000
,
0000
0000
0000
0000
0000
0000
0000
0000
0000
0000
0000
0300
3010
0010
1001
0000
,
0MM1
0010
0001
1000
1010
0020
0000
0130
,
0001
1000
0100
0010
0011
0002
0000
1003
,
0010
0100
0010
1000
1001
0002
0000
0013
,
0100
0010
0001
1000
1010
0010
0000
0010
,
0100
0001
1000
0001
0101
0200
0000
0310
,
1000
0001
1000
0100
0110
0020
0000
0130
,
1000
0001
0100
0001
1001
2000
0000
3100
,
1000
0000
0001
0000
0100
0000
0010
0000
0100
0000
2002
0000
0000
0000
0000
3003
,
0001
0010
0100
1000
1100
0200
0000
0310
,
0001
1000
0010
1000
1001
0002
0000
0103
,
0001
1000
0100
0010
0110
0200
0000
1300
,
0001
0100
0010
1000
1001
0001
0000
0001
,
0010
0100
0010
0001
1001
2000
0000
3010
,
0100
0010
1000
0001
0011
0020
0000
0130
,
0110
0000
1100
0000
1001
0002
0000
0103
,
0020
0000
0000
0000
0130
0000
0001
1000
0100
0000
1000
0000
M00M
0000
0000
0000
,
0000
0000
1001
0000
0001
0100
0000
1000
,
0100
0010
1000
0100
0010
0100
0001
0100
,
1000
0000
0001
0000
1000
0000
0001
0000
0010
0000
0100
0000
0001
0000
0100
0010
,
0001
1000
0010
0100
0001
0100
1000
0100
,
0010
0001
0010
0000
1000
0100
0000
1000
,
0100
0000
0001
0000
0100
0000
0010
0000
0001
1000
0001
0000
0100
0000
0010
0000
,
0100
0000
0001
0000
1000
0000
0100
0000
0010
0000
0001
0000
1000
0010
1000
0010
,
0100
0001
0100
0010
0100
0000
1000
0000
0100
0000
0001
0000
1000
0000
0100
0000
,
0010
0000
0001
0000
0010
0001
1000
0000
0020
0000
0000
0000
0130
0000
0002
0000
,
0000
1003
0100
0000
0010
0100
1100
1000
,
0001
0010
0001
0010
0001
0000
1000
0000
0010
0000
0100
0000
0101
0000
0002
0000
,
0000
1003
0100
0010
0100
1000
1001
0001
,
0000
0000
0001
0000
0100
0000
0000
0000
0010
1000
0001
0000
0010
0000
0200
0000
,
0000
1300
0010
0100
0010
0100
0101
0001
,
0000
1000
0001
0000
0011
0000
1001
2000
,
0000
0000
3010
0000
0200
0000
0000
0000
0301
0000
1000
0001
0010
0000
0200
0000
,
0000
0000
0000
0000
0000
0000
0000
0000
0000
0000
0000
0000
0000
0000
0000
0000
0000
0000
0000
0000
0000
0000
0000
0000
0300
0000
0000
0000
0000
0000
0000
0000
0000
0000
0000
0000
0000
0000
0000
0000
0000
0000
0000
0000
0000
0000
0000
0000
000M
0000
0000
0000
0000
0000
0000
0000
0000
0000
0000
0000
00M0
0000
0000
0000
0000
0000
0000
0000
0000
0000
0000
0000
0M00
0000
0000
0000
0000
0000
0000
0000
0000
0000
0000
0000
M000
0000
0000
0000
0000
0000
0000
0000
0000
0000
0000
0000
000M
0000
0000
0000
0000
0000
0000
0000
00M0
0000
0000
0000
0000
0000
0000
0000
0M00
0000
0000
0000
0000
0000
0000
0000
M000
0000
0000
0000
0000
0000
000M
0000
0000
0000
0000
0000
00M0
0000
0000
0000
0000
0000
0M00
0000
0000
0000
0000
0000
M000
0000
0000
0000
0000
0000
0000
0000
0000
0000
0000
0000
0000
0000
0000
0000
0000
0000
0000
0000
0000
0000
0000
0000
0000
0000
0000
0000
0000
0000
0000
0000
0000
0000
0000
0000
0000
0000
0000
0000
0000
0000
0000
0000
0000
0000
0000
0000
;

//---------------dance-single - Loodee----------------
#NOTES:
     dance-single:
     Loodee:
     Hard:
     9:
     0.650839,0.664304,0.107408,0.626544,0.107408,509.000000,497.000000,12.000000,70.000000,3.000000,0.000000,0.650839,0.664304,0.107408,0.626544,0.107408,509.000000,497.000000,12.000000,70.000000,3.000000,0.000000:
0000
0000
0000
0000
,
1002
0000
0000
0103
0020
0000
0130
0001
,
2000
0000
0000
0000
3200
0000
0000
0000
0320
0000
0000
0000
0031
0000
1000
0010
,
2000
0000
0000
3020
0000
0000
0031
0000
0010
0000
0100
0000
,
0002
0000
2003
0000
3100
0010
0001
0000
,
0012
0000
0000
0013
0200
0000
1300
0010
,
0200
0000
0302
0000
2003
0000
3100
0100
,
0010
0001
0000
0010
0001
0000
1000
0000
,
0101
0000
0000
0000
0001
1000
0001
1000
0001
0000
0000
0000
0040
0000
0000
0000
,
0230
0000
0000
1300
0001
1000
0010
0100
,
0002
0000
0023
0000
0130
1000
0100
1000
,
0020
0000
0000
0230
0000
0000
1300
0000
0100
0000
0001
0000
,
1000
1000
0200
0000
2300
0000
3001
0100
,
0010
0100
0001
1000
0200
0000
0310
0001
,
1000
0010
0200
0000
0301
0000
1000
0001
,
0010
0100
0000
0010
0100
0000
1001
0000
,
1000
0000
0010
0000
1000
0000
0010
0000
1000
0001
1000
0001
1000
0000
0000
0000
,
0010
0100
0010
0100
0001
0100
0001
1000
,
0001
1000
0001
0010
0100
1000
0100
0010
,
0001
1000
0001
1000
0010
0100
0010
0100
,
0001
0010
0001
0010
0200
0000
1300
0000
,
00M2
0000
0000
0103
0010
0000
1000
0000
0001
0000
1000
0000
1001
0000
0000
0000
,
0001
0000
0001
0010
0100
0000
0010
0000
0010
0000
0001
0000
2000
0000
3010
0000
,
010M
0010
1000
0010
0100
0001
1000
0001
,
1000
0100
0010
0001
1000
0100
0010
0001
,
1000
0100
1000
0100
0010
0001
0010
0001
,
1000
0010
0100
0001
0200
0000
0301
1000
,
0200
0000
0000
0310
0001
0000
1000
0010
2000
0000
3002
0000
0023
0000
0230
0000
,
1300
0000
1000
0100
1000
0000
0001
0000
0200
0000
0000
0000
0310
1000
0001
0000
,
0010
0010
0100
1000
0001
0001
1000
0010
,
0100
0100
0001
1000
0200
0000
0310
0000
,
0001
0001
1000
0010
0100
0100
0001
1000
,
0100
0100
0010
0001
2000
0000
3001
0100
,
0001
0001
1000
0100
0010
0010
0100
1000
,
0100
0100
1000
0010
0200
0000
0302
0000
,
1003
0000
0000
0000
0100
1000
0000
0000
0010
0000
0000
0100
0010
1000
0001
1000
,
0001
0001
0100
0010
1000
1000
0001
0010
,
0100
0100
0010
0001
2000
0000
3010
0000
,
0100
0100
0001
1000
0100
0100
0010
0001
,
1000
1000
0001
1000
0020
0000
0130
0001
,
1000
1000
0010
0100
0001
0001
0010
0100
,
0010
0010
0001
0010
0100
0100
1000
0010
,
0200
0000
0001
0000
0001
0300
1001
0000
,
1000
0000
0000
0000
0000
0100
0000
0000
0000
0000
0000
0000
0010
0000
0000
0000
0000
0000
0000
0000
0012
0000
0000
0000
0000
0000
0000
0000
0000
0000
0000
0000
,
2000
0000
0000
0000
,
0000
0000
0000
0000
0000
0000
0000
0000
0000
0000
3003
0000
1000
1000
0010
0000
,
M102
0000
0023
0000
0130
2000
0000
3001
,
0200
0000
0310
1000
0001
2000
0000
3000
,
1100
0000
0010
0000
0001
0200
0000
0301
,
0020
0000
0230
0000
1300
0001
0000
0001
,
0100
0000
0020
0000
1030
0002
0000
0003
,
0020
0000
0130
0010
0001
2000
0000
3010
,
0200
0000
0302
0000
0013
0200
0000
0310
,
0002
0000
2003
0000
3010
0110
0000
0000
,
1000
0100
1000
0100
0010
0001
1000
0010
,
0200
0000
0302
0000
1003
0001
0000
0010
,
0100
0010
0001
0010
0100
0010
0001
1000
,
0020
0000
0230
0000
0301
1000
0000
1000
,
0010
0100
0010
0100
0001
1000
0100
0010
,
0002
0000
2003
0000
3010
0100
0000
0001
,
1000
0100
0010
0100
0010
0001
1000
0001
,
0200
0000
0000
0000
0301
0000
1000
0001
1000
0000
0100
0000
0000
0000
0000
0000
,
0000
0000
1000
0001
1000
0001
0100
0010
,
0100
0001
1000
0100
0010
0100
0010
0001
,
1000
0010
0100
0001
0100
0010
0100
0001
,
1000
0100
1000
0010
1000
0001
0100
0010
,
0000
0010
0100
0001
1000
0100
0010
0100
,
1000
0010
0100
0001
0100
0010
1000
0001
,
0100
0010
1000
0100
0010
0001
0040
0000
,
0000
0000
0031
1000
0010
0100
0010
1000
,
0000
0000
0000
0000
0001
0100
0001
0000
1000
0000
0000
0000
0100
0000
0010
0000
,
0001
1000
0020
0000
0130
0010
0100
0001
,
0000
0000
0001
0100
0010
1000
0001
0100
,
0010
1000
0200
0000
0310
0001
0010
0100
,
0000
0100
1000
0000
1100
0000
0100
0010
,
0001
1000
0002
0000
0103
0001
1000
0001
,
0000
0010
0100
0000
1100
0000
1000
0001
,
0000
0000
0100
0000
0100
0000
0000
0000
0010
0000
1000
0001
1000
0000
0020
0000
,
0000
0030
0000
0000
0000
0000
0000
0000
;

//---------------dance-single - Loodee----------------
#NOTES:
     dance-single:
     Loodee:
     Medium:
     7:
     0.483334,0.559414,0.143210,0.572840,0.013426,378.000000,362.000000,16.000000,64.000000,4.000000,0.000000,0.483334,0.559414,0.143210,0.572840,0.013426,378.000000,362.000000,16.000000,64.000000,4.000000,0.000000:
0000
0000
0000
0000
,
0002
0000
0000
0103
0020
0000
1030
0000
,
0100
0010
0001
1000
,
1000
0010
0100
0001
,
0001
0010
0200
0300
,
1100
0000
0000
1000
0001
0000
0100
0010
,
1000
0000
0001
0000
0010
0000
0001
1000
,
0020
0230
0302
0103
,
1001
0010
1001
1000
,
0100
0010
0001
0000
2000
0000
3010
0000
,
0100
0000
0001
0000
1000
0001
1000
0001
,
0100
0010
1000
0001
,
0010
0010
1001
0000
,
0001
1000
0010
1000
0001
0000
0010
0100
,
2000
0000
3200
0000
0320
0000
0031
1000
,
0002
0203
0320
1030
,
0110
0110
1001
0000
,
0001
0100
0001
0100
0001
0000
1000
0000
,
0100
0010
0100
1000
,
0010
0100
0010
0100
0001
0000
1000
0000
,
0001
0010
0200
0000
,
1300
0000
0000
0000
0001
0000
0100
0010
0100
0000
0000
0000
0002
0000
0000
0000
,
0013
0000
0000
0000
0100
0000
1000
0001
1000
0000
0000
0000
0101
0000
0000
0000
,
0100
0001
0100
0001
1000
0000
0100
0000
,
0010
0001
1000
0001
,
1000
0010
1000
0010
0100
0000
0001
0000
,
0010
0000
0100
0000
1000
0001
1000
0000
,
0020
0000
0130
0001
1000
0100
0010
0001
,
0100
0000
0010
0100
0010
0000
0000
0000
1001
0000
0000
0000
0001
0000
0001
0000
,
M010
0000
0010
0100
1000
0000
0001
0000
,
0100
0000
0100
0010
2000
0000
3001
0000
,
0010
0000
0010
0001
1000
0000
0010
0000
,
0100
0000
0100
0001
2000
0000
3100
0000
,
0010
0000
0010
0100
0010
0000
0001
0000
,
1000
0000
0100
0010
0002
0000
2003
0000
,
3M10
0000
0101
0000
0001
0001
0001
1000
,
010M
0010
0100
0010
0100
0000
1000
0000
,
0001
0000
0100
0010
0200
0000
0301
0000
,
1000
0001
1000
0001
1000
0000
0100
0000
,
0010
0000
0001
1000
0020
0000
1030
0000
,
0001
0100
0001
0100
0001
0000
1000
0000
,
0100
0000
0100
0010
0100
1000
0100
0000
,
2000
0001
3001
1001
,
0001
0000
0000
0101
0000
2002
0000
3003
,
0220
0000
0000
0000
,
0000
0000
0000
0000
0000
0330
0001
1000
,
01M0
0000
0020
0000
0031
2000
0000
3000
,
0002
0000
0203
0000
0301
2000
0000
3000
,
0200
0000
0320
0000
0031
0010
0000
0000
,
0002
0000
2003
0000
3010
0100
0000
0000
,
0100
0000
0002
0000
0013
0002
0000
0003
,
2000
0000
3020
0000
0130
0010
0000
0000
,
2000
0000
3002
0000
1003
0100
0000
0000
,
2000
0000
3002
0000
0103
0020
0000
0030
,
1000
0100
1000
0100
0010
0000
0001
0000
,
0200
0000
0320
0000
1030
0001
0000
0000
,
1000
0010
1000
0010
0100
0000
0001
0000
,
0020
0000
0230
0000
1300
0001
0000
0000
,
0001
0010
0100
1000
0001
0000
1000
0000
,
0020
0000
2030
0000
3001
0010
0000
0000
,
0100
0000
0100
0000
1000
0001
0000
1000
,
0002
0000
0203
0000
0310
0100
0001
0000
,
0000
0000
1001
0000
0001
1000
0000
0100
,
0010
0100
0000
1000
0001
1000
0010
0000
,
0100
0000
0000
0001
1000
0001
0010
0000
,
0100
0000
1000
0001
1000
0001
0100
0000
,
0000
0000
0010
0000
0100
0001
0000
1000
,
0001
0010
0000
0100
1000
0001
1000
0000
,
0010
0000
0100
0000
0001
0000
0100
0010
,
0100
0010
1000
0001
1000
0000
0100
0010
,
0001
0000
1001
0000
2000
0000
3000
0020
,
0000
0030
0100
0000
0001
0000
0000
2000
,
0000
3000
0100
0010
0001
0010
0001
1000
,
0001
0000
0200
0000
0302
0000
0003
2000
,
0000
3000
0010
0000
0020
0000
0030
2000
,
0000
3000
0100
0000
0010
0000
0000
0002
,
0000
1003
0001
0000
0001
0000
0000
0100
,
0000
0010
0100
0000
0002
0000
0003
2000
,
0000
3000
0000
0000
0000
0000
0000
0000
;
