#TITLE:Cosmic Cat;
#SUBTITLE:;
#ARTIST:8bit Moonside;
#TITLETRANSLIT:;
#SUBTITLETRANSLIT:;
#ARTISTTRANSLIT:;
#GENRE:;
#CREDIT:;
#BANNER:cosmic cat-bn.png;
#BACKGROUND:cosmic cat-bg.png;
#LYRICSPATH:;
#CDTITLE:;
#MUSIC:Cosmic Cat.ogg;
#OFFSET:-0.123;
#SAMPLESTART:36.130;
#SAMPLELENGTH:17.887;
#SELECTABLE:YES;
#BPMS:0.000=160.000;
#STOPS:;
#BGCHANGES:;
#KEYSOUNDS:;

//---------------dance-single - ----------------
#NOTES:
     dance-single:
     :
     Medium:
     8:
     0.609,0.666,0.608,0.341,0.233:
0000
0000
0000
0000
,
0000
0000
0000
0000
,
0000
0000
0000
0000
,
0000
0000
0000
0000
,
0000
0000
0000
0000
,
0000
0000
0000
0000
,
0000
0000
0000
0000
,
0000
0000
0000
0000
,
0001
0100
0001
0100
0001
1000
0000
0010
,
1000
0100
1000
0001
0000
0010
0001
0010
,
0100
1000
0010
1000
0010
0100
0010
1000
,
0100
0010
0100
1000
0010
0100
0001
1000
,
0001
0010
0001
0010
0001
0100
0000
0010
,
1000
0010
0100
0001
1000
0100
0010
0001
,
0011
1000
0101
1000
,
1010
0110
2002
3003
,
0021
0000
0000
0001
0000
0000
0100
0000
0000
0130
0000
0000
1000
0000
0001
0000
,
0201
0000
0000
0001
0000
0000
0010
0000
0000
0310
0000
0000
0010
0000
0100
0000
,
0102
0000
0000
0100
0000
0000
1000
0000
0000
1003
0000
0000
0001
0000
1000
0000
,
1020
0000
0000
1000
0000
0000
0130
0000
0000
0000
0220
0000
0000
0000
0330
0000
,
2001
0000
0000
0001
0000
0000
0100
0000
0000
3100
0000
0000
1000
0000
0010
0000
,
0102
0000
0000
0100
0000
0000
1000
0000
0000
1003
0000
0000
0001
0000
0010
0000
,
0011
1000
0101
1000
,
1100
0000
1010
0000
0010
0100
0010
0100
,
0101
0000
0000
0101
0000
0000
1001
0000
0000
2002
0000
0000
3003
0000
0000
0000
,
1100
0000
0000
1100
0000
0000
0011
0000
0000
0022
0000
0000
0033
0000
0000
0000
,
0101
0000
0000
0101
0000
0000
0110
0000
0000
0220
0000
0000
0330
0000
0000
0000
,
1001
0000
0000
1001
0000
0000
0110
0000
0000
0000
2002
0000
0000
0000
3003
0000
,
0001
0000
0000
0001
0100
0000
0010
0000
0000
1000
0001
0000
1000
0000
0100
0000
,
1000
0000
0000
1000
0001
0000
0100
0000
0000
0010
1000
0000
0100
0000
1000
0000
,
0001
0000
0000
0001
0000
0000
0010
0000
0100
0000
0000
0100
0000
0000
1000
0000
,
0001
0100
0010
0100
0002
2000
0000
3003
,
0001
0000
0010
0000
0001
0000
0010
0000
0000
0001
0000
0000
0100
0000
0010
0000
,
0100
0000
0001
0000
1000
0000
0001
0000
0000
1000
0000
0000
0100
0000
1000
0000
,
0010
0000
0100
0000
0010
0000
1000
0000
0000
0100
0000
0100
1000
0000
0001
0000
,
1000
0100
0010
0100
1000
0010
0100
0000
,
0001
0000
0100
0000
0001
0000
0100
0000
0000
0010
0000
0000
0100
0000
0001
0000
,
1000
0000
0100
0000
0010
0000
0001
0000
0000
0100
0000
0000
0001
0000
1000
0000
,
0001
0100
0010
0100
0000
0100
0001
0000
,
1000
0100
1000
0010
1000
0001
0100
0010
,
0100
0000
0000
0001
1000
0000
0100
0000
0000
0000
1000
0000
0010
0000
1000
0000
,
0001
0000
0000
0100
0010
0000
0100
0000
0000
0000
0010
0000
1000
0000
0001
0000
,
1000
0000
0000
0100
0010
0000
0100
0000
0000
1000
0000
1000
0001
0000
0100
0000
,
0001
0010
0001
0100
0010
1000
0010
0100
,
0001
0000
0000
1000
0100
0000
1000
0000
0000
0000
0010
0000
0100
0000
0001
0000
,
1000
0000
0000
0001
0010
0000
0001
0000
0000
0000
0100
0000
0010
0000
1000
0000
,
1010
0000
0001
0101
0000
0001
0011
0000
,
0010
0001
0010
0000
0100
1000
0100
1000
,
0010
0020
0000
0000
0130
0000
0010
1000
,
0000
0000
1000
0000
0000
0001
0000
0000
0010
0000
0000
0000
0000
0000
0000
0000
,
0100
0200
0000
0000
0310
0000
0100
1000
,
0000
0010
0000
0100
0000
0001
0000
0000
,
0010
0020
0000
0000
0130
0000
1000
0001
,
0000
0000
0100
0000
0000
0010
0000
0000
1000
0000
0000
0000
0000
0000
0000
0000
,
0100
0200
0000
0000
0310
0000
0000
0001
,
0000
0100
0000
0010
0000
1000
0000
0000
,
0001
0001
0100
0100
,
0010
0010
1000
0100
,
1000
1000
0010
0010
,
0100
0000
0100
0000
0001
0000
0010
0001
,
0100
0010
1000
0000
0001
0000
0100
0010
,
1000
0000
0001
0010
0100
0000
0010
0000
,
1001
0100
1001
0100
,
1001
0110
2002
3003
,
0011
0000
0000
0011
0000
0000
1100
0000
0000
2200
0000
0000
3300
0000
0000
0000
,
1010
0000
0000
1010
0000
0000
0110
0000
0000
0220
0000
0000
0330
0000
0000
0000
,
0101
0000
0000
0101
0000
0000
1001
0000
0000
2002
0000
0000
3003
0000
0000
0000
,
1100
0000
0000
1100
0000
0000
0011
0000
0000
0000
2002
0000
0000
0000
3003
0000
,
1010
0000
0000
1010
0000
0000
0110
0000
0000
0110
0000
0000
0100
0000
0100
0000
,
0101
0000
0000
0101
0000
0000
1001
0000
0000
1001
0000
0000
0001
0000
0001
0000
,
0011
1000
0101
1000
,
1100
0000
1010
0000
0020
0200
0000
0000
,
0000
0000
0000
0000
0330
0000
0110
0000
0000
0100
0001
0000
0100
0000
0010
0000
,
1000
0000
0000
1000
0000
0000
0001
0000
0000
0001
0010
0000
0100
0000
0010
0000
,
0001
0000
0000
0001
0000
0000
1000
0000
0000
1000
0010
0000
0100
0000
0010
0000
,
1000
0000
0000
1000
0000
0000
0100
0000
0010
0000
0002
0000
0000
0000
0003
0000
,
2000
0000
0000
3000
0010
0100
0001
1000
,
0200
0000
0000
1300
0010
0100
0001
1000
,
1100
0001
1010
0001
,
0101
0000
0011
0000
0020
0200
0000
0000
,
0330
0000
0000
0000
;

//---------------dance-single - ----------------
#NOTES:
     dance-single:
     :
     Easy:
     5:
     0.378,0.466,0.333,0.216,0.137:
0000
0000
0000
0000
,
0000
0000
0000
0000
,
0000
0000
0000
0000
,
0000
0000
0000
0000
,
0000
0000
0000
0000
,
0000
0000
0000
0000
,
0000
0000
0000
0000
,
0000
0000
0000
0000
,
0001
0100
0001
0100
,
0001
1000
0001
1000
,
0100
0010
0100
1000
,
0010
0100
0010
1000
,
0001
0010
0001
0010
,
0001
1000
0001
1000
,
1010
0000
0110
0000
,
1010
0110
2002
3003
,
0001
0000
0000
0001
0000
0000
0001
0000
0000
0001
0000
0000
0000
0000
0000
0000
,
0100
0000
0000
0100
0000
0000
0100
0000
0000
0100
0000
0000
0000
0000
0000
0000
,
0010
0000
0000
0010
0000
0000
0010
0000
0000
0010
0000
0000
0000
0000
0000
0000
,
1000
0000
0000
1000
0000
0000
1000
0000
0000
0000
1001
0000
0000
0000
0000
0000
,
0001
0000
0000
0001
0000
0000
0010
0000
0000
0010
0000
0000
0000
0000
0000
0000
,
0001
0000
0000
0001
0000
0000
0100
0000
0000
0100
0000
0000
0000
0000
0000
0000
,
0101
0000
1010
0000
,
0101
1010
2002
3003
,
0001
0000
0000
0001
0000
0000
0010
0000
0000
0010
0000
0000
0001
0000
0000
0000
,
1000
0000
0000
1000
0000
0000
0010
0000
0000
0010
0000
0000
1000
0000
0000
0000
,
0001
0000
0000
0001
0000
0000
1000
0000
0000
1000
0000
0000
0001
0000
0000
0000
,
0010
0000
0000
0010
0000
0000
0010
0000
0000
0000
0110
0000
0000
0000
0000
0000
,
0100
0000
0000
0100
0000
0000
1000
0000
0000
1000
0000
0000
0001
0000
0000
0000
,
0100
0000
0000
0100
0000
0000
0001
0000
0000
0001
0000
0000
1000
0000
0000
0000
,
1100
0000
0011
0000
,
1100
0011
2002
3003
,
0010
1000
0000
1000
,
0001
1000
0000
0001
,
0100
0001
0000
1000
,
0100
0010
0001
0010
,
0100
1000
0000
1000
,
0010
1000
0000
0001
,
0100
0001
0010
0001
,
1000
0100
0010
0001
,
1000
0010
0000
0100
,
0001
0100
0000
0001
,
0010
0001
0000
1000
,
0100
1000
0010
0100
,
0001
0010
0000
0001
,
0100
0001
0000
1000
,
1010
0000
0000
0110
0000
0000
0101
0000
,
0001
0001
1000
0100
,
0020
0000
0032
0000
,
2003
0000
0000
0000
,
3020
0000
0230
0000
,
0301
0010
0100
0000
,
0020
0000
0032
0000
,
2003
0000
0000
0000
,
3002
0000
0203
0000
,
0310
1000
0001
0000
,
1100
1000
0100
1000
,
0010
1000
0010
0100
,
0001
0010
0100
1000
,
0010
1000
0100
0010
,
0001
0100
0001
0010
,
0001
0100
0010
1000
,
1001
0000
0110
0000
,
1001
0110
2002
3003
,
0001
0000
0000
0001
0000
0000
0100
0000
0000
0100
0000
0000
0000
0000
0000
0000
,
1000
0000
0000
1000
0000
0000
0100
0000
0000
0100
0000
0000
0000
0000
0000
0000
,
0001
0000
0000
0001
0000
0000
0010
0000
0000
0010
0000
0000
0000
0000
0000
0000
,
1000
0000
0000
1000
0000
0000
0010
0000
0000
0000
0110
0000
0000
0000
0000
0000
,
0001
0000
0000
0001
0000
0000
1000
0000
0000
1000
0000
0000
0100
0000
0000
0000
,
1000
0000
0000
1000
0000
0000
0010
0000
0000
0010
0000
0000
0100
0000
0000
0000
,
0101
0000
1010
0000
,
0101
1010
2002
0000
,
0000
0000
3003
1001
0000
0000
0001
0100
,
0001
0000
1000
0000
0100
0000
1000
0010
,
1000
0000
0010
0000
0100
0000
0001
1000
,
0001
0000
1000
0100
1000
0100
0000
0000
,
2020
0000
3030
0000
0010
1000
0001
0000
,
0202
0000
0303
0000
0001
1000
0100
0000
,
1100
0000
0011
0000
,
1100
0011
2002
0000
,
3003
0000
0000
0000
;

//---------------dance-single - Loodee----------------
#NOTES:
     dance-single:
     Loodee:
     Challenge:
     12:
     0.907,1.000,0.125,0.083,1.000:
0000
0000
0000
0000
,
0000
0000
0000
0000
,
0000
0000
0000
0000
,
0000
0000
0000
0000
,
0000
0000
0000
0000
,
0000
0000
0000
0000
,
0000
0000
0000
0000
,
0000
0000
0000
0000
,
1000
0000
0100
0000
0010
0000
0100
0000
0010
0000
0001
0000
1000
0000
0010
0100
,
0001
1000
0100
1000
0001
0100
0001
0010
,
0100
0000
0010
0000
0001
0000
1000
0000
0010
0000
0100
0000
0010
0000
1000
0100
,
0010
0001
0100
0010
1000
0010
0100
0001
,
1000
0000
0100
0000
0010
0000
0100
0000
1000
0000
0001
0000
1000
0000
0010
1000
,
0100
0000
0000
0000
0000
0000
0010
0000
0000
0000
0000
0000
0100
0000
0000
0000
0000
0000
0010
0000
0000
0000
0000
0000
0001
0000
0000
0000
0000
0000
1000
0000
0001
0000
1000
0000
0001
0000
0000
0100
0000
0000
0010
0000
0000
1000
0000
0000
,
0010
0000
0100
0000
0001
0000
0010
0000
0100
0000
1000
0000
0001
0000
0100
0001
,
1000
0100
1000
0010
0100
0001
0021
0000
,
0130
0000
0000
0100
0000
0000
1000
0000
0000
1000
0000
0000
0010
0000
1000
0001
,
0010
0000
0000
0010
0000
0000
0100
0000
0000
0100
1000
0001
0100
0001
0100
0010
,
1000
0000
0000
1000
0000
0000
0001
0000
0000
0001
0010
0100
0010
0000
0001
1000
,
0010
0000
0000
0000
0000
0000
0000
0000
0000
0010
0000
0000
0100
0000
0000
0000
0000
0000
0001
0000
0000
0000
0000
0000
1000
0000
0000
0000
0000
0000
1000
0000
0000
0100
0000
0000
0010
0000
0000
0000
0000
0000
0100
0000
1000
0000
0100
0000
,
1000
0000
0000
1000
0000
0000
0001
0000
0000
0001
0000
0000
0100
0000
0001
1000
,
0010
0000
0000
0010
0000
0000
0100
0000
0000
0100
0010
0100
0001
0010
0100
1000
,
0100
0000
0000
0100
0010
0000
0100
0000
1000
0000
0000
1000
0010
0100
0010
0100
,
0001
0000
0000
0000
1000
0001
1000
0000
0010
0000
0100
0000
0000
0000
0000
0000
0010
0000
0100
0000
0001
0000
1000
0000
0001
0000
1000
0000
0100
0000
0010
0000
,
0001
1000
0010
0100
0010
1000
0001
0010
0100
0010
0100
1000
0100
0000
0100
1000
,
0010
1000
0001
0100
0010
0100
0001
0010
0100
1000
0001
1000
0010
0100
0010
0100
,
0001
1000
0010
1000
0001
0010
0100
1000
0100
0010
0001
0100
0010
0000
0010
1000
,
0001
1000
0010
1000
0100
0010
0001
1000
0010
0100
0001
1000
0100
0000
0000
0000
,
0010
0000
0000
0010
0001
0000
1000
0000
0000
1000
0010
0000
0110
0000
0100
0001
,
1000
0000
0000
1000
0100
0000
0010
0000
0000
0010
0100
1000
0001
0000
0100
0000
,
0010
0000
0000
0010
0100
0000
0001
0000
1000
0000
0000
1000
0001
0000
0010
0100
,
0010
0000
0000
0000
0000
0000
0000
0000
0000
0000
0000
0000
0000
0000
0000
0000
0000
0000
0000
0000
0000
0000
0000
0000
0001
0000
0000
0000
0000
0000
1000
0000
0000
0000
0000
0000
0001
0000
0000
0000
0000
0000
0000
0000
0000
0000
0000
0000
1000
0000
0000
0000
0000
0000
0000
0000
0000
0000
0000
0000
0010
0000
0000
0000
0000
0000
0000
0000
0000
0000
0000
0000
0000
0000
0000
0000
0000
0000
0000
0000
0000
0000
0000
0000
0000
0000
0000
0000
0000
0000
0000
0000
0000
0000
0000
0000
0010
0000
0000
0000
0000
0000
0000
0000
0000
0000
0000
0000
1000
0000
0000
0000
0000
0000
0000
0000
0000
0000
0000
0000
0100
0000
0000
0000
0000
0000
0000
0000
0000
0000
0000
0000
0010
0000
0000
0000
0000
0000
0000
0000
0000
0000
0000
0000
0001
0000
0000
0000
0000
0000
0000
0000
1000
0000
0000
0000
0000
0000
0000
0000
0001
0000
0000
0000
0000
0000
0000
0000
1000
0000
0000
0000
0000
0000
0000
0000
0001
0000
0000
0000
0000
0000
0000
0000
1000
0000
0000
0000
0000
0000
0000
0000
,
0001
0000
0000
0010
0001
0000
1000
0000
0000
0010
1000
0000
1001
0000
0001
0000
,
0100
0000
0010
1000
0001
0000
0010
0000
0000
0100
0010
0000
0011
0000
0001
0000
,
1000
0000
0010
0100
0001
0000
0100
0000
0000
0010
0000
0010
1000
0000
0001
0000
,
0010
0000
0000
0100
0010
0000
0001
0000
1000
0000
0010
0000
0110
0000
0100
0001
,
1000
0000
0000
0100
1000
0000
0001
0000
0100
0010
0100
0000
0101
0000
0001
0000
,
1000
0000
0100
0010
0001
0000
0100
0000
0000
0010
1000
0000
1001
0000
0001
0000
,
0010
0000
0100
0000
0010
0000
0001
0000
0000
1000
0001
0000
0100
0000
0010
1000
,
0001
0000
0000
0000
0000
0000
0010
0000
0000
0001
0000
0000
0000
0000
0000
1000
0000
0000
0001
0000
0000
0000
0000
0000
1000
0000
0000
0010
0000
0000
0100
0000
0000
0001
0000
0000
1000
0000
0100
0000
1000
0000
0100
0000
1000
0000
0100
0000
,
1000
0001
1000
0001
0100
0010
0100
0001
1000
0100
0010
0100
0010
0001
1000
0010
,
0100
0001
1000
0001
0100
0001
0010
0001
0010
0100
1000
0100
0010
0001
1000
0001
,
0100
0010
1000
0001
0100
0010
0100
0001
1000
0100
1000
0100
0010
0001
1000
0010
,
0100
0000
0000
0000
0000
0000
0010
0000
0000
0000
0000
0000
0010
0000
0000
0100
0000
0000
0001
0000
0000
1000
0000
0000
0000
0000
0000
0000
0000
0000
1000
0000
0000
0001
0000
0000
0010
0000
0000
0000
0000
0000
0100
0000
1000
0000
0100
0000
,
1000
0001
1000
0100
1000
0001
0100
0010
1000
0100
0010
0001
0100
0001
0010
0100
,
0010
0001
1000
0010
1000
0001
1000
0010
0100
0001
1000
0010
0100
0001
0010
0100
,
1000
0100
0010
0100
1000
0001
0100
0001
0100
0010
1000
0001
0010
0001
1000
0010
,
0100
0000
0000
0000
0000
0000
0100
0000
0000
0001
0000
0000
1000
0000
0000
0100
0000
0000
0010
0000
0000
0000
0000
0000
0001
0000
0000
1000
0000
0000
0010
0000
0000
1000
0000
0000
0001
0000
0100
0000
0001
0000
0100
0000
0001
0000
0100
0000
,
0001
1000
0000
0000
0001
1000
0001
0100
,
0000
0000
0010
0000
0000
0010
0000
0000
1001
0000
0000
0000
0000
0000
1000
0000
,
0100
0100
0000
0000
0011
0000
0001
0100
,
0000
0000
0000
0000
0000
0000
0000
0000
0000
0000
0000
0000
0000
0000
0000
0000
0000
0000
0000
0000
0000
0000
0000
0000
0010
0000
0000
0000
0000
0000
0000
0000
0000
0000
0000
0000
0000
0000
0000
0000
0000
0000
0000
0000
0000
0000
0000
0000
0000
0000
0000
0000
0000
0000
0000
0000
0000
0000
0000
0000
0000
0000
0000
0000
0000
0000
0000
0000
0000
0000
0000
0000
1000
0000
0000
0000
0000
0000
0010
0000
0000
0000
0000
0000
0000
0000
0000
0000
0000
0000
0000
0000
0000
0000
0000
0000
1000
0000
0000
0000
0000
0000
0000
0000
0000
0000
0000
0000
0000
0000
0000
0000
0000
0000
0000
0000
0000
0000
0000
0000
0200
0000
0000
0000
0000
0000
0000
0000
0000
0000
0000
0000
0000
0000
0000
0000
0000
0000
0000
0000
0000
0000
0000
0000
0000
0000
0000
0000
0000
0000
0000
0000
0000
0000
0000
0000
0000
0000
0000
0000
0000
0000
0000
0000
0000
0000
0000
0000
0310
0000
0000
0000
0000
0000
0000
0000
0001
0000
0000
0000
0000
0000
0000
0000
0010
0000
0000
0000
0000
0000
0000
0000
,
0001
0001
1000
0000
1010
0010
0100
0001
,
0000
0000
0010
0000
0000
0010
0000
0000
1100
0000
0000
0000
0000
0000
0100
0000
,
1000
1000
0000
0000
1001
0000
0001
0100
,
0000
0000
0000
0100
0000
0000
2000
0000
0000
3100
0000
0000
0101
0000
0000
0002
0000
0000
0000
0000
0000
1003
0100
1000
,
0100
0010
0001
0100
0001
1000
0100
1000
,
0010
0000
0010
0000
0100
0001
1000
0000
1001
0000
0001
0000
0010
0000
0001
0000
,
0100
0100
0010
1000
0010
0100
0001
0010
,
0001
0000
0000
0000
0000
0000
0000
0000
0000
0000
0000
0000
0000
0000
0000
0000
0000
0000
0000
0000
0000
0000
0000
0000
1000
0000
0000
0000
0000
0000
0001
0000
0000
0000
0000
0000
1000
0000
0000
0000
0000
0000
0000
0000
0000
0000
0000
0000
0010
0000
0000
0000
0000
0000
0000
0000
0000
0000
0000
0000
1000
0000
0000
0000
0000
0000
0000
0000
0000
0000
0000
0000
0000
0000
0000
0000
0000
0000
0000
0000
0000
0000
0000
0000
0000
0000
0000
0000
0000
0000
0000
0000
0000
0000
0000
0000
1001
0000
0000
0000
0000
0000
0000
0000
0000
0000
0000
0000
0000
0000
0000
0000
0000
0000
0000
0000
0000
0000
0000
0000
0001
0000
0000
0000
0000
0000
0000
0000
0000
0000
0000
0000
0000
0000
0000
0000
0000
0000
0000
0000
0000
0000
0000
0000
1000
0000
0000
0000
0000
0000
0000
0000
0000
0000
0000
0000
0000
0000
0000
0000
0000
0000
0000
0000
0000
0000
0000
0000
0100
0000
0000
0000
0000
0000
0000
0000
0010
0000
0000
0000
0000
0000
0000
0000
0100
0000
0000
0000
0000
0000
0000
0000
,
0010
0010
0001
1000
0010
1000
0001
0010
,
0001
0000
0000
0000
0000
0000
0100
0000
0000
0000
0000
0000
0010
0000
0000
1000
0000
0000
0001
0000
0000
0000
0000
0000
0010
0000
0000
0000
0000
0000
0100
0000
1000
0000
0100
0000
1000
0000
0000
0001
0000
0000
1000
0000
0000
0001
0000
0000
,
0100
0000
0010
0100
0001
0000
0010
0000
0001
0000
0100
0000
0010
0000
1000
0100
,
0010
0000
0000
0000
0000
0000
0100
0000
0000
0000
0000
0000
1000
0000
0000
0000
0000
0000
0001
0000
0000
0000
0000
0000
1000
0000
0000
0000
0000
0000
0010
0000
0000
0000
0000
0000
0100
0000
M0M0
0M00
0000
0000
0000
0000
0000
0000
0000
0000
,
0001
0000
0000
0001
0000
0000
0010
0000
0000
0010
0000
0000
0100
0000
0010
0001
,
1000
0000
0000
1000
0000
0000
0010
0000
0000
0010
0100
0010
1000
0001
1000
0100
,
0010
0000
0000
0010
0000
0000
0100
0000
0000
0100
1000
0001
0100
0000
0010
1000
,
0001
0000
0000
0000
0000
0000
0000
0000
0000
0001
0000
0000
1000
0000
0000
0000
0000
0000
0001
0000
0000
0000
0000
0000
0010
0000
0000
0000
0000
0000
0010
0000
0000
0001
0000
0000
1000
0000
0000
0000
0000
0000
0010
0000
1000
0000
0010
0000
,
1000
0000
0000
1000
0000
0000
0100
0000
0000
0100
0000
0000
0010
0000
0100
0010
,
0001
0000
0000
0001
0000
0000
0100
0000
0000
0100
0010
0100
0001
1000
0010
1000
,
0100
0000
0000
0100
0000
0000
0010
0000
0001
0000
0000
0001
1000
0001
1000
0010
,
0100
0000
0000
0000
0000
0000
0000
0000
0000
0000
0000
0000
0000
0000
0000
0000
0000
0000
0000
0000
0000
0000
0000
0000
0001
0000
0000
0000
0000
0000
0100
0000
0000
0000
0000
0000
0001
0000
0000
0000
0000
0000
0000
0000
0000
0000
0000
0000
1000
0000
0000
0000
0000
0000
0000
0000
0000
0000
0000
0000
0001
0000
0000
0000
0000
0000
0000
0000
0000
0000
0000
0000
0000
0000
0000
0000
0000
0000
0000
0000
0000
0000
0000
0000
0000
0000
0000
0000
0000
0000
0000
0000
0000
0000
0000
0000
1000
0000
0000
0000
0000
0000
0000
0000
0000
0000
0000
0000
0100
0000
0000
0000
0000
0000
0000
0000
0000
0000
0000
0000
0010
0000
0000
0000
0000
0000
0000
0000
0000
0000
0000
0000
0001
0000
0000
0000
0000
0000
0000
0000
0000
0000
0000
0000
1000
0000
0000
0000
0000
0000
0000
0000
0000
0000
0000
0000
0010
0000
0000
0000
0000
0000
0000
0000
0000
0000
0000
0000
0100
0000
0000
0000
0000
0000
0000
0000
0001
0000
0000
0000
0000
0000
0000
0000
0100
0000
0000
0000
0000
0000
0000
0000
,
0001
0000
1000
0000
0001
0000
1000
0000
0000
0200
0000
0000
0000
0000
0000
0000
0000
0000
0310
0000
0000
0000
0000
0000
0000
0000
0000
0010
0000
0000
0001
0000
0000
0000
0000
0000
0100
0000
0000
0000
0000
0000
0010
0000
0000
1000
0000
0000
,
0100
0000
0000
0100
1000
0000
0001
0000
0000
0001
1000
0000
0010
0000
0100
0000
,
0010
0000
0000
0010
1000
0000
1000
0010
0000
0100
0001
0000
1000
0000
0001
0010
,
0100
0000
0000
0100
0000
1000
0001
1000
0010
0100
0002
0000
0023
0000
0130
1000
,
0200
0000
0000
0000
0000
0000
0000
0000
0000
0310
0001
1000
0001
0000
1000
0000
0010
0000
1000
0000
0100
0000
0010
0000
,
0002
0000
0000
0000
0000
0000
0103
0000
0010
1000
0001
1000
0100
0010
0100
0010
,
0001
0000
0000
0001
0100
0000
0010
0000
1000
0000
0000
1000
0100
0000
0010
0001
,
0100
0000
0000
0000
0000
0000
0000
0000
0000
0000
0000
0000
0000
0000
0000
0000
0000
0000
0000
0000
0000
0000
0000
0000
0001
0000
0000
0000
0000
0000
1000
0000
0000
0000
0000
0000
0001
0000
0000
0000
0000
0000
0000
0000
0000
0000
0000
0000
0010
0000
0000
0000
0000
0000
0000
0000
0000
0000
0000
0000
0100
0000
0000
0000
0000
0000
0000
0000
0000
0000
0000
0000
0000
0000
0000
0000
0000
0000
0000
0000
0000
0000
0000
0000
0000
0000
0000
0000
0000
0000
0000
0000
0000
0000
0000
0000
0010
0000
0000
0000
0000
0000
0000
0000
0000
0000
0000
0000
0001
0000
0000
0000
0000
0000
0000
0000
0000
0000
0000
0000
1000
0000
0000
0000
0000
0000
0000
0000
0000
0000
0000
0000
0001
0000
0000
0000
0000
0000
0000
0000
0000
0000
0000
0000
0100
0000
0000
0000
0000
0000
0000
0000
0001
0000
0000
0000
0000
0000
0000
0000
1000
0000
0000
0000
0000
0000
0000
0000
0001
0000
0000
0000
0000
0000
0000
0000
1000
0000
0000
0000
0000
0000
0000
0000
0001
0000
0000
0000
0000
0000
0000
0000
,
0020
0000
0000
0000
,
0030
0000
0000
0000
;

//---------------dance-single - Loodee----------------
#NOTES:
     dance-single:
     Loodee:
     Hard:
     10:
     0.709,0.742,0.208,0.083,0.666:
0000
0000
0000
0000
,
0000
0000
0000
0000
,
0000
0000
0000
0000
,
0000
0000
0000
0000
,
0000
0000
0000
0000
,
0000
0000
0000
0000
,
0000
0000
0000
0000
,
0000
0000
0000
0000
,
0001
1000
0001
0010
0100
0010
0001
1000
,
0010
0100
0010
1000
0001
1000
0100
0010
,
0100
1000
0001
1000
0010
0100
0001
1000
,
0100
0010
0100
1000
0001
1000
0010
0100
,
0010
1000
0100
0010
0100
1000
0001
1000
,
0001
0000
0100
0000
0010
0000
0100
0000
0001
0000
1000
0000
0001
1000
0001
1000
,
0100
0010
0001
0100
0001
0010
0100
1000
,
0010
0000
0101
0000
0110
0100
0002
0000
,
1003
0000
0000
1000
0000
0000
0100
0000
0000
0100
0000
0000
1000
0000
0001
0100
,
0001
0000
0000
0001
0000
0000
0010
0000
0000
0010
0000
0000
0001
1000
0001
1000
,
0010
0000
0000
0010
0000
0000
0100
0000
0000
0100
0000
0000
0010
0000
1000
0001
,
1000
0000
0000
1000
0100
0000
0010
0000
0100
0000
1000
0001
1000
0000
0000
0000
,
0010
0000
0000
0010
0000
0000
1000
0000
0000
1000
0000
0000
0001
0000
0010
0100
,
0010
0000
0000
0010
0000
0000
0001
0000
0000
0001
0000
0000
1000
0010
0100
0001
,
1000
0000
0000
0001
0000
0000
1000
0000
0100
0000
0000
0010
0000
0000
0100
0000
,
1000
0000
0000
0000
1100
0000
0000
0000
0100
0010
0001
1000
0001
1000
0001
1000
,
0010
0000
0000
0100
0000
0000
0001
0000
0000
1000
0000
0000
0100
0000
0010
0001
,
0010
0000
0000
0100
0000
0000
1000
0000
0000
0010
0000
0000
0100
0001
1000
0001
,
1000
0000
0000
0100
0000
0000
1000
0000
0000
0001
0000
0000
0100
0000
0010
0100
,
0010
0000
0000
1000
0010
0000
1000
0000
0000
0000
0001
0000
1000
0000
0000
0000
,
0100
0000
0000
0010
0001
0000
0010
0000
0000
0001
0010
0000
0001
0000
1000
0010
,
0100
0000
0000
0001
0100
0000
0010
0000
0000
0100
0010
0000
1000
0000
0001
0000
,
1000
0000
0000
0100
0000
0000
0010
0000
0001
0000
0000
1000
0000
0000
0001
0000
,
1010
0000
0000
0000
0101
0000
0000
0000
0001
0010
0100
1000
0001
0010
0100
1000
,
0001
0000
0000
0100
0001
0000
1000
0000
0000
0000
0100
0000
0010
0000
0001
0000
,
0100
0000
0000
0010
0100
0000
0010
0000
0000
0000
1000
0000
0001
0000
1000
0000
,
0100
0000
0000
0010
0001
0000
0010
0000
0000
0001
0000
1000
0001
0000
0100
0000
,
0010
0000
0000
1000
0010
0000
1000
0000
0000
0000
2001
0000
0000
0000
3001
0010
,
0100
0000
0000
0010
0000
0000
0001
0000
0000
0100
0000
0000
0010
0000
1000
0000
,
0001
0000
0000
1000
0000
0000
0100
0000
0000
0010
0000
0000
0001
0000
1000
0000
,
0010
0000
0000
0100
0000
0000
0001
0000
0000
1000
0000
0000
0100
0000
0010
0100
,
0010
0000
0001
1000
0000
0001
1000
0000
0010
0100
0010
0100
0001
1000
0001
1000
,
0100
0000
0000
0010
0001
0000
1000
0000
0000
0010
1000
0001
0010
0001
0010
0100
,
1000
0000
0000
0001
0100
0000
0010
0000
0000
0100
0001
1000
0001
0010
0001
1000
,
0010
0000
0000
0100
0001
0000
1000
0000
0000
0100
0000
1000
0001
0000
0100
0001
,
0100
0000
0010
0000
0100
0001
1000
0100
0000
0000
0100
0010
0001
0000
0000
0000
,
1000
0000
0000
0010
0100
0000
0001
0000
0000
1000
0001
0010
0100
0010
0001
1000
,
0001
0000
0000
0100
0001
0000
1000
0000
0000
0010
0100
0001
1000
0100
1000
0100
,
0010
0000
0000
0001
0010
0000
0001
0000
0000
1000
0010
0000
0100
0000
0001
1000
,
0001
0000
0010
0000
0100
1000
0100
0000
0010
0001
1000
0001
1000
0010
1000
0010
,
0100
0100
0000
0000
0001
0000
1000
0001
,
0000
0000
0001
0000
0000
0001
0000
0000
0011
0000
0000
0000
0000
0000
0010
0000
,
0001
1000
0000
0000
1010
0000
0010
1000
,
0000
0000
1000
0000
0000
0000
0100
0000
0010
0000
0002
0000
0000
0000
1003
0010
,
0100
0100
0000
0000
1001
0000
0001
1000
,
0000
0000
1000
0000
0000
1000
0000
0000
1100
0000
0000
0000
0000
0000
0100
0000
,
0010
0001
0000
0000
0101
0000
0100
0010
,
0000
0010
2000
3100
0010
0200
0300
0000
,
0100
0000
1000
0000
0001
0000
1000
0000
0010
0000
0100
0000
0001
0000
0010
0100
,
0010
0001
1000
0010
0100
0001
0100
0010
,
1000
0100
0010
0100
1000
0100
0010
0001
,
0100
0000
0010
0000
1000
0001
1000
0000
0100
0000
0010
0000
0001
0000
1000
0000
,
0010
0000
0100
0000
0001
0000
1000
0000
0010
0000
0100
0000
0001
0000
0010
0001
,
1000
0001
1000
0100
0010
0100
1000
0001
,
0100
0000
0010
1000
0001
0000
0010
0000
0001
0000
1000
0000
0010
0000
0100
0000
,
0001
0010
0001
0100
0001
1000
0010
0000
,
0110
0000
0000
0110
0000
0000
1001
0000
0000
1001
0000
0000
1000
0000
0100
0010
,
0001
0000
0000
0011
0000
0000
1010
0000
0000
1010
0000
0000
0010
1000
0001
0010
,
0100
0000
0000
1100
0000
0000
0101
0000
0000
0101
0000
0000
0001
0000
1000
0010
,
0100
0000
0000
0010
0100
0000
0001
0000
1000
0000
0100
0000
0010
0000
0000
0000
,
0100
0000
0000
1000
0000
0000
0100
0000
0000
0010
0000
0000
0001
0000
1000
0010
,
0100
0000
0000
0010
0000
0000
0100
0000
0000
0001
0000
0000
1000
0100
0010
0001
,
1000
0000
0000
0010
0000
0000
1000
0000
0001
0000
0000
0100
0000
0000
0001
0010
,
0100
0000
0000
0000
1100
0000
0000
0000
1000
0001
0100
0001
0010
0100
1000
0001
,
1000
0000
0000
0000
0000
0000
1010
0000
0000
0010
0000
0000
0100
0000
0001
0000
,
1000
0000
0000
0100
0010
0000
0100
0000
0000
0010
0000
0000
0001
0000
1000
0000
,
0010
0000
0000
0100
0010
0000
0100
0001
0000
1000
0001
0000
0010
0000
0100
0000
,
1000
0000
0000
0100
0000
1000
0100
1000
0001
1000
0001
0000
0200
0000
0000
0300
,
2001
0000
0000
0000
0000
0000
0000
0000
0000
0000
0000
0000
0000
0000
0000
0000
0000
0000
3001
0000
0000
0010
0000
0000
0100
0000
0000
0000
1000
0000
0000
0000
0001
0000
0000
0000
1000
0000
0000
0000
0010
0000
0000
0000
0100
0000
0000
0000
,
0002
0000
0000
0000
0000
0000
0013
0000
0001
1000
0001
1000
0010
0100
0010
0100
,
0010
0000
0000
1000
0000
0000
0001
0000
1000
0000
0000
0100
0000
0000
0010
0001
,
0010
0000
0000
0000
0110
0000
0000
0000
0100
1000
0001
1000
0020
0000
0000
0000
,
0230
0000
0000
0000
,
0300
0000
0000
0000
;
