#TITLE:Bad Pitched;
#SUBTITLE:;
#ARTIST:Insan3lik3;
#TITLETRANSLIT:;
#SUBTITLETRANSLIT:;
#ARTISTTRANSLIT:;
#CREDIT:;
#BANNER:Bad Pitched.png;
#BACKGROUND:Bad Pitched - Bg.png;
#LYRICSPATH:;
#CDTITLE:cdtitle.png;
#MUSIC:Bad Pitched.ogg;
#OFFSET:-0.170;
#SAMPLESTART:92.045;
#SAMPLELENGTH:15.000;
#SELECTABLE:YES;
#BPMS:0.000=128.000,100.000=64.000,116.000=128.000;
#STOPS:149.500=0.469
,153.000=0.469
,155.500=0.469
,162.500=0.469
,166.000=0.469
,168.500=0.938
;
#BGCHANGES:;

//---------------dance-single - ----------------
#NOTES:
     dance-single:
     :
     Hard:
     9:
     0.587,0.580,0.287,0.532,0.332: // measure 1
0000
0000
0000
0000
,  // measure 2
1000
0000
0010
0000
1000
0000
0001
0000
0010
0100
0010
0000
0001
0000
0200
0000
,  // measure 3
0300
0000
2020
0000
0000
0000
3000
0000
0130
0000
0000
1000
0001
0000
0001
1000
,  // measure 4
0000
0000
0001
0000
0000
0000
0001
0000
0100
0010
0100
0000
0010
0000
1000
0100
,  // measure 5
0000
0000
2000
0000
0000
0000
3001
0010
0001
0000
0010
0000
0100
0000
0010
0000
,  // measure 6
0001
0000
0100
0000
0010
0000
1000
0000
0100
0010
0100
0000
0020
0000
0032
0000
,  // measure 7
0003
0000
2020
0000
0000
0000
0030
0000
3001
0000
0000
1000
0010
0000
0010
1000
,  // measure 8
0000
0000
0001
0000
0000
0000
0001
0000
1000
0100
1000
0000
0010
0000
0100
0010
,  // measure 9
0000
0200
0000
0300
0001
0010
1000
0010
,  // measure 10
0001
0000
0100
0000
0001
0000
1000
0000
0100
0010
0100
0000
1000
0000
0020
0000
,  // measure 11
0030
0000
0202
0000
0000
0000
0003
0000
0310
0000
0000
1000
0100
0000
0100
1000
,  // measure 12
0000
0000
0001
0000
0000
0000
0001
0000
1000
0010
1000
0000
0100
0000
1000
0010
,  // measure 13
0000
0000
2000
0000
0000
0000
3001
0100
0001
0000
0010
0000
0100
0000
1000
0000
,  // measure 14
0010
0000
0100
0000
0001
0000
0010
0000
0001
1000
0001
0000
0020
0000
0230
0000
,  // measure 15
0300
0000
2002
0000
0000
0000
3000
0000
0103
0000
0000
0010
1000
0000
1000
0010
,  // measure 16
0000
0000
1000
0000
0000
0000
1000
0000
0001
0010
0001
0000
0100
0000
0010
1000
,  // measure 17
0000
0020
1000
0000
0100
0000
1030
0000
,  // measure 18
1001
0000
1000
0000
0010
0000
1000
0000
0001
1000
0001
0000
1000
0000
0200
0000
,  // measure 19
0300
0000
2002
0000
0000
0000
0003
0000
3010
0000
0000
1000
0100
0000
0100
1000
,  // measure 20
0000
0000
0001
0000
0000
0000
0001
0000
0100
0001
0100
0000
0001
0000
0020
0000
,  // measure 21
0000
0000
0001
0000
0000
0000
0031
0100
0001
0000
0010
0000
0100
0000
1000
0000
,  // measure 22
1001
0000
0001
0000
0010
0000
0001
0000
1000
0010
1000
0000
0001
0000
2000
0000
,  // measure 23
3000
0000
0022
0000
0000
0000
0003
0000
0130
0000
0000
1000
0001
0000
0001
1000
,  // measure 24
0000
0000
0100
0000
0000
0000
0100
0000
1000
0001
1000
0000
0100
0000
0020
0000
,  // measure 25
0000
0200
0000
0330
1000
0010
1000
0100
,  // measure 26
100M
0000
0000
1000
0000
0000
0001
0000
0000
0001
0000
0000
0100
0000
0000
0000
0001
0000
0000
0001
0000
0000
1000
0000
0000
1000
0000
0000
0100
0000
0000
0000
,  // measure 27
0010
0000
0000
0010
0000
0000
0100
0000
0000
0100
0000
0000
1000
0000
0000
0000
0001
0000
0000
0001
0000
0000
0100
0000
0010
0000
0000
0010
0000
0000
1000
0000
,  // measure 28
0200
0000
0000
0010
0000
0000
0010
0000
0000
0010
0000
0000
0310
0000
0000
0000
0002
0000
0000
0100
0000
0000
0100
0000
0000
0100
0000
0000
0103
0000
0000
0000
,  // measure 29
2000
0000
0000
0100
0000
0000
0100
0000
0000
0100
0000
0000
3100
0000
0000
0000
0002
0000
0000
0100
0000
0000
1003
0000
2000
0000
0000
0100
0000
0000
3001
0000
,  // measure 30
0M01
0010
0100
0010
0100
1000
0010
0010
,  // measure 31
1000
0000
0001
0000
1000
0000
0100
0000
1000
0010
1000
0000
0001
0000
1000
0000
,  // measure 32
0001
0001
0010
0100
0010
0001
0010
0010
,  // measure 33
0001
0000
0001
0000
1000
0000
0100
0000
0010
0001
0010
0000
0100
0000
0010
0000
,  // measure 34
0001
1000
0010
0100
0010
0100
0001
0001
,  // measure 35
0010
0000
0010
0000
0001
0000
1000
0000
0010
0100
0010
0000
1000
0000
0001
0000
,  // measure 36
1000
1000
0001
0010
0100
0010
0100
0100
,  // measure 37
1000
0000
1000
0000
0001
0000
0010
0000
0100
1000
0100
0000
0010
0000
0100
0000
,  // measure 38
2000
0000
0000
30M0
0001
0202
0000
0000
,  // measure 39
0000
0300
M013
0000
2000
0000
0000
300M
,  // measure 40
0010
0000
0022
0000
0000
0000
0000
0000
0033
0000
0001
0010
0001
0000
0010
0000
,  // measure 41
0100
1000
0020
0000
0000
M030
0100
0202
,  // measure 42
0000
0000
0000
0300
M013
0000
0220
0000
,  // measure 43
0000
0330
0000
0M00
00M0
0000
0000
0M00
,  // measure 44
00M0
0000
1002
0000
0020
0033
0001
1000
,  // measure 45
0001
0000
1000
0010
0200
0000
0300
0000
0010
0000
1000
0001
1000
0000
0000
1100
,  // measure 46
0000
1100
0120
0000
0031
1000
1010
1000
,  // measure 47
1100
0000
0000
0000
2010
0000
0000
0000
0002
0000
3003
0000
1000
0000
0100
0010
,  // measure 48
0001
0010
0100
0000
0210
0000
0000
0000
2000
0000
3300
0000
0001
0000
0100
0000
,  // measure 49
0001
0000
0100
0010
2000
0000
3000
0000
0001
0000
0010
0100
0010
0000
0000
1001
,  // measure 50
0000
0000
1001
0000
0012
0000
0000
1000
0003
0000
1000
0000
0100
0000
0010
0000
,  // measure 51
0200
0000
0000
0000
0310
0000
0000
0000
0011
0000
0000
0000
0001
0000
0100
0001
,  // measure 52
0000
1000
2001
0000
0200
3300
1000
0001
,  // measure 53
1000
0000
0001
0100
0020
0000
0030
0000
0100
0000
0001
1000
0001
0000
0000
0011
,  // measure 54
0000
0011
0210
0000
1300
0001
0101
0001
,  // measure 55
0011
0000
0000
0000
0102
0000
0000
0000
2000
0000
3003
0000
0001
0000
0010
0100
,  // measure 56
1000
0100
0010
0000
0120
0000
0000
0000
0002
0000
0033
0000
1000
0000
0010
0000
,  // measure 57
1000
0000
0010
0100
0002
0000
0003
0000
1000
0000
0100
0010
0100
0000
0000
1001
,  // measure 58
0000
0000
1001
0000
2100
0000
0000
0001
3000
0000
0001
0000
0010
0000
0100
0000
,  // measure 59
0020
0130
0MM0
0MM0
,  // measure 60
0MM0
0000
0000
0000
;

//---------------dance-single - ----------------
#NOTES:
     dance-single:
     :
     Medium:
     7:
     0.483,0.620,0.344,0.483,0.147:
0000
0000
0000
0000
,
1000
0000
0010
0000
0100
1000
0100
0010
,
0000
0000
0120
0000
0000
0000
1030
0000
0000
0000
0000
0001
0000
0000
1000
0000
,
0000
0001
0000
0001
1000
0100
0010
1000
,
0010
0100
1000
0001
0100
0010
0001
0010
,
1000
0000
0100
0000
0010
1000
0010
0100
,
0000
0000
0210
0000
0000
0000
0000
0000
1300
0000
0000
0001
0000
0000
0100
0000
,
0000
0010
0000
0010
0100
1000
0100
0010
,
1000
0100
0010
0100
0001
0100
0010
0010
,
0001
0000
0100
0000
0010
0001
0010
0100
,
0000
0000
0210
0000
0000
0000
0301
0000
0000
0000
0000
1000
0000
0000
0001
0000
,
0000
1000
0000
1000
0001
0010
0100
0001
,
0100
0010
0001
1000
0010
0100
1000
0100
,
0001
0000
0010
0000
0100
0001
0100
0010
,
0000
0000
0120
0000
0000
0000
0000
0000
0031
0000
0000
1000
0000
0000
0010
0000
,
0000
0100
0000
0100
0010
0001
0010
0100
,
0002
0000
1000
0003
0000
0000
1000
0000
,
0001
0000
1000
0000
0100
0001
0100
1000
,
0000
0000
2100
0000
0000
0000
0001
0000
3001
0000
0000
0100
0000
0000
0010
0000
,
0000
0001
0000
0001
0010
0100
0001
0020
,
0000
1000
0000
0130
0010
0001
0100
0001
,
1000
0000
0001
0000
0100
1000
0100
0001
,
0000
0000
0201
0000
0000
0000
0000
0000
0310
0000
0000
0100
0000
0000
0001
0000
,
0000
1000
0000
1000
0001
0010
1000
0010
,
0002
0010
2003
0000
,
3001
0000
0100
0000
,
0010
0000
0010
0000
,
0200
0000
0300
0200
0000
0300
0200
0000
0300
0200
0000
0300
0200
0000
0000
0000
0002
0000
0003
0002
0000
0003
0002
0000
0003
0002
0000
0003
0302
0000
0000
0000
,
2000
0000
3000
2000
0000
3000
2000
0000
3000
2000
0000
3000
2003
0000
0000
0000
0200
0000
0300
0200
0000
0300
0200
0000
0300
0200
0000
0300
3100
0000
0000
1000
,
0100
1000
0001
0100
1000
0001
0000
0000
,
0000
0001
1000
0100
0010
0100
0010
1000
,
0000
1000
0001
0010
1000
0001
0000
0000
,
0000
0001
1000
0010
0100
0010
0100
1000
,
0001
0000
0000
0100
0000
0000
1000
0000
0000
0010
0000
0000
0001
0000
0000
0001
,
1000
0000
0000
1010
0000
0000
1100
0000
0000
0101
0000
0000
0011
0000
0000
0001
,
1000
0000
0000
0010
0000
0000
0001
0000
0000
0100
0000
0000
1000
0000
0000
1000
,
0001
0000
0000
0101
0000
0000
0011
0000
0000
1010
0000
0000
1100
0000
0000
0000
,
2000
0000
0000
3000
0001
0202
0000
0000
,
0003
0000
0310
0000
0120
0000
0000
0030
,
0100
0201
0000
0000
0300
0010
0100
0001
,
1000
0100
0020
0000
0000
0030
0100
0220
,
0000
0300
0031
0012
,
0000
0003
0000
0000
0000
0000
0000
0000
,
0000
0000
1020
0000
0130
0000
0010
1000
,
0100
0000
0010
0000
0120
0000
0000
0000
0031
0000
0010
0000
0110
0000
0000
0011
,
0000
1001
0002
0000
0103
0000
0101
0100
,
0210
0000
0302
0000
2003
0000
3001
0010
,
1000
0010
0210
0000
2300
0000
3001
0100
,
1000
0000
0100
0000
0120
0000
0000
0000
1030
0000
0100
0000
1100
0000
0000
0110
,
0000
0000
0011
0000
0020
0000
0000
0130
0000
0000
0010
0000
0001
0000
0010
0000
,
2000
0000
3010
0000
0100
0000
1000
0001
,
0100
0010
0021
0000
0230
0000
0310
0100
,
1000
0000
0100
0000
0120
0000
0000
0000
1030
0000
0100
0000
0110
0000
0000
0011
,
0000
0101
0200
0000
0310
0000
0001
0010
,
2000
0000
3002
0000
0023
0000
1030
0010
,
0100
1000
2001
0000
3010
0000
0100
1000
,
0100
0000
0010
0000
0210
0000
0000
0000
0301
0000
0010
0000
0110
0000
0000
1100
,
0000
0000
1001
0000
0002
0000
0000
0103
0000
0000
1000
0000
0100
0000
0001
0000
,
0010
0011
0000
0000
;

//---------------dance-single - ----------------
#NOTES:
     dance-single:
     :
     Easy:
     6:
     0.359,0.334,0.123,0.295,0.000:
0000
0000
0000
0000
,
0020
0000
0130
0000
0010
0000
1000
0100
,
0000
0110
0000
1100
1000
0000
0001
0000
,
0100
0001
0000
0001
0100
0010
0100
0010
,
0000
0100
0000
0010
0100
0001
0100
0001
,
0020
0000
0130
0000
0010
0000
0001
0100
,
0000
0110
0000
0101
0001
0000
1000
0000
,
0100
1000
0000
1000
0100
0010
0100
0010
,
0000
0100
2000
0000
0001
0000
0010
0000
,
3200
0000
0310
0000
0100
0000
1000
0010
,
0000
0110
0000
1010
1000
0000
0001
0000
,
0010
0001
0000
0001
0010
0100
0010
0100
,
0000
0010
0000
0100
0010
0001
0010
0001
,
0200
0000
0310
0000
0100
0000
0001
0010
,
0000
0110
0000
0011
0001
0000
1000
0000
,
0010
1000
0000
1000
0010
0100
0010
0100
,
0010
1000
0000
1000
,
0001
1000
0000
0100
0000
0001
0000
0010
,
0000
0001
0000
0100
0000
0010
0000
0001
,
0000
0100
0000
1000
0000
0010
0000
0001
,
0000
0100
0000
0001
0100
0010
0100
0010
,
1000
0001
0000
0010
0000
1000
0000
0100
,
0000
1000
0000
0010
0000
0100
0000
1000
,
0000
0010
0000
0001
0000
0100
0000
1000
,
0002
0000
0000
0000
,
1003
0000
0001
0000
,
0100
0000
0100
0000
,
0002
0000
0203
0000
,
0320
0000
2030
0000
,
3000
0001
1000
0010
1000
0100
0000
0000
,
0000
1000
0100
0010
0100
1000
0001
1000
,
0000
0001
1000
0100
1000
0010
0000
0000
,
0000
1000
0010
0100
0010
1000
0001
1000
,
0200
0010
0001
0010
,
2300
0010
0100
0001
,
3020
0100
0001
0100
,
2030
0100
0010
3001
,
2000
0000
0000
3000
0002
0200
0000
0000
,
0003
0000
0310
0000
0200
0000
0000
0300
,
0020
2000
0000
0000
3030
1000
0010
0100
,
0010
1000
0002
0000
0000
0003
2000
0200
,
0000
3000
0310
0200
,
0000
0300
0000
0000
0000
0000
0000
0000
,
0000
1000
1001
0001
,
0100
0001
0100
0000
0010
0100
0010
0000
,
0100
0000
0020
0000
1030
0000
0100
1000
,
0200
0320
0032
0013
,
0001
0010
0100
0000
0110
0000
0010
0000
,
0001
0010
0001
0000
1000
0001
1000
0000
,
0001
2000
3020
0130
,
0110
0000
1000
0000
0001
0000
1000
0100
,
0010
0010
0001
0000
1001
0000
1000
0000
,
0010
1000
0010
0000
0100
0010
0100
0000
,
0010
0000
0200
0000
0301
0000
0010
0001
,
0020
0230
2300
3100
,
1000
0100
0010
0000
0110
0000
0100
0000
,
1000
0100
1000
0000
0001
1000
0001
0000
,
1000
0002
0203
0310
,
0110
1001
0000
0000
;

//---------------dance-single - ----------------
#NOTES:
     dance-single:
     :
     Beginner:
     4:
     0.247,0.310,0.000,0.278,0.000:
0000
0000
0000
0000
,
1000
0010
0000
0010
,
1000
0001
0000
0001
,
1000
0100
0000
0100
,
1000
0100
0010
0001
,
0001
0010
0000
0010
,
0001
1000
0000
1000
,
0001
0100
0000
0100
,
0001
0100
0010
1000
,
1000
0100
0000
0100
,
1000
0001
0000
0001
,
1000
0010
0000
0010
,
1000
0010
0100
0001
,
0001
0100
0000
0100
,
0001
1000
0000
1000
,
0001
0010
0000
0010
,
0001
1000
0000
1000
,
0001
0100
0001
0100
,
0010
0100
0010
0100
,
0010
1000
0010
1000
,
0001
1000
0001
0001
,
1000
0010
1000
0010
,
0100
0010
0100
0010
,
0100
0001
0100
0001
,
2000
0000
0000
0000
,
3001
0000
0001
0000
,
0001
0000
0001
0000
,
0002
0000
0203
0000
,
0320
0000
2030
0000
,
3001
0001
0001
0001
,
0010
0010
0010
0010
,
0100
0100
0100
0100
,
1000
1000
1000
1000
,
0002
0000
0000
0000
,
2003
0000
0000
0000
,
3020
0000
0000
0000
,
0230
0000
0000
0000
,
0320
0000
0000
0030
0000
0200
0000
0000
,
0300
0000
0000
0000
0020
0000
0000
0030
,
0000
2000
0000
0000
3000
0000
0000
0000
,
0002
0000
2003
0000
0000
3000
0000
0002
,
0000
0003
0000
0020
,
0000
0030
0000
0000
0000
0000
0000
0000
,
0000
0100
0010
0100
,
0001
1000
0100
0010
,
0010
0020
0031
0010
,
0002
0203
0302
1003
,
0001
2000
3010
0100
,
0010
1000
0001
0010
,
0010
0020
0230
2300
,
3200
1300
1000
1000
,
0001
0010
0100
0010
,
0001
1000
0010
0100
,
0100
0200
0301
0100
,
0002
0023
0032
1003
,
0001
1000
0100
0010
,
0100
1000
0001
0100
,
0100
0200
0320
2030
,
3020
0130
0000
0000
;
