#TITLE:Aluminum City;
#SUBTITLE:;
#ARTIST:Honeycut;
#TITLETRANSLIT:;
#SUBTITLETRANSLIT:;
#ARTISTTRANSLIT:;
#GENRE:;
#CREDIT:;
#BANNER:Aluminum City-bn.png;
#BACKGROUND:Aluminum City-bg.png;
#LYRICSPATH:;
#CDTITLE:;
#MUSIC:Aluminum City.mp3;
#OFFSET:-0.178277;
#SAMPLESTART:45.198513;
#SAMPLELENGTH:15.000000;
#SELECTABLE:YES;
#BPMS:0.000000=96.000000
,136.500000=48.000000
,137.500000=96.000000
,177.000000=91.000000
,178.000000=73.000000
,179.000000=62.000000
,183.000000=42.000000
;
#STOPS:
;
#BGCHANGES:;
#KEYSOUNDS:;
#ATTACKS:;

//---------------dance-single - ----------------
#NOTES:
     dance-single:
     :
     Beginner:
     1:
     0.103852,0.127918,0.000000,0.000000,0.000000,91.000000,91.000000,0.000000,0.000000,0.000000,0.000000,0.103852,0.127918,0.000000,0.000000,0.000000,91.000000,91.000000,0.000000,0.000000,0.000000,0.000000:
0000
0000
0000
0000
,
1000
1000
1000
1000
,
1000
0000
0000
0000
,
0001
0000
0100
0000
,
0010
0000
0000
0000
,
0100
0100
0100
0100
,
0100
0000
0000
0000
,
0001
0000
0010
0000
,
0100
0100
0000
0000
,
0000
1000
0000
1000
,
0000
0001
0000
0001
,
0000
0100
0000
0100
,
0100
0000
0010
0000
,
0000
1000
0000
1000
,
0000
0100
0000
0100
,
0000
0010
0000
0010
,
0010
0000
0001
0000
,
1000
0000
1000
0000
,
0001
0001
0001
0001
,
0001
0000
0000
0000
,
0100
0000
0010
0000
,
1000
0000
0000
0000
,
1000
1000
1000
1000
,
1000
0000
0000
0000
,
0100
0000
0010
0000
,
0001
0001
0000
0000
,
0000
1000
0000
1000
,
0000
0010
0000
0010
,
0000
0100
0000
0100
,
0100
0000
0001
0000
,
0000
0001
0000
0001
,
0000
0010
0000
0010
,
0000
0100
0000
0100
,
0100
0000
1000
0000
,
0001
0000
1000
0100
,
0100
0100
0100
0100
,
0000
0000
0000
1000
,
0000
0010
0000
0100
,
0000
0000
0000
0100
,
0100
0100
0100
0100
,
0000
0000
0000
0001
,
0000
0010
0000
0100
,
0000
0000
0000
1000
,
0000
0010
0000
0100
,
0000
0000
0000
0001
,
0000
0000
0000
1000
;

//---------------dance-single - ----------------
#NOTES:
     dance-single:
     :
     Easy:
     3:
     0.123253,0.150985,0.000000,0.111841,0.000000,108.000000,108.000000,0.000000,14.000000,0.000000,0.000000,0.123253,0.150985,0.000000,0.111841,0.000000,108.000000,108.000000,0.000000,14.000000,0.000000,0.000000:
0000
0000
0000
0000
,
1000
0100
0010
0001
,
1000
0000
0000
0000
,
0001
0000
0100
0000
,
0010
0000
0000
0000
,
1000
0010
0100
0001
,
1000
0000
0000
0000
,
0001
0000
0010
0000
,
0100
0100
0000
0000
,
1000
0001
0100
0000
,
0001
1000
0100
0000
,
1000
0001
0010
0000
,
0002
0000
2000
3003
,
1000
0010
0100
0000
,
0001
0010
0100
0000
,
1000
0100
0010
0000
,
0002
0000
0203
0000
,
0320
0000
2030
0001
,
3001
0010
0100
1000
,
0001
0000
0000
0100
,
0100
0000
0010
0000
,
1000
0000
0000
0000
,
1000
0010
0100
0001
,
1000
0000
0000
0001
,
0001
0000
0010
0000
,
0100
0100
0000
0000
,
1000
0100
0010
0000
,
0001
0100
0010
0000
,
1000
0001
0100
0000
,
0020
0000
0200
0330
,
0100
0001
0010
0000
,
0100
1000
0010
0000
,
1000
0001
0100
0000
,
0020
0000
0230
0000
,
0302
0000
2003
3100
,
1000
0010
0100
0001
,
0000
0000
1000
0100
,
0000
0010
0000
0001
,
0000
0000
0000
1000
,
0010
0100
0001
1000
,
0000
0000
0100
0010
,
0000
0001
0000
0100
,
0000
0000
0000
0010
,
0000
1000
0000
0001
,
0000
0000
0000
0020
,
0000
0000
0000
0200
,
0000
0000
0000
0000
,
0000
0330
0000
0000
;

//---------------dance-single - ----------------
#NOTES:
     dance-single:
     :
     Medium:
     6:
     0.231670,0.280850,0.031954,0.191727,0.027960,203.000000,199.000000,4.000000,24.000000,0.000000,0.000000,0.231670,0.280850,0.031954,0.191727,0.027960,203.000000,199.000000,4.000000,24.000000,0.000000,0.000000:
0000
0000
0000
0000
,
1000
0100
1000
0000
0001
0100
0001
0000
,
2000
0000
0000
3000
0000
0000
0000
0000
0000
0000
0000
0000
0000
0000
0001
0000
,
0020
0000
0000
0030
0000
0000
0100
0000
2000
0000
0000
3000
0000
0000
0010
0000
,
0200
0000
0000
0300
0000
0000
0000
0000
0000
0000
0000
0000
0000
0000
0000
0000
,
0001
1000
0010
0000
1000
0001
0010
0000
,
0002
0000
0000
0003
0000
0000
0000
0000
0000
0000
0000
0000
0000
0000
1000
0000
,
0020
0000
0000
0030
0000
0000
0010
0000
0200
0000
0000
0300
0000
0000
0100
0000
,
0001
0001
0001
0000
1001
1001
0000
0000
,
0000
1000
0000
0100
0010
0000
0001
0000
,
0000
0001
0000
0100
0010
0000
1000
0000
,
0000
0001
0000
1000
0010
0000
0100
0000
,
0002
0000
2000
3003
,
0000
1000
0000
0100
0020
0000
0031
0000
,
0000
0001
0000
0100
0020
0000
1030
0000
,
0000
0010
0000
0100
0002
0000
1003
0000
,
0200
0000
0320
0000
,
0032
0000
2003
0100
,
3010
0010
0100
0000
0001
0001
1000
0000
,
0100
0000
1000
0000
0001
0000
0100
0100
,
0010
0000
0100
0100
0001
0000
0100
0100
,
1000
0100
0001
0001
,
1000
1000
0100
0000
0010
0010
0001
0000
,
1000
0000
0010
0000
1000
0000
0100
0100
,
0010
0000
0100
0100
1000
0000
0100
0100
,
0001
0100
1000
0000
1001
1001
0000
1000
,
0001
0000
0000
0010
0000
0000
0100
0000
1000
0000
0000
0000
0001
0000
0000
0000
,
1000
0000
0000
0100
0000
0000
0010
0000
0001
0000
0000
0000
1000
0000
0000
0000
,
0001
0000
0000
0100
0000
0000
0010
0000
1000
0000
0000
0000
0001
0000
0000
0000
,
0200
0000
0020
0330
,
0010
0000
0000
1000
0000
0000
0100
0000
0010
0000
0000
0000
0001
0000
0000
0000
,
0010
0000
0000
0001
0000
0000
0100
0000
0010
0000
0000
0000
1000
0000
0000
0000
,
1000
0000
0000
0100
0000
0000
0010
0000
0001
0000
0000
0000
1000
0000
0000
0000
,
0002
0000
0203
0000
,
0320
0000
0000
0000
0000
2030
0000
0000
0001
0000
0000
0000
3001
0000
0001
0000
,
1000
0000
0100
0100
1000
0000
0001
0000
,
1000
0000
0010
0000
0100
0010
1000
0000
,
0010
0100
0001
0000
0100
0010
1000
0000
,
0001
0000
1000
1000
0001
0001
1000
1000
,
0100
0000
0010
0010
0001
0000
0010
0000
,
0100
0000
1000
0000
0001
1000
0100
0000
,
1000
0001
0100
0000
0001
1000
0100
0000
,
1000
0000
0001
0000
0001
1000
0100
0000
,
1000
0001
0100
0000
0001
1000
0010
0000
,
1000
0001
0100
0002
,
0000
0000
0000
2000
,
0000
0000
0003
0000
0000
0000
0000
3000
;

//---------------dance-single - ----------------
#NOTES:
     dance-single:
     :
     Hard:
     8:
     0.497577,0.505530,0.151784,0.183738,0.535238,436.000000,417.000000,19.000000,23.000000,0.000000,0.000000,0.497577,0.505530,0.151784,0.183738,0.535238,436.000000,417.000000,19.000000,23.000000,0.000000,0.000000:
// measure 0
0000
0000
0000
0000
,  // measure 1
1000
0000
0010
0000
0100
0000
0000
0001
0010
0000
0100
0000
1000
0000
0001
0000
,  // measure 2
0200
0000
0000
0000
0000
0000
0000
0000
0000
0000
0000
0000
0310
0000
0000
0000
0000
0000
0000
0000
0000
1000
0000
0000
0001
0000
0000
0000
0000
0000
0010
0000
0000
0000
0000
0000
0100
0000
0000
0000
0000
0000
0010
0000
0001
0000
1000
0000
,  // measure 3
0100
0000
0000
0100
0000
0000
1001
0000
0000
0010
1000
0001
0100
0000
0000
0100
0000
0000
1010
0000
0000
0100
0001
1000
,  // measure 4
0200
0000
0000
0000
0310
0000
0000
0100
1000
0000
0001
0000
0100
0000
0010
0000
,  // measure 5
0100
0000
0001
0000
1000
0000
0000
0100
0010
0000
0001
0000
1000
0000
0010
0000
,  // measure 6
0200
0000
0000
0000
0000
0000
0000
0000
0000
0000
0000
0000
0301
0000
0000
0000
0000
0000
0000
0000
0000
1000
0000
0000
0100
0000
0000
0000
0000
0000
0010
0000
0000
0000
0000
0000
0100
0000
0000
0000
0000
0000
1000
0000
0100
0000
0010
0000
,  // measure 7
0001
0000
0000
0001
0000
0000
0110
0000
0000
0001
0100
0010
1000
0000
0000
1000
0000
0000
0110
0000
0000
1000
0010
0100
,  // measure 8
0001
0010
0100
0000
0110
0110
0000
0100
,  // measure 9
1001
0000
0001
0000
0100
0010
0000
1000
0000
0001
0010
0100
1000
0001
0100
0010
,  // measure 10
1000
0000
0001
0000
0010
0100
0000
0010
0000
0001
0010
0100
1000
0010
0001
0010
,  // measure 11
0100
0000
0001
0000
1000
0100
0000
0010
0000
0100
1000
0001
0100
0010
1000
0001
,  // measure 12
0200
0000
1000
0000
0320
0000
0001
0130
,  // measure 13
0001
0000
1000
0000
0100
0010
0000
0001
0000
0010
0100
1000
0001
0100
0010
1000
,  // measure 14
0001
0000
0010
0000
0100
0010
0000
0001
0000
0100
0010
1000
0001
0010
1000
0010
,  // measure 15
0100
0000
1000
0000
0001
0100
0000
0010
0000
0100
0001
1000
0100
0010
0001
1000
,  // measure 16
0020
0001
0230
1000
,  // measure 17
0302
0000
0000
0000
0000
0000
0000
0000
0000
0000
0000
0000
0100
0000
0000
0000
0000
0000
0000
0000
0000
0000
0000
0000
1003
0000
0000
0000
0000
0000
0000
0000
0000
0000
0000
1000
0010
0000
0000
0010
0000
0000
0100
0000
0000
0000
0000
0000
,  // measure 18
0001
0000
0010
0000
0100
0000
0000
1000
0001
0000
0100
0000
0010
0000
1000
0000
,  // measure 19
0002
0000
0000
0000
0000
0000
0000
0000
0000
0000
0000
0000
0103
0000
0000
0000
0000
0000
0000
0000
0000
1000
0000
0000
0010
0000
0000
0000
0000
0000
0100
0000
0000
0000
0000
0000
0001
0000
0000
0000
0000
0000
0010
0000
0100
0000
1000
0000
,  // measure 20
0001
0000
0000
0001
0000
0000
1010
0000
0000
0010
0100
0001
1000
0000
0000
1000
0000
0000
0011
0000
0000
0010
0001
1000
,  // measure 21
0200
0000
0000
0000
0310
0000
0000
0100
1000
0000
0001
0000
0100
0000
0010
0000
,  // measure 22
1000
0000
0001
0000
0010
0000
0000
0100
1000
0000
0001
0000
0100
0000
0010
0000
,  // measure 23
2000
0000
0000
0000
0000
0000
0000
0000
0000
0000
0000
0000
3001
0000
0000
0000
0000
0000
0000
0000
0000
0100
0000
0000
0010
0000
0000
0000
0000
0000
1000
0000
0000
0000
0000
0000
0001
0000
0000
0000
0000
0000
0010
0000
0001
0000
1000
0000
,  // measure 24
0100
0000
0000
0100
0000
0000
1001
0000
0000
0010
1000
0001
0100
0000
0000
0100
0000
0000
0110
0000
0000
1000
0100
0010
,  // measure 25
0001
1000
0010
0000
0110
0110
0000
0100
,  // measure 26
1001
0000
0000
0001
0100
0000
0010
0000
1000
0001
0100
0010
1000
0001
0010
0100
,  // measure 27
1000
0000
0000
0001
0100
0000
0010
0000
1000
0001
0010
0100
1000
0010
0001
0010
,  // measure 28
0100
0000
0000
0001
1000
0000
0100
0000
0010
0001
1000
0010
0100
0001
1000
0100
,  // measure 29
0020
0000
0000
0000
0000
0000
0000
0000
0000
0000
0000
0000
1000
0000
0000
0000
0000
0000
0000
0000
0000
0000
0000
0000
0031
0000
0000
0000
0000
0000
0000
0000
0000
0000
0000
1000
0100
0000
0000
0100
0000
0000
0010
0000
0000
0000
0000
0000
,  // measure 30
0001
0000
0000
0100
0010
0000
1000
0000
0001
0010
0100
1000
0001
0100
0010
1000
,  // measure 31
0001
0000
0000
0100
0010
0000
1000
0000
0001
0100
0010
1000
0001
0010
1000
0010
,  // measure 32
0001
0000
0000
1000
0100
0000
0010
0000
0001
0100
0010
1000
0001
0010
0100
1000
,  // measure 33
0002
0100
2003
0010
,  // measure 34
3200
0000
0000
0000
0310
0000
1001
0001
,  // measure 35
0010
0000
0100
0010
0100
0000
1000
0000
0001
0000
0100
0000
0020
0000
0000
0000
,  // measure 36
1030
0000
0000
0000
0000
0000
0000
0000
0000
0100
0000
0000
0100
0000
0000
0000
0000
0000
1000
0000
0000
0000
0000
0000
0001
0000
0000
0000
0000
0000
0100
0000
0010
0000
1000
0000
0001
0000
0000
0000
0000
0000
0001
0000
0000
0000
0000
0000
,  // measure 37
1100
0000
0000
0100
0010
0001
1000
0000
0000
1000
0000
0000
0101
0000
0000
0001
0010
0100
2000
0000
0000
0000
0000
0000
,  // measure 38
3001
0000
0000
0000
0100
0000
0010
0000
1000
0000
0000
0000
0001
0000
0000
0000
0010
0100
0010
0000
0001
0000
1000
0000
0010
0000
0000
0000
0100
0000
0000
0000
,  // measure 39
0001
0000
1000
0100
1000
0000
0010
0000
0100
0000
0001
0000
2000
0000
0000
0000
,  // measure 40
3001
0000
0000
0000
0000
0000
0100
0000
0000
0010
0000
0000
1000
0000
0000
0000
0000
0000
0100
0000
0000
0010
0000
0000
0001
0000
0000
0000
0000
0000
1000
0000
0100
0000
0010
0000
0001
0000
0000
0000
0000
0000
0100
0000
0000
0001
0000
0000
,  // measure 41
0010
0000
0000
0000
0000
0000
0001
0000
0100
0000
0010
0000
1000
0000
0000
0000
0000
0000
0100
0000
0000
1000
0000
0000
0010
0000
0000
0000
0000
0000
0100
0000
0001
0000
1000
0000
0200
0000
0000
0000
0000
0000
0000
0000
0000
0000
0000
0000
,  // measure 42
0010
0000
0000
0000
0000
0000
0300
0000
0000
1000
0000
0000
0100
0000
0000
0000
0000
0000
1000
0000
0000
0000
0000
0000
0001
0000
0000
0000
0000
0000
0010
0000
0001
0000
1000
0000
0010
0000
0000
0000
0000
0000
0010
0000
0000
0000
0000
0000
,  // measure 43
0110
0000
0000
0100
0001
1000
0100
0000
0000
0100
0000
0000
0110
0000
0000
0010
0001
0100
0020
0000
0000
0000
0000
0000
,  // measure 44
1030
0002
0013
0200
,  // measure 45
0000
0000
0000
0020
,  // measure 46
0000
0000
0300
0000
0000
0000
0000
0030
;
