#VERSION:0.83;
#TITLE:AFRO KNUCKLE;
#SUBTITLE:;
#ARTIST:猫叉Master+;
#TITLETRANSLIT:;
#SUBTITLETRANSLIT:;
#ARTISTTRANSLIT:Nekomata Master+;
#GENRE:;
#ORIGIN:;
#CREDIT:Mokou98 & C. Grab;
#BANNER:[ZIv Academy II] - AFRO KNUCKLE-bn.png;
#BACKGROUND:[ZIv Academy II] - AFRO KNUCKLE-bg.png;
#PREVIEWVID:;
#JACKET:;
#CDIMAGE:;
#DISCIMAGE:;
#LYRICSPATH:;
#CDTITLE:honk.png;
#MUSIC:[ZIv Academy II] - AFRO KNUCKLE.ogg;
#OFFSET:1.079000;
#SAMPLESTART:19.611000;
#SAMPLELENGTH:14.000000;
#SELECTABLE:YES;
#BPMS:0.000=145.000;
#STOPS:;
#DELAYS:;
#WARPS:;
#TIMESIGNATURES:0.000=4=4;
#TICKCOUNTS:0.000=4;
#COMBOS:0.000=1;
#SPEEDS:0.000=1.000=0.000=0;
#SCROLLS:0.000=1.000;
#FAKES:;
#LABELS:0.000=Song Start;
#BGCHANGES:-0.500=[ZIv Academy II] - AFRO KNUCKLE.avi=1.000=0=0=0=StretchNoLoop====,
99999=-nosongbg-=1.000=0=0=0 // don't automatically add -songbackground-
;
#KEYSOUNDS:;
#ATTACKS:
;

//---------------dance-single - Mokou98----------------
#NOTEDATA:;
#CHARTNAME:Mokou98;
#STEPSTYPE:dance-single;
#DESCRIPTION:Mokou98;
#CHARTSTYLE:;
#DIFFICULTY:Hard;
#METER:9;
#RADARVALUES:0.568100,0.572521,0.146999,0.193419,0.646020,514.000000,495.000000,19.000000,25.000000,0.000000,0.000000,0.000000,0.000000,0.000000,0.568100,0.572521,0.146999,0.193419,0.646020,514.000000,495.000000,19.000000,25.000000,0.000000,0.000000,0.000000,0.000000,0.000000;
#CREDIT:Mokou98;
#NOTES:
// measure 0
0000
0000
0000
0000
,  // measure 1
0000
0000
0000
0000
,  // measure 2
0000
0000
0000
0000
,  // measure 3
0010
0000
0000
0101
0000
0000
0000
0000
0010
0000
0000
1100
0000
0000
0100
0000
,  // measure 4
1000
0010
0001
0010
1000
0100
0010
0001
,  // measure 5
0100
0000
0010
0000
0100
0000
0001
0000
1000
0000
0000
1000
0000
0000
0100
0000
,  // measure 6
1000
0000
0000
1000
0000
0000
0010
0000
0100
0000
1000
0000
0100
0000
0001
0000
,  // measure 7
0010
0000
0100
0000
0010
0000
0001
0000
1000
0000
0000
1000
0000
0000
0010
0000
,  // measure 8
1000
0000
0000
1000
0000
0000
0100
1000
0100
0000
0001
0000
0100
0000
0010
0000
,  // measure 9
0001
0000
0100
0000
0010
0000
0100
0000
0001
0000
0000
0001
0000
0000
0010
0000
,  // measure 10
0001
0000
0000
0001
0000
0000
0100
0000
1000
0000
0100
0000
0010
0000
1000
0000
,  // measure 11
0100
0001
0100
1000
0001
0010
0100
0001
,  // measure 12
0100
0010
0001
0100
0110
0000
1010
0000
,  // measure 13
0102
0000
0000
0103
0001
0000
1000
0000
0100
0000
0000
0010
0000
0001
0000
0020
,  // measure 14
0000
0000
0000
0031
0100
0000
0001
0000
0010
0000
0000
0100
0000
1000
0000
0200
,  // measure 15
0000
0000
0000
1300
0010
0000
0100
0000
0010
0000
0000
0100
0000
0001
0000
0200
,  // measure 16
0000
1000
0010
0301
,  // measure 17
0201
0000
0000
0301
0100
0000
0010
0000
0100
0000
0000
0001
0000
0010
0000
0200
,  // measure 18
0000
0000
0000
0310
0001
0000
0100
0000
0010
0000
0000
1000
0000
0100
0000
0020
,  // measure 19
0000
0000
0000
0031
1000
0000
0000
1000
0010
0000
0000
0010
0100
0000
0000
0100
,  // measure 20
0002
0000
0000
0000
0000
0000
0003
0000
0000
0000
0000
0000
0001
0000
0010
0000
0100
0000
1000
0000
0000
1000
0000
0000
,  // measure 21
2100
0000
0000
3100
1000
0000
0010
0000
0100
0000
0000
0010
0000
1000
0000
0002
,  // measure 22
0000
0000
0000
0013
1000
0000
0010
0000
0001
0000
0000
0010
0000
0100
0000
2000
,  // measure 23
0000
0000
0000
3010
0001
0000
0010
0000
1000
0000
0000
0001
0000
0100
0000
0020
,  // measure 24
0000
0001
0100
1030
,  // measure 25
0001
0000
0000
0000
0010
0000
0000
0000
0100
0000
0000
0000
1000
0000
0000
0000
0000
0000
0000
0000
0000
0000
0000
0000
0000
0000
0000
0000
0000
0000
0000
0000
0000
1001
0000
0000
0000
0000
0000
1001
0000
0000
0000
0000
0000
0110
0000
0000
,  // measure 26
0000
0000
0000
0010
1000
0000
0010
0000
0100
0000
0000
0010
0100
0000
0001
0000
,  // measure 27
1000
0000
0000
0001
0010
0000
0000
0010
0001
0000
0000
0001
1000
0000
0000
1000
,  // measure 28
0010
0100
0000
0010
0100
0000
0010
0000
1000
0001
1000
0001
1000
0000
0100
0000
,  // measure 29
1000
0000
0000
1000
0010
0000
0000
0010
1000
0000
0100
0000
0010
0000
0100
0000
,  // measure 30
1000
0000
0000
1000
0010
0000
0000
0010
0100
0000
0000
0100
0001
0000
0010
0000
,  // measure 31
0001
0000
0000
0001
0100
0000
0000
0100
0001
0000
0010
0000
0100
0000
0010
0000
,  // measure 32
0001
0000
0000
0001
0100
0000
0000
0100
0010
0000
0000
0010
1000
0000
0100
0000
,  // measure 33
1000
0000
0000
0010
0100
0000
0000
0001
0010
0000
0000
0100
1000
0100
0010
0000
,  // measure 34
0001
0000
0000
0100
0010
0000
0000
1000
0100
0000
0000
0010
0001
0010
0100
0000
,  // measure 35
1000
0000
0000
1000
0010
0000
0000
0010
1000
0000
0000
1000
0100
0000
0000
0100
,  // measure 36
0001
0000
0000
0001
0100
0000
0000
0100
0010
0000
0000
0010
0001
0000
1000
0000
,  // measure 37
0001
0000
0000
0001
0010
0000
0000
0010
0001
0000
0000
0001
0100
0000
0000
0100
,  // measure 38
0010
0000
0000
0010
1000
0000
0000
1000
0100
0000
0000
0100
0010
0000
0000
0010
,  // measure 39
0001
0000
0000
0001
0100
0000
0000
0100
1000
0000
0000
1000
0100
0000
0000
0100
,  // measure 40
0001
0000
0000
0001
0010
0000
1000
0000
0010
0000
0001
0000
0100
0000
0010
0000
,  // measure 41
1000
0000
0000
1000
0100
0000
0000
0100
1000
0000
0000
1000
0010
0000
0000
0010
,  // measure 42
0100
0000
0000
0100
0001
0000
0000
0001
0010
0000
0000
0010
0100
0000
0000
0100
,  // measure 43
0010
0001
0100
0000
0010
1000
0100
0000
,  // measure 44
0100
1000
0010
1000
0100
0010
0001
0100
,  // measure 45
0010
0000
0010
0000
,  // measure 46
0010
0000
0020
0030
,  // measure 47
0100
0000
0100
0000
,  // measure 48
0100
0000
0200
0300
,  // measure 49
0101
0000
0001
0010
1000
0000
1000
0010
,  // measure 50
0001
0000
0001
0100
1000
0000
1000
0100
,  // measure 51
0001
0010
0100
1000
0000
0000
1000
0100
0010
0001
0000
0000
,  // measure 52
0001
0000
0100
0000
0010
0000
1000
0000
0100
0000
0010
0000
0002
0000
0000
0000
0000
0000
1000
0000
0000
1003
0000
0000
,  // measure 53
0000
0000
1001
0110
,  // measure 54
1002
0000
0000
1003
0100
0000
1000
0000
0010
0000
0000
0100
0000
0010
0000
2000
,  // measure 55
0000
0000
0000
3100
0010
0000
0100
0000
1000
0000
0000
0010
0000
0100
0000
0002
,  // measure 56
0000
0000
0000
0013
0100
0000
0010
0000
0001
0000
0000
1000
0000
0010
0000
0200
,  // measure 57
0000
1000
0010
0301
,  // measure 58
2001
0000
0000
3001
0010
0000
0100
0000
0010
0000
0000
0001
0100
0000
0010
0000
,  // measure 59
0200
0000
0000
0310
1000
0000
0100
0000
0010
0000
0000
0100
1000
0000
0010
0000
,  // measure 60
0100
0000
0000
0010
1000
0000
0000
1000
0001
0000
0000
0001
0010
0000
0000
0010
,  // measure 61
0200
0000
0000
0000
0000
0000
0300
0000
0000
0000
0000
0000
1000
0000
0100
0000
0010
0000
0001
0000
0000
0001
0000
0000
,  // measure 62
0102
0000
0000
0103
0001
0000
0010
0000
0100
0000
1000
0000
0010
0000
0100
0000
,  // measure 63
0001
0000
0000
1000
0100
0000
1000
0000
0001
0000
0010
0000
0100
0000
1000
0000
,  // measure 64
0010
0000
0000
0100
0010
0000
1000
0000
0100
0000
0001
0000
0100
0000
1000
0000
,  // measure 65
0010
0000
0000
1000
0001
0000
0100
0000
1000
0000
0100
0000
0001
0000
0010
0000
,  // measure 66
0100
0000
0000
0100
1000
0000
0000
1000
0010
0000
0000
0010
0100
0000
0010
0000
,  // measure 67
0100
0000
0000
0100
0001
0000
0000
0001
0010
0000
0000
0010
0100
0000
0010
0000
,  // measure 68
0001
0000
0000
0100
0010
0000
0000
0100
0001
0000
0000
1000
0010
0000
0000
1000
,  // measure 69
0100
0000
0000
0100
1000
0000
0000
1000
0001
0000
0100
0000
0010
0000
0100
0000
,  // measure 70
0001
0000
0000
1000
0100
0000
0000
1000
0010
0000
0000
0100
0010
0000
0000
0100
,  // measure 71
0001
0000
0000
0001
0010
0000
0000
0010
0100
0000
0010
0000
0001
0000
0100
0000
,  // measure 72
0010
0000
0000
1001
0000
0000
0000
0000
0100
0000
0000
1001
0000
0000
0000
0000
,  // measure 73
0001
0000
0000
0000
0100
0000
0000
0000
0010
0000
0000
0000
1000
0000
0000
0000
0001
0000
0000
0000
0100
0000
0000
0000
0010
0000
0000
0000
0000
0000
0000
0000
0000
2002
0000
0000
0000
0000
0000
0000
0000
0000
0000
0000
0000
0000
0000
0000
,  // measure 74
3003
0000
0000
0000
;

//---------------dance-single - Mokou98----------------
#NOTEDATA:;
#CHARTNAME:Mokou98;
#STEPSTYPE:dance-single;
#DESCRIPTION:Mokou98;
#CHARTSTYLE:;
#DIFFICULTY:Medium;
#METER:6;
#RADARVALUES:0.415575,0.484587,0.394575,0.146999,0.073499,376.000000,325.000000,51.000000,19.000000,0.000000,0.000000,0.000000,0.000000,0.000000,0.415575,0.484587,0.394575,0.146999,0.073499,376.000000,325.000000,51.000000,19.000000,0.000000,0.000000,0.000000,0.000000,0.000000;
#CREDIT:Mokou98;
#NOTES:
0000
0000
0000
0000
,
0000
0000
0000
0000
,
0000
0000
0000
0000
,
0010
0000
0010
0000
,
0100
0000
0100
0100
,
0001
0000
1000
0001
1000
0000
0100
0000
,
0010
0100
1000
0010
,
1000
0000
0001
1000
0001
0000
0010
0000
,
0100
0000
0010
0001
0010
0000
0001
1000
,
0001
0000
1000
0010
0100
0000
0010
0000
,
0100
0000
0001
1000
0001
0000
1000
0100
,
1000
0001
0100
0000
0001
1000
0100
0000
,
0010
0001
0100
0010
0110
0000
1010
0000
,
2002
0000
3003
0000
0001
0100
0001
0000
,
0100
0000
0010
0000
1000
0010
1000
0000
,
0100
0000
0010
0000
0001
0010
0001
0000
,
1000
1010
0110
0101
,
2002
0000
3003
0000
1000
0100
1000
0000
,
0100
0000
0010
0000
0001
0010
0001
0000
,
1000
1010
0101
0011
,
2200
0000
3300
0000
0001
0100
0010
0100
,
0220
0000
0330
0000
0010
1000
0010
0000
,
1000
0000
0010
0000
0100
0001
0100
0000
,
0001
0000
0010
0000
0100
1000
0100
0000
,
1000
1100
0011
0101
,
0010
0000
0000
0000
1010
0000
0000
0000
0000
0000
0000
1000
0000
0001
0000
1000
,
0000
0000
0100
0010
0100
0000
1000
0100
,
1000
1010
0110
0101
,
1001
0000
0001
1000
0001
0010
0100
1000
,
0001
0000
0000
0001
0100
0000
0000
0000
0100
0000
0001
0000
1000
0000
0000
0000
,
0100
0000
0001
0000
0100
0000
1000
0010
,
0100
0000
0000
0100
0001
0000
0000
0000
0001
0000
1000
0000
0100
0000
0000
0000
,
0001
0100
1100
0011
,
0001
0000
0000
0001
1000
0000
0000
0000
0010
0000
0100
0000
0010
0000
0000
0000
,
1000
0000
0000
1000
0001
0000
0000
0000
0010
0000
0100
0000
0010
0000
0000
0000
,
0001
0000
0000
0100
0001
0000
0000
0000
1000
0000
0000
0100
1000
0000
0000
0000
,
1010
0101
0011
0110
,
1100
0000
0000
0000
1000
0000
0000
0000
0001
0000
0000
0001
1000
0000
0000
0000
,
0010
0000
0000
0000
0100
0000
0000
0000
0010
0000
0000
0010
1000
0000
0000
0000
,
0100
0000
0000
0000
0010
0000
0000
0000
0001
0000
0000
0001
1000
0000
0000
0000
,
0010
0000
0100
0000
0001
0010
0100
0000
,
1000
0000
0000
0001
0100
0000
0000
0000
0100
0000
0000
0001
0010
0000
0000
0000
,
0100
0000
0000
1000
0001
0000
0000
0000
0001
0000
0000
1000
0010
0000
0000
0000
,
1000
0100
0010
0001
,
1000
0010
0100
0001
1000
0010
0100
0001
,
1000
0000
1000
0000
,
1000
0000
1000
0000
,
0001
0000
0001
0000
,
0001
0000
0001
0000
,
0011
0010
0001
0010
,
0001
0100
0001
0100
,
0010
1000
0010
0000
0010
0100
0010
0000
,
0100
0010
0100
0000
0020
0000
0000
0000
,
0030
0000
1001
0110
,
2002
0000
3003
0000
0001
0010
0001
0000
,
1000
0000
0100
0000
1000
0010
1000
0000
,
0001
0000
0100
0000
0001
1000
0001
0000
,
0010
0110
1100
1010
,
0220
0000
0330
0000
0010
1000
0010
0000
,
0100
0000
0001
0000
1000
0001
1000
0000
,
0100
1100
1010
0101
,
0022
0000
0033
0000
0001
0100
0010
0100
,
0220
0000
0330
0000
0100
0010
0100
0000
,
0001
0000
1000
0000
0001
0010
0001
0000
,
0010
0000
0100
0000
1000
0100
1000
0000
,
0010
0100
0101
1010
,
2002
0000
3003
0000
0001
0010
0001
0000
,
0100
0000
0001
0000
1000
0100
1000
0000
,
0010
1010
0101
1010
,
1100
0100
0010
0001
,
0100
0101
1010
0101
,
0011
0010
0100
1000
,
0010
0000
0000
0010
0000
0000
0000
0000
0100
0000
0000
0100
0000
0000
0000
0000
,
0001
0000
0000
0000
0010
0000
0000
0000
0100
0000
0000
1000
0000
0000
0000
0000
;

//---------------dance-single - C. Grab----------------
#NOTEDATA:;
#CHARTNAME:C. Grab;
#STEPSTYPE:dance-single;
#DESCRIPTION:C. Grab;
#CHARTSTYLE:;
#DIFFICULTY:Challenge;
#METER:10;
#RADARVALUES:0.561468,0.858055,0.146999,0.680835,0.866518,508.000000,489.000000,19.000000,88.000000,20.000000,0.000000,1.000000,0.000000,0.000000,0.561468,0.858055,0.146999,0.680835,0.866518,508.000000,489.000000,19.000000,88.000000,20.000000,0.000000,1.000000,0.000000,0.000000;
#CREDIT:C. Grab;
#NOTES:
0000
0000
0000
0000
,
0000
0000
0000
0000
,
0000
0000
0000
0000
,
0000
0000
0000
0000
,
0001
0000
0000
0000
0010
0000
0000
0000
0001
0000
0000
0000
0010
0000
0000
0000
0100
0000
0000
0000
0010
0000
0000
0000
0100
0000
0000
0000
0000
0000
1000
0000
0000
0010
0000
0000
0000
0000
0000
0010
0000
0000
0000
0000
0000
0000
0000
0000
,
0110
0000
0000
0000
1000
0000
1000
0000
1000
0000
0000
1000
0000
0000
1000
0000
,
1000
0000
0000
1000
0000
0000
1000
0000
0100
0000
0010
0001
0000
0000
0001
0000
,
0100
0000
0000
0000
0001
0000
0001
0000
0001
0000
0000
0001
0000
0000
0001
0000
,
0001
0000
0000
0000
0000
0000
0000
0000
0000
0001
0000
0000
0000
0000
0000
0000
0000
0000
1000
0000
0001
0000
1000
0000
0001
0000
0000
0000
0000
0000
0000
0000
0000
0010
0000
0000
0000
0000
0000
0000
0000
0000
0010
0000
0000
0000
0000
0000
,
1100
0000
0100
0000
1000
0000
1000
0000
1000
0000
0000
1000
0000
0000
1000
0000
,
1000
0000
0000
1000
0000
0000
1000
0000
0010
0000
0100
0010
0000
0000
0010
0000
,
1000
0000
1000
0000
0001
0000
0001
0000
0010
0000
0010
0000
0100
0000
0100
1000
,
0100
0000
0100
0010
0100
1000
0100
0010
0001
0010
0100
1000
0001
0100
0010
1000
,
0200
0000
0000
0000
0300
0000
1000
0000
0001
0100
0000
0010
0000
0001
0000
0020
,
0000
0000
0000
0030
0000
0000
0100
0000
0001
0010
0000
0001
0000
1000
0000
0200
,
0000
0000
0000
0000
0000
0000
0000
0300
0010
0001
0000
1000
0000
0001
0000
0200
,
0000
0000
0000
0000
0320
0000
0000
0000
0230
0000
0000
0000
0302
0000
0000
0003
,
1001
0000
0000
0000
1010
0000
1000
0000
0100
0010
0000
0100
0000
0001
0000
0200
,
0000
0000
0000
0300
0000
0000
1000
0000
0010
0100
0000
0001
0000
1000
0000
0002
,
0000
0000
0000
0000
0000
0000
0003
0000
0020
0000
0000
0000
0000
0000
0000
0000
0230
0000
0000
0000
0000
0000
0000
0000
0320
0000
0000
0000
0000
0000
0031
1000
,
0200
0000
0000
0000
0000
0000
0000
0000
0000
0000
0000
0000
0000
0000
0000
0300
0000
0000
0100
0000
0000
1000
0000
0000
0001
0000
0000
0000
0001
0000
0000
0000
0001
0000
0000
0000
1000
0000
0000
0000
1000
0000
0000
0000
1000
0000
0000
0000
,
1001
0000
0000
0000
0000
0000
0001
0000
1000
0010
0000
0100
0000
1000
0000
0200
,
0000
0000
0000
0300
0000
0000
0010
0000
1000
0100
0000
1000
0000
0001
0000
0020
,
0000
0000
0000
0000
0000
0000
0000
0030
0100
0010
0000
0001
0000
1000
0000
0020
,
0000
0000
0000
0000
0230
0000
0000
0000
0320
0000
0000
0000
2030
0000
0000
3000
,
0100
0000
0000
0000
0100
0000
0000
0000
0100
0000
0000
0000
0010
0000
0000
0000
0000
0000
0001
0000
0000
0000
0000
0000
1000
0000
0000
0010
0000
0000
0000
0000
0000
0110
0000
0000
0000
0000
0000
0101
0000
0000
0000
0000
0000
1001
0000
0000
,
0000
0000
0000
1000
0100
0000
0010
0000
0001
0100
0000
0010
0000
1000
0000
0020
,
0000
0000
0000
0000
0000
0000
0000
0000
0230
0000
0000
0000
0000
0000
0000
0000
0302
0000
0000
0000
0000
0000
0000
0000
0023
0000
0000
0000
0000
0000
0130
1000
,
0002
0000
0000
0000
0000
0000
0000
0000
2003
0000
0000
0000
3020
0000
0000
0030
,
0220
0000
0000
0000
0000
0000
0000
0330
0100
0000
0010
0000
1000
0001
0000
0020
,
M000
0000
0M00
0000
000M
0000
M000
0000
0M00
0000
000M
0000
M000
0000
0M00
0000
000M
0000
M000
0000
0M00
0000
000M
0000
M030
0000
0M00
0000
000M
0000
0010
0000
0000
0100
0000
0000
1000
0000
0000
0100
0000
0000
0010
0000
0000
0001
0000
0000
,
0200
0000
0000
0300
0000
0000
0010
0000
0100
0000
0001
0000
0010
0100
0000
2000
,
0000
0000
0000
0000
0000
0000
0000
0000
0000
0000
0000
0000
0000
0000
3100
0010
0002
0000
0000
0000
0000
0000
0000
0000
0203
0000
0000
0000
0000
0000
0301
1000
,
0200
0000
0320
0032
,
2003
0000
3020
0032
,
0023
0000
0000
0000
0000
0000
0000
0000
0000
0000
0000
0030
0000
0000
1000
0100
,
2000
0000
0000
0000
3200
0000
0000
0000
0320
0000
0000
0000
0032
0000
0000
0003
,
1001
0000
1000
0010
1000
0000
0001
0100
0010
0100
0010
1000
0001
0000
1000
0100
,
1000
0000
0001
0010
0001
0000
0100
0010
0100
0001
0010
0100
0010
0000
0100
1000
,
0M00
0000
0000
1000
0010
0000
0100
0001
0M00
0000
0000
0001
0010
0000
0001
0100
,
000M
0000
0000
0100
0010
0100
0001
0100
0010
1000
0100
1000
0010
0100
0001
0010
,
0100
1000
0010
1000
0100
0000
0010
0000
0001
0100
0001
0000
1000
0010
1000
0001
,
0010
0100
1000
0001
0100
0000
0010
0100
0001
0010
0100
0010
0001
1000
0100
0010
,
0001
1000
0001
0100
0010
0000
1000
0000
0001
0000
1000
0100
0010
0000
0001
0000
,
1000
0000
M000
0001
1000
0000
0010
0100
00M0
0001
0000
0001
1000
0000
0100
0000
,
0210
0000
0300
0000
0010
0000
0010
0000
0010
0000
0000
0010
0000
0000
0010
0000
,
0010
0000
0000
0010
0000
0000
0010
0000
0001
0000
0100
0010
0000
0000
0010
0000
,
0100
0000
0000
0000
0001
0000
0001
0000
0001
0000
0000
0001
0000
0000
0001
0000
,
0001
0000
0000
0000
0000
0000
0000
0000
0000
0001
0000
0000
0000
0000
0000
0000
0000
0000
0010
0000
0100
0000
0010
0000
0100
0000
0000
0000
0000
0000
0000
0000
0000
1000
0000
0000
0000
0000
0000
0000
0000
0000
1000
0000
0000
0000
0000
0000
,
1010
0000
0000
1000
0010
0000
0010
0000
0010
0000
0100
0010
0000
0000
0010
0000
,
0010
0000
0100
0010
0000
0000
0010
0000
1000
0000
0001
0010
0000
0010
0000
0000
,
0100
0000
1000
0000
0100
0000
0010
0000
0000
0010
0000
0000
0001
0000
0100
0000
0010
0000
1000
0000
0000
0001
0100
0001
,
0100
0000
0000
0000
0010
0000
0000
0000
1000
0000
0000
0000
0100
0000
0000
0000
0010
0000
0000
0000
0100
0000
0000
0000
1000
0000
0000
0010
0000
0000
0100
0000
0000
0010
0000
0000
1000
0000
0000
0001
0000
0000
0010
0000
0000
0100
0000
0000
,
4000
0000
0000
0000
0000
0000
0000
0000
0000
0000
0000
0000
0000
0000
3100
0010
0002
0000
0000
0000
0000
0000
0000
0000
0203
0000
0000
0000
0000
0000
0000
0000
,
0320
0000
0000
0000
0030
0000
1000
0000
0001
0010
0000
0100
0000
0001
0000
0200
,
0000
0000
0000
0300
0000
0000
0010
0000
0001
0100
0000
0001
0000
1000
0000
0020
,
0000
0000
0000
0000
0000
0000
0000
0030
0100
0001
0000
1000
0000
0001
0000
0020
,
0000
0000
0000
0000
0230
0000
0000
0000
0320
0000
0000
0000
0032
0000
0000
0003
,
1001
0000
0000
0000
1000
0000
0001
0000
0100
0010
0000
0100
0000
1000
0000
0200
,
0000
0000
0000
0300
0000
0000
0001
0000
0010
0100
0000
1000
0000
0001
0000
2000
,
0000
0000
0000
0000
0000
0000
3000
0000
0200
0000
0000
0000
0000
0000
0000
0000
0320
0000
0000
0000
0000
0000
0000
0000
0032
0000
0000
0000
0000
0000
1003
0100
,
0020
0000
0000
0000
0000
0000
0000
0000
0000
0000
0000
0000
0000
0000
0000
0030
0000
0000
0100
0000
0000
1000
0000
0000
0001
0000
0000
0000
0001
0000
0000
0000
0001
0000
0000
0000
0100
0000
0000
0000
0000
0000
0010
0000
0000
0000
0000
0000
,
0220
0000
0000
0000
0330
0000
0100
0000
0001
0010
0000
0100
0000
0001
0000
0200
,
0000
0000
0000
0300
0000
0000
0010
0000
0001
0100
0000
0010
0000
0100
0000
0002
,
0000
0000
0000
0000
0000
0000
0000
0003
0010
0100
0000
1000
0000
0001
0000
0200
,
0000
0000
0000
0000
0300
0000
0010
0000
0200
0000
0000
0000
0302
0000
0000
0003
,
0011
0000
0000
0000
0010
0000
0001
0000
0100
0010
0000
0100
0000
1000
0000
0200
,
0000
0000
0000
0300
0000
0000
0001
0000
0010
0100
0000
1000
0000
0100
0000
0020
,
0000
0000
0000
0000
0000
0000
0030
0000
0002
0000
0000
0000
0000
0000
0000
0000
2003
0000
0000
0000
0000
0000
0000
0000
3020
0000
0000
0000
0000
0000
0130
0010
,
2000
0000
0000
0000
0000
0000
0000
0000
3000
0000
0000
0000
0002
0000
0203
0300
,
0210
0000
0000
0000
0000
0000
0000
0000
0320
0000
0000
0000
0000
0000
0000
0000
2030
0000
0000
0000
0000
0000
0000
0000
3002
0000
0000
0000
0000
0000
0013
0100
,
2000
0000
0000
0000
3000
0000
0002
0203
,
0310
0000
0000
2200
0000
0000
0000
3300
0010
0000
0000
0202
0000
0000
0000
0303
,
0000
0000
0000
0000
0010
0000
0000
0000
0010
0000
0000
0000
0010
0000
0000
0000
0100
0000
0000
0000
0010
0000
0000
0000
0010
0000
0000
0000
0000
0000
0000
0000
0000
2002
0000
0000
0000
0000
0000
0000
0000
0000
0000
0000
0000
3003
0000
0000
;

//---------------dance-single - C. Grab----------------
#NOTEDATA:;
#CHARTNAME:C. Grab;
#STEPSTYPE:dance-single;
#DESCRIPTION:C. Grab;
#CHARTSTYLE:;
#DIFFICULTY:Easy;
#METER:4;
#RADARVALUES:0.259734,0.285051,0.100578,0.549310,0.023210,235.000000,222.000000,13.000000,71.000000,0.000000,0.000000,2.000000,0.000000,0.000000,0.259734,0.285051,0.100578,0.549310,0.023210,235.000000,222.000000,13.000000,71.000000,0.000000,0.000000,2.000000,0.000000,0.000000;
#CREDIT:C. Grab;
#NOTES:
0000
0000
0000
0000
,
0000
0000
0000
0000
,
0000
0000
0000
0000
,
1000
0000
1000
0000
,
0001
0010
0100
0010
,
0011
0000
0001
0000
,
1000
0000
0010
0100
,
0010
0000
1000
0000
,
0010
0000
0100
0001
,
0010
0000
0100
0000
,
1000
0000
0010
0001
,
1000
0001
1000
0001
,
0100
0010
0100
0010
,
1001
1000
0100
0010
,
0002
0003
0001
0100
,
0020
0030
0100
0010
,
2000
3200
2300
3002
,
0103
0110
0010
1000
,
0002
0003
0001
0010
,
0200
2300
3020
0230
,
0302
0000
0003
0000
0002
0000
0023
0030
,
1100
1000
0010
0100
,
0020
0030
0010
1000
,
0200
0300
0010
0100
,
2000
3002
0203
0320
,
1030
0000
0000
0000
0001
0000
0000
0000
0000
0000
0000
0010
0000
0000
0000
0010
,
0000
0001
1000
0010
,
0200
0320
2030
3200
,
0320
0000
0031
1000
,
1001
0000
1000
0001
,
0200
0000
0300
0100
,
0010
0000
1000
0001
,
0020
0000
0230
2300
,
3002
0000
0203
0320
,
2030
0000
3200
0302
,
0203
0000
0000
0300
,
2000
0000
3020
0000
0230
0000
0302
0003
,
1001
0000
1000
0000
,
0001
0000
0010
0000
,
0001
0000
1000
0000
,
0010
0100
0010
0100
,
0110
0010
0000
1000
,
0000
0001
0000
0010
,
0000
0100
0000
0010
,
0001
1000
0001
1000
,
1010
0000
0010
0000
,
0010
0000
0100
0001
,
0010
0000
0010
0000
,
0010
0001
0100
0010
,
0100
0001
0000
1000
,
0000
0001
0000
0010
,
0100
1000
0100
1000
,
0001
0010
0001
1000
,
0040
0000
0130
0010
,
1001
1000
0100
0010
,
0200
0300
1000
0010
,
0200
0300
0100
0010
,
2000
0000
3002
0000
0023
0000
0230
0300
,
1100
1000
0001
0100
,
0020
0030
0100
0001
,
2000
3200
0320
0032
,
0203
0000
0300
0000
0020
0000
2030
3000
,
1001
0001
0010
0100
,
0020
0030
0001
1000
,
0200
0300
0100
1000
,
0020
0000
0030
0000
0200
0000
0320
0030
,
1010
1000
0001
0010
,
0200
0300
0010
0001
,
0200
0320
2030
3200
,
0320
0000
0030
0100
,
0020
0032
0203
0320
,
2030
0000
3000
0002
,
0103
0000
0000
0100
0000
0000
0000
0000
0010
0000
0000
0010
0000
0000
0000
0000
,
0000
0000
0000
0000
4000
0000
0000
0000
0000
0000
0000
0000
0000
0000
0000
0000
0000
0000
0000
0000
0000
0000
0000
0000
3001
0000
0000
0000
0000
0000
0000
0000
0000
1001
0000
0000
0000
0000
0000
0000
0000
0000
0000
0000
0000
0000
0000
0000
;
