#VERSION:0.83;
#TITLE:Pursuit of Happiness;
#SUBTITLE:(Steve Aoki Remix);
#ARTIST:Kid Cudi;
#TITLETRANSLIT:;
#SUBTITLETRANSLIT:;
#ARTISTTRANSLIT:;
#GENRE:;
#ORIGIN:;
#CREDIT:mf32892;
#BANNER:[You Won't See This in DDR V] - Pursuit of Happiness (Steve Aoki Remix).png;
#BACKGROUND:[You Won't See This in DDR V] - Pursuit of Happiness (Steve Aoki Remix).jpg;
#PREVIEWVID:;
#JACKET:[You Won't See This in DDR V] - Pursuit of Happiness (Steve Aoki Remix)-jacket.png;
#CDIMAGE:;
#DISCIMAGE:;
#LYRICSPATH:;
#CDTITLE:;
#MUSIC:[You Won't See This in DDR V] - Pursuit of Happiness (Steve Aoki Remix).ogg;
#OFFSET:0.626540;
#SAMPLESTART:31.206568;
#SAMPLELENGTH:14.999998;
#SELECTABLE:YES;
#BPMS:0.000=128.000,
194.000=129.000,
196.000=128.000;
#STOPS:;
#DELAYS:;
#WARPS:;
#TIMESIGNATURES:0.000=4=4;
#TICKCOUNTS:0.000=4;
#COMBOS:0.000=1;
#SPEEDS:0.000=1.000=0.000=0;
#SCROLLS:0.000=1.000,
194.000=0.000,
195.000=1.000,
211.000=2.000,
211.250=0.000,
211.500=1.000;
#FAKES:;
#LABELS:0.000=Song Start;
#BGCHANGES:;
#KEYSOUNDS:;
#ATTACKS:
;

//---------------dance-single - ----------------
#NOTEDATA:;
#CHARTNAME:;
#STEPSTYPE:dance-single;
#DESCRIPTION:;
#CHARTSTYLE:;
#DIFFICULTY:Hard;
#METER:8;
#RADARVALUES:0.429946,0.630693,0.203592,0.265555,0.203592,340.000000,317.000000,23.000000,30.000000,0.000000,0.000000,0.000000,0.000000,0.000000,0.429946,0.630693,0.203592,0.265555,0.203592,340.000000,317.000000,23.000000,30.000000,0.000000,0.000000,0.000000,0.000000,0.000000;
#CREDIT:;
#NOTES:
// measure 0
0000
0000
0000
0000
,  // measure 1
0000
0000
0000
0000
,  // measure 2
0000
0000
0000
0000
,  // measure 3
0000
0000
0000
0000
,  // measure 4
0000
0000
0000
0000
,  // measure 5
1000
0010
0100
0001
0010
0100
0010
0001
,  // measure 6
0200
0010
1000
0302
,  // measure 7
2003
0000
0000
3100
0010
0000
0002
0000
1000
0000
0000
0000
0203
0000
0000
0000
,  // measure 8
0320
1000
0100
1030
,  // measure 9
0001
1000
0100
0000
1000
0001
0010
0000
,  // measure 10
0001
0100
0010
0000
1000
0100
0010
0000
,  // measure 11
0001
0010
0100
0000
0010
0001
1000
0000
,  // measure 12
0001
0100
0010
0000
1000
0001
1000
0000
,  // measure 13
0001
0000
0010
0000
0100
0000
0000
0000
1000
0000
0001
1000
0001
0000
0000
0000
,  // measure 14
1000
0100
0010
0010
0001
0100
0010
0000
,  // measure 15
1000
0000
0010
0100
0010
0000
0100
0000
0001
0000
1000
0000
0100
0000
0000
0000
,  // measure 16
0010
0001
0010
0000
0001
0000
0000
0000
0010
0000
0100
0000
1000
0000
0000
0000
,  // measure 17
0001
0100
0010
0100
1000
0100
0010
0000
,  // measure 18
1000
0100
1000
0000
0001
0000
0010
0000
0100
0000
0010
0000
1000
0000
0000
0000
,  // measure 19
0010
0001
0100
0001
0010
0100
0010
0000
,  // measure 20
0100
0000
1000
0001
1000
0000
0000
0000
1010
0000
0000
0000
1001
0000
0000
0000
,  // measure 21
0010
0000
0001
1000
0001
0000
0000
0000
0101
0000
0000
0000
1001
0000
0000
0000
,  // measure 22
0100
0000
1000
0001
1000
0000
0000
0000
1100
0000
0000
0000
1001
0000
0000
0000
,  // measure 23
0101
1001
1100
1001
,  // measure 24
0011
1001
1010
1001
,  // measure 25
0002
0000
2003
0000
,  // measure 26
3020
0000
0230
0000
,  // measure 27
0302
0000
2003
0000
,  // measure 28
3200
0000
0320
0000
,  // measure 29
0032
0000
2003
0000
,  // measure 30
3020
0000
0230
0000
,  // measure 31
2300
0000
3200
0000
,  // measure 32
0302
0000
0023
0000
,  // measure 33
0130
0000
0000
0000
0000
1000
0000
0000
0100
0000
0000
0000
0000
0010
0000
0000
0001
0000
0000
0000
0000
1000
0000
0000
0001
0000
0000
0000
0000
0100
0000
0000
,  // measure 34
0001
0000
0000
0000
0000
0010
0000
0000
0100
0000
0000
0000
0000
0010
0000
0000
0001
0000
0000
0000
0000
0100
0000
0000
0010
0000
0000
0000
0000
0010
0000
0000
,  // measure 35
1000
0000
0000
0000
0000
0100
0000
0000
1000
0000
0000
0000
0000
0001
0000
0000
0010
0000
0000
0000
0000
0100
0000
0000
0010
0000
0000
0000
0000
0001
0000
0000
,  // measure 36
0100
0000
0000
0000
0000
0010
0000
0000
1000
0000
0000
0000
0000
0001
0000
0000
1000
0000
0000
0000
0000
0100
0000
0000
0020
0000
0000
0000
0000
0000
0000
0000
,  // measure 37
0031
0000
0000
0000
0000
0100
0000
0000
0010
0000
0000
0000
0000
0100
0000
0000
0001
0000
0000
0000
0000
1000
0000
0000
0001
0000
0000
0000
0000
0010
0000
0000
,  // measure 38
0100
0000
0000
0000
0000
1000
0000
0000
0100
0000
0000
0000
0000
0010
0000
0000
0001
0000
0000
0000
0000
1000
0000
0000
0010
0000
0000
0000
0000
0010
0000
0000
,  // measure 39
0100
0000
0000
0000
0000
0001
0000
0000
1000
0000
0000
0000
0000
0001
0000
0000
0010
0000
0000
0000
0000
0001
0000
0000
0010
0000
0000
0000
0000
0100
0000
0000
,  // measure 40
1000
0000
0000
0000
0000
0010
0000
0000
0100
0000
0000
0000
0000
0010
0000
0000
1000
0000
0000
0000
0000
0001
0000
0000
2000
0000
0000
0000
0000
0000
0000
0000
,  // measure 41
3001
0010
0100
0010
0001
0010
0100
0000
,  // measure 42
2100
3001
0102
1003
,  // measure 43
1000
0010
0100
0010
1000
0010
0100
0000
,  // measure 44
0102
1003
2100
3001
,  // measure 45
0010
0100
0010
0001
0100
0010
1000
0001
,  // measure 46
2001
0000
3100
1000
1001
0001
0100
0000
,  // measure 47
0010
1000
0100
0000
1100
0000
0110
0000
,  // measure 48
0001
1000
0010
0000
0110
0000
0000
0000
,  // measure 49
1000
0100
1000
0001
1000
0010
0100
0010
,  // measure 50
1000
0100
0010
0001
0100
0010
0100
0001
,  // measure 51
0001
0100
0001
1000
0001
0010
0100
0010
,  // measure 52
0001
0100
0010
1000
0100
1000
0001
0000
,  // measure 53
1000
0010
0100
0010
1000
0100
0010
0001
,  // measure 54
0100
0010
0100
0001
0010
0100
1000
0001
,  // measure 55
1000
0000
0100
1000
0100
0000
0010
0000
0001
0000
0010
0001
0010
0000
0001
0000
,  // measure 56
1000
0001
1000
0001
1000
0001
1000
0001
1000
0001
1000
0001
2000
0000
0000
0000
,  // measure 57
3001
0000
0000
0000
;

//---------------dance-single - ----------------
#NOTEDATA:;
#CHARTNAME:;
#STEPSTYPE:dance-single;
#DESCRIPTION:;
#CHARTSTYLE:;
#DIFFICULTY:Medium;
#METER:5;
#RADARVALUES:0.311079,0.353188,0.150481,0.380629,0.035407,246.000000,229.000000,17.000000,43.000000,0.000000,0.000000,0.000000,0.000000,0.000000,0.311079,0.353188,0.150481,0.380629,0.035407,246.000000,229.000000,17.000000,43.000000,0.000000,0.000000,0.000000,0.000000,0.000000;
#CREDIT:;
#NOTES:
0000
0000
0000
0000
,
0000
0000
0000
0000
,
0000
0000
0000
0000
,
0000
0000
0000
0000
,
0000
0000
0000
0000
,
1000
1000
0001
0001
,
0020
0100
0100
0230
,
2300
0001
3002
0100
,
0203
0010
0010
0310
,
2000
3100
0002
0103
,
2000
0010
0001
3100
,
0002
0013
2000
3010
,
0002
0100
1000
0013
,
0002
0103
2000
3100
,
0020
0100
0001
0130
,
2000
3100
0002
0103
,
0020
0100
1000
0031
,
1000
0100
1000
0000
0100
0000
0100
0000
,
0010
0001
0010
0000
0001
0000
0001
0000
,
0100
0001
0100
0000
0010
0000
0010
0000
,
1000
0001
1000
0000
0001
0000
0001
0000
,
0010
0100
0010
0000
0100
0000
0100
0000
,
1000
0001
1000
0000
0010
0000
0010
0000
,
0100
0100
0001
0001
,
1000
1100
0001
0101
,
2000
0000
3002
0000
,
0023
0000
0230
0000
,
2300
0000
3020
0000
,
0230
0000
0302
0000
,
2003
0000
3002
0000
,
0023
0000
0230
0000
,
2300
0000
3020
0000
,
0230
0000
0302
0000
,
1003
0100
0010
1001
,
0001
0100
0010
1001
,
1000
0000
0000
0000
0000
0100
0000
0000
1000
0000
0000
0000
0000
0000
0000
0000
0010
0000
0000
0000
0000
0000
0000
0000
1001
0000
0000
0000
0000
0000
0000
0000
,
0001
0000
0000
0000
0000
0100
0000
0000
0001
0000
0000
0000
0000
0000
0000
0000
0010
0000
0000
0000
0000
0000
0000
0000
2002
0000
0000
0000
3003
0000
0000
0000
,
1000
0000
0000
0000
0000
0100
0000
0000
1000
0000
0000
0000
0000
0000
0000
0000
0010
0000
0000
0000
0000
0000
0000
0000
0101
0000
0000
0000
0000
0000
0000
0000
,
0001
0000
0000
0000
0000
0010
0000
0000
0001
0000
0000
0000
0000
0000
0000
0000
0010
0000
0000
0000
0000
0000
0000
0000
1100
0000
0000
0000
0000
0000
0000
0000
,
0001
0000
0000
0000
0000
1000
0000
0000
0001
0000
0000
0000
0000
1000
0000
0000
0001
0000
0000
0000
0000
0000
0000
0000
0001
0000
0000
0000
0000
0000
0000
0000
,
1000
0000
0000
0000
0000
0100
0000
0000
1000
0000
0000
0000
0000
0100
0000
0000
2000
0000
0000
0000
0000
0000
0000
0000
3001
0000
0000
0000
0000
0000
0000
0000
,
1000
0100
1000
0001
1000
0000
0010
0000
,
0102
1003
2100
3001
,
0001
0010
0001
1000
0001
0000
0010
0000
,
2100
3001
0102
1003
,
0001
0100
0010
0100
0001
0000
1000
0000
,
2001
3100
0210
1300
,
0001
0100
0001
0000
1000
0000
1001
0000
,
0010
0100
0010
0000
0110
0000
0000
0000
,
1000
0000
0001
0100
0001
0000
1000
0100
,
1000
0000
0001
0010
0001
0000
0100
0010
,
1000
0000
0001
0010
0001
0000
0100
0010
,
0100
0000
0010
1000
0001
0010
0100
0000
,
1000
0000
0100
1000
0001
0000
0100
0001
,
0100
0000
0010
1000
0001
0000
0010
0100
,
0010
0000
0100
1000
0001
0000
1000
0010
,
0100
0000
0110
0000
0001
1000
0002
0000
,
1003
0000
0000
0000
;

//---------------dance-single - ----------------
#NOTEDATA:;
#CHARTNAME:;
#STEPSTYPE:dance-single;
#DESCRIPTION:;
#CHARTSTYLE:;
#DIFFICULTY:Easy;
#METER:3;
#RADARVALUES:0.202328,0.252277,0.008852,0.212444,0.000000,160.000000,159.000000,1.000000,24.000000,0.000000,0.000000,0.000000,0.000000,0.000000,0.202328,0.252277,0.008852,0.212444,0.000000,160.000000,159.000000,1.000000,24.000000,0.000000,0.000000,0.000000,0.000000,0.000000;
#CREDIT:;
#NOTES:
0000
0000
0000
0000
,
0000
0000
0000
0000
,
0000
0000
0000
0000
,
0000
0000
0000
0000
,
0000
0000
0000
0000
,
1000
0100
1000
0000
,
0001
0100
0001
0000
,
0010
0100
0010
0000
,
0100
1000
0100
0000
,
1000
0100
0000
1000
,
0000
0001
0000
0100
,
0001
1000
0000
0100
,
0000
0010
0000
0001
,
1000
0010
0000
0100
,
0000
0001
0000
1000
,
0001
0010
0000
0100
,
0000
1000
0000
0001
,
1000
1000
0010
0010
,
0100
0001
1000
0000
,
0001
0001
0010
0010
,
0100
1000
0001
0000
,
1000
0100
0001
0000
,
0001
0100
1000
0000
,
0001
0100
1000
0100
,
0001
0100
1000
0100
,
0002
0000
0023
0000
,
0230
0000
2300
0000
,
3002
0000
0203
0000
,
0320
0000
2030
0000
,
3002
0000
0023
0000
,
0230
0000
2300
0000
,
3002
0000
0203
0000
,
0320
0000
2030
0000
,
3001
0001
1000
1000
,
0001
1000
0001
0000
,
0010
0010
0100
0100
,
0010
0100
0010
0000
,
0100
0100
1000
1000
,
0001
1000
0100
0000
,
0010
0010
0001
0001
,
1000
0001
0200
0300
,
0001
0001
0010
0100
,
2000
3000
0002
0003
,
1000
1000
0010
0100
,
0002
0003
2000
3000
,
0001
0010
1000
0010
,
0002
0003
2000
3000
,
0001
0100
0010
0100
,
0002
0000
1003
0000
,
1000
1000
0001
0001
,
0010
0010
0100
0000
,
1000
1000
0010
0010
,
0100
0100
0001
1000
,
0001
0001
0010
0010
,
0100
0100
1000
0000
,
0001
0001
1000
1000
,
0010
0100
0010
0100
,
1001
0000
0000
0000
;
