#TITLE:Chop Suey;
#SUBTITLE:;
#ARTIST:System of a Down;
#TITLETRANSLIT:;
#SUBTITLETRANSLIT:;
#ARTISTTRANSLIT:;
#GENRE:;
#CREDIT:mf32892;
#BANNER:[You Won't See This in DDR V] - Chop Suey.png;
#BACKGROUND:[You Won't See This in DDR V] - Chop Suey-bg.png;
#LYRICSPATH:;
#CDTITLE:;
#MUSIC:[You Won't See This in DDR V] - Chop Suey.ogg;
#OFFSET:1.550555;
#SAMPLESTART:30.150000;
#SAMPLELENGTH:15.000000;
#LASTBEATHINT:0.560500;
#SELECTABLE:YES;
#DISPLAYBPM:62.000000:262.000000;
#BPMS:0.000000=62.994999
,11.500000=62.999996
,12.000000=61.970001
,13.500000=65.000000
,14.000000=63.499996
,16.000000=64.565002
,17.500000=64.995003
,18.000000=129.990005
,22.000000=128.990005
,26.000000=130.550003
,34.000000=131.559998
,45.000000=130.990005
,46.000000=130.554993
,50.000000=259.000000
,82.000000=255.979980
,88.000000=249.981995
,94.500000=253.999985
,100.000000=257.980011
,106.000000=251.139999
,107.000000=253.979980
,114.000000=247.981995
,122.000000=251.981995
,134.000000=250.982010
,138.000000=118.000000
,139.000000=119.530998
,140.000000=121.410995
,144.000000=123.990997
,145.000000=124.091003
,146.000000=125.999992
,148.000000=126.500000
,150.000000=127.410004
,154.000000=126.589996
,158.000000=125.990997
,166.000000=127.989990
,170.000000=129.070007
,178.000000=131.229996
,181.500000=131.009995
,184.000000=123.130005
,186.000000=129.570007
,190.000000=128.990005
,198.000000=63.757996
,199.000000=62.494999
,199.500000=61.494999
,200.000000=31.628000
,200.500000=63.256001
,201.000000=126.511002
,202.000000=262.000000
,218.000000=256.000000
,229.000000=258.000000
,233.000000=271.231995
,234.000000=135.636002
,235.000000=129.014999
,240.000000=127.999008
,248.000000=124.014000
,250.000000=62.084999
,251.000000=62.804996
,252.000000=63.215004
,254.000000=64.995003
,256.000000=64.584999
,258.000000=129.169998
,260.000000=130.009995
,269.000000=134.990005
,273.000000=130.669998
,280.000000=131.190002
,282.000000=133.000000
,285.000000=130.610001
,286.000000=131.990005
,288.000000=121.990997
,289.000000=114.000000
;
#STOPS:82.500000=0.469000,
88.500000=0.500000,
94.500000=0.480000,
100.500000=0.467000
;
#BGCHANGES:;
#KEYSOUNDS:;
#ATTACKS:;

//---------------dance-single - ----------------
#NOTES:
     dance-single:
     :
     Hard:
     10:
     0.545807,0.692215,0.104064,0.245295,0.200696,514.000000,500.000000,14.000000,33.000000,0.000000,0.000000,0.545807,0.692215,0.104064,0.245295,0.200696,514.000000,500.000000,14.000000,33.000000,0.000000,0.000000:
// measure 0
0000
0000
0000
0000
,  // measure 1
0000
0000
0000
0000
,  // measure 2
0000
0000
0000
0000
0000
0000
0000
0000
0000
0000
0000
0000
0000
0000
0000
0000
1000
0000
0000
0100
0000
0000
0001
0000
0000
0100
0000
0000
1000
0000
0001
0000
,  // measure 3
0010
0000
0000
1000
0000
0000
0010
0000
0000
0001
0000
0000
0100
0000
1000
0000
0001
0000
0000
0010
0000
0000
1000
0000
0000
0010
0000
0000
0100
0000
0001
0000
,  // measure 4
0010
0000
0000
1000
0000
0000
0010
0000
0000
0001
0000
0000
0010
0000
0100
0000
1000
0000
0000
0000
0000
0000
0001
0000
1000
0000
0100
0000
1000
0000
0000
0000
,  // measure 5
0100
0010
0001
1000
0001
0000
1000
0000
0001
0000
0000
0100
0010
1000
0001
0000
,  // measure 6
1000
0100
0010
0100
1000
0000
0001
0000
0010
0000
0000
0100
0010
0001
1000
0000
,  // measure 7
0001
0100
0010
0100
0001
0000
0010
0000
0100
0000
0000
1000
0001
1000
0010
0000
,  // measure 8
0100
0001
1000
0001
0010
0000
0100
0000
1000
0000
0000
0010
1000
0010
0100
0000
,  // measure 9
0010
0100
0001
1000
0010
0000
0100
0000
0001
0000
0000
0010
0100
0010
0001
0000
,  // measure 10
0100
0010
1000
0100
0010
0000
0001
0000
1000
0000
0000
0001
0010
0100
1000
0000
,  // measure 11
0100
0010
0001
0100
0001
0000
0000
0000
1000
0000
1000
0000
0010
0000
0010
0000
,  // measure 12
0100
0100
0010
1001
1000
0001
1000
0001
,  // measure 13
1000
0001
1000
0001
0010
0100
0010
0100
,  // measure 14
0010
0100
0010
0100
1000
0100
1000
0100
,  // measure 15
1000
0100
1000
0100
0010
0001
0010
0001
,  // measure 16
0010
0001
0010
0001
1000
0010
1000
0010
,  // measure 17
1000
0010
1000
0010
0100
0001
0100
0001
,  // measure 18
0100
0001
0100
0001
1000
0001
1000
0001
,  // measure 19
1000
0001
1000
0001
1000
0100
1000
0100
,  // measure 20
1000
0100
1000
0100
1000
0001
0000
0000
,  // measure 21
1000
0100
1000
0001
1000
0100
1000
0001
,  // measure 22
1000
0010
0000
0000
0001
0100
0001
1000
,  // measure 23
0001
0010
0001
1000
0001
0100
0000
0000
,  // measure 24
0001
1000
0100
1000
0001
1000
0100
1000
,  // measure 25
0001
0010
0000
0000
0001
0100
0001
1000
,  // measure 26
0001
0010
0100
1000
0001
1000
0000
1000
,  // measure 27
0001
0010
0100
0000
1000
0100
1000
0001
,  // measure 28
1000
0010
0100
0001
1000
0100
0000
1000
,  // measure 29
0001
0010
0100
0000
0010
0001
1000
0001
,  // measure 30
0100
0010
1000
0100
0010
0001
0000
1000
,  // measure 31
0001
0100
0010
0000
1000
0010
1000
0001
,  // measure 32
1000
0100
0010
0001
1000
0010
0000
0100
,  // measure 33
0001
0100
0010
0000
1000
0000
0100
0000
,  // measure 34
0001
0100
2000
0100
,  // measure 35
3001
0010
0100
1000
0002
0000
0100
0000
,  // measure 36
1003
0010
0100
0001
0020
0000
0100
0000
,  // measure 37
1030
0000
0010
0000
0001
0000
1000
0000
0001
0000
0000
0100
0000
0000
0010
0000
,  // measure 38
1000
0001
0020
0001
,  // measure 39
0130
0001
0100
1000
0020
0000
0100
0000
,  // measure 40
0031
0010
1000
0100
0020
0000
0001
0000
,  // measure 41
0130
1000
0010
1000
0001
0010
0000
0100
,  // measure 42
1000
0010
0200
0010
,  // measure 43
1000
1000
0000
0001
0302
0000
0010
0000
,  // measure 44
1000
0000
0000
0103
0200
0000
1000
0000
,  // measure 45
0001
0000
0001
0000
0000
0000
0010
0000
0310
0000
0000
1000
0000
0000
0001
0000
,  // measure 46
0010
0100
2000
0001
,  // measure 47
0100
0100
0000
0010
3020
0000
0100
0000
,  // measure 48
0001
0000
0000
0130
0200
0000
1000
0000
,  // measure 49
0010
0000
0000
0000
0010
0000
0000
0000
0000
0000
0000
0000
0001
0000
0000
0000
0301
0000
0000
0010
0000
0000
0100
0000
1000
0000
0000
0000
0001
0000
0000
0000
,  // measure 50
2000
0000
0000
0000
3001
0010
0100
0010
,  // measure 51
0001
0010
0100
0000
1000
0100
0010
0100
,  // measure 52
1000
0001
0010
0000
0001
0100
0010
0100
,  // measure 53
0001
0100
0010
0000
1000
0010
0100
0010
,  // measure 54
1000
0001
0010
0000
0100
0010
0100
1000
,  // measure 55
0100
0010
0100
0000
1000
0100
1000
0001
,  // measure 56
1000
0010
0100
0000
0001
0100
0010
0100
,  // measure 57
0001
0010
0100
0000
0010
0100
1000
0100
,  // measure 58
0010
0001
1000
0000
2100
0000
3001
0000
,  // measure 59
0021
0000
0000
0130
1000
0000
0010
0000
0210
0000
0000
0000
0301
0000
0000
0000
,  // measure 60
2001
0000
0000
3100
0010
0000
0001
0000
0201
0000
0000
0000
0310
0000
0000
0000
,  // measure 61
1002
0000
0000
0013
0100
0000
1000
0000
1020
0000
0000
0000
0130
0000
0000
0000
,  // measure 62
0102
0000
0000
1003
0001
0000
0010
0000
0120
0000
1000
0000
0002
0000
0033
0000
,  // measure 63
2100
0100
3002
0013
0201
0010
2000
3300
,  // measure 64
1200
0010
0002
0303
1000
0100
1000
0001
,  // measure 65
0001
0010
1000
0010
0001
0100
0001
1000
,  // measure 66
0020
0000
0130
0001
1000
0100
0010
0001
,  // measure 67
0001
0000
0100
0000
1000
0000
0100
0000
0001
0000
0000
0010
0000
0000
0100
0000
,  // measure 68
1000
0000
0010
0100
0001
1000
0100
0010
,  // measure 69
0010
0100
1000
0010
0100
1000
0100
0001
,  // measure 70
0020
0000
1030
0010
0001
0100
0001
1000
,  // measure 71
1000
0000
0010
0000
0100
0000
0001
0000
0010
0000
0000
0001
0000
0000
1000
0000
,  // measure 72
0010
0100
2002
0000
,  // measure 73
0000
0000
0000
0000
,  // measure 74
0000
0000
3003
0000
;

//---------------dance-single - ----------------
#NOTES:
     dance-single:
     :
     Medium:
     8:
     0.366349,0.498394,0.200696,0.208129,0.033449,345.000000,318.000000,27.000000,28.000000,0.000000,0.000000,0.366349,0.498394,0.200696,0.208129,0.033449,345.000000,318.000000,27.000000,28.000000,0.000000,0.000000:
// measure 0
0000
0000
0000
0000
,  // measure 1
0000
0000
0000
0000
,  // measure 2
0000
0000
0000
0000
0000
0000
0000
0000
1002
0000
0000
1000
0000
0000
1000
0000
,  // measure 3
0023
0000
0000
0100
0000
0000
0100
0000
0230
0000
0000
1000
0000
0000
1000
0000
,  // measure 4
2300
0000
0000
0001
0000
0000
0001
0000
3001
0000
0000
0000
1000
0000
0000
0000
,  // measure 5
0001
0010
0100
0000
1100
0000
0001
0000
,  // measure 6
1000
0010
0100
0000
0101
0000
1000
0000
,  // measure 7
0001
0010
0100
0000
0110
0000
0010
0000
,  // measure 8
0001
1000
0010
0000
1010
0000
0100
0000
,  // measure 9
0001
1000
0100
0000
0110
0000
0001
0000
,  // measure 10
1000
0001
0100
0000
0110
0000
0100
0000
,  // measure 11
0001
1000
0100
0000
0010
0001
0010
0001
,  // measure 12
1000
0001
1000
0001
0100
0000
0000
0100
,  // measure 13
0001
0000
0000
0001
1000
0000
0000
1000
,  // measure 14
0001
0000
0000
0001
0100
0000
0000
0100
,  // measure 15
0001
0000
0000
0001
1000
0000
0000
1000
,  // measure 16
0001
0000
0000
0000
0010
0000
0000
0010
,  // measure 17
0100
0000
0000
0100
0010
0000
0000
0010
,  // measure 18
0001
0000
0000
0001
1000
0000
0000
1000
,  // measure 19
0001
0000
0000
0001
0100
0000
0000
0100
,  // measure 20
0010
0000
0000
0000
2002
3003
0000
0000
,  // measure 21
0001
0010
0100
2000
,  // measure 22
0002
3003
0000
0000
1000
0000
0100
0000
,  // measure 23
0010
0000
0002
0000
2000
3003
0000
0000
,  // measure 24
0001
0100
1000
0200
,  // measure 25
0002
0303
0000
0000
1000
0000
0100
0000
,  // measure 26
0001
0000
0100
0000
1000
0000
0000
1000
,  // measure 27
0001
0000
0100
0010
,  // measure 28
1000
0000
0100
0000
0010
0000
0000
0001
,  // measure 29
1000
0000
0001
0100
,  // measure 30
0010
0000
1000
0000
0100
0000
0000
1000
,  // measure 31
0001
0000
0001
0010
,  // measure 32
0100
0000
0010
0000
0001
0000
0000
0001
,  // measure 33
1000
0000
0010
0100
,  // measure 34
0001
0010
0100
1000
,  // measure 35
1001
0000
0000
0001
1000
0000
0010
0000
,  // measure 36
0110
0000
0000
0100
0001
0000
1000
0000
,  // measure 37
1100
0000
0000
0100
0010
0000
0001
0000
,  // measure 38
0011
0000
0001
0100
,  // measure 39
0110
0000
0000
0001
1000
0000
0100
0000
,  // measure 40
0110
0000
0000
1000
0001
0000
1000
0000
,  // measure 41
1010
0000
0000
0001
1000
0010
0000
0100
,  // measure 42
0010
1000
0002
0010
,  // measure 43
0013
0100
0000
0100
2000
0000
0010
0000
,  // measure 44
3001
0000
0000
1000
0002
0000
0010
0000
,  // measure 45
0013
0100
0000
0100
2000
0000
0010
0000
,  // measure 46
3100
0000
2000
0100
,  // measure 47
3001
0010
0000
0010
0200
0000
0001
0000
,  // measure 48
1300
0000
0000
0001
0200
0000
0010
0000
,  // measure 49
1300
0100
0000
0100
0020
0000
0000
0000
,  // measure 50
0200
0000
0330
0000
0001
0000
0100
0010
,  // measure 51
0000
0010
0100
0000
0010
0000
1000
0001
,  // measure 52
0000
0001
1000
0000
0010
0000
1000
0001
,  // measure 53
0000
0001
0010
0000
0100
0000
0010
0001
,  // measure 54
0000
0001
0010
0000
0010
0000
0100
1000
,  // measure 55
0000
1000
0100
0000
1000
0000
0001
1000
,  // measure 56
0000
1000
0001
0000
0010
0000
0001
1000
,  // measure 57
0000
1000
0010
0000
1000
0000
0001
1000
,  // measure 58
0000
1000
0100
0000
1100
0000
0010
0000
,  // measure 59
0101
0000
0000
0001
1000
0000
0000
0000
0101
0000
0000
0000
0010
0000
0000
0000
,  // measure 60
1100
0000
0000
1000
0001
0000
0010
0000
0110
0000
0000
0000
0001
0000
0000
0000
,  // measure 61
0101
0000
0000
1000
0010
0000
0000
0000
1010
0000
0000
0000
0100
0000
0000
0000
,  // measure 62
0101
0000
0000
1000
0001
0000
0010
0000
0021
0000
0000
0000
0130
0000
1000
0000
,  // measure 63
2100
0000
3010
0000
0102
0000
1003
0001
,  // measure 64
0021
0000
0130
1000
0010
0000
1000
0100
,  // measure 65
1000
0001
0010
0000
0100
0000
0010
0001
,  // measure 66
0100
0000
0001
0000
1000
0000
0001
0100
,  // measure 67
0001
1000
0010
0000
0100
0010
0100
0001
,  // measure 68
1000
0100
0010
0000
0001
0000
0010
0100
,  // measure 69
0010
0001
1000
0000
0001
0000
0100
0010
,  // measure 70
1000
0000
0001
0000
1000
0000
0001
0010
,  // measure 71
0001
0000
0100
0000
0010
0000
0000
0000
1000
0000
0000
0100
0000
0000
1000
0000
,  // measure 72
0002
0023
0200
0000
,  // measure 73
0000
0000
0000
0000
,  // measure 74
0000
0000
0330
0000
;

//---------------dance-single - ----------------
#NOTES:
     dance-single:
     :
     Easy:
     5:
     0.245295,0.356328,0.237862,0.297327,0.000000,231.000000,199.000000,32.000000,40.000000,0.000000,0.000000,0.245295,0.356328,0.237862,0.297327,0.000000,231.000000,199.000000,32.000000,40.000000,0.000000,0.000000:
// measure 0
0000
0000
0000
0000
,  // measure 1
0000
0000
0000
0000
,  // measure 2
0000
0000
2001
0000
,  // measure 3
3020
0000
0230
0000
,  // measure 4
0302
0000
1003
0100
,  // measure 5
1000
0001
1000
0010
,  // measure 6
0100
0001
0001
1000
,  // measure 7
0001
0100
0001
0010
,  // measure 8
0100
0000
1000
0001
,  // measure 9
1000
0010
0100
0001
,  // measure 10
1000
0001
0010
0100
,  // measure 11
1000
0000
0001
0000
1000
0001
1000
0001
,  // measure 12
1000
0000
0002
0000
,  // measure 13
0010
0000
0023
0000
,  // measure 14
0100
0000
0032
0000
,  // measure 15
0100
0000
0203
0000
,  // measure 16
0010
0000
0302
0000
,  // measure 17
1000
0000
2003
0000
,  // measure 18
0100
0000
3020
0000
,  // measure 19
0100
0000
0230
0000
,  // measure 20
0301
0000
0110
0000
,  // measure 21
0001
0000
1000
0000
,  // measure 22
1001
0000
0010
0000
,  // measure 23
0100
0000
0110
0000
,  // measure 24
1000
0000
0001
0000
,  // measure 25
1001
0000
0001
0000
,  // measure 26
0010
0000
0100
0000
,  // measure 27
1001
0000
0001
0000
,  // measure 28
0100
0000
0010
0000
,  // measure 29
1001
0000
1000
0000
,  // measure 30
0100
0000
0010
0000
,  // measure 31
1001
0000
0001
0000
,  // measure 32
0100
0000
0010
0000
,  // measure 33
1001
0000
1000
0100
,  // measure 34
1000
0100
2000
0000
,  // measure 35
3010
0000
0200
0000
,  // measure 36
0301
0000
0002
0000
,  // measure 37
0013
0000
0100
1000
,  // measure 38
0001
1000
0002
0000
,  // measure 39
0013
0000
0200
0000
,  // measure 40
1300
0000
2000
0000
,  // measure 41
3010
0000
0010
0100
,  // measure 42
0001
1000
0200
0010
,  // measure 43
1300
0000
2000
0010
,  // measure 44
3001
0000
0002
0010
,  // measure 45
0103
0000
0100
0010
,  // measure 46
1000
0100
0020
0001
,  // measure 47
0130
0000
2000
0100
,  // measure 48
3010
0000
0020
0100
,  // measure 49
1030
0000
0002
0000
,  // measure 50
1003
0000
0001
0010
,  // measure 51
0000
0110
0000
1001
,  // measure 52
0000
0101
0000
1010
,  // measure 53
0000
0110
0000
1001
,  // measure 54
0000
0001
0010
0100
,  // measure 55
0000
1100
0000
1001
,  // measure 56
0000
1010
0000
0110
,  // measure 57
0000
1001
0000
0011
,  // measure 58
0000
0100
2000
0010
,  // measure 59
3020
0100
0230
0001
,  // measure 60
0302
1003
0002
0010
,  // measure 61
0023
0100
0230
1000
,  // measure 62
2300
3001
0201
0310
,  // measure 63
1000
0100
1000
0000
1200
0000
0310
0000
,  // measure 64
0201
0310
1000
0001
,  // measure 65
0101
0001
1000
0100
,  // measure 66
1100
0100
0010
0001
,  // measure 67
0011
0001
1000
0010
,  // measure 68
0110
0000
1000
0010
,  // measure 69
0110
1000
0001
0010
,  // measure 70
0110
0001
1000
0001
,  // measure 71
0101
0001
2000
0000
,  // measure 72
0002
3003
2002
0000
,  // measure 73
0000
0000
0000
3003
;
