#TITLE:Blastix Riotz;
#SUBTITLE:;
#ARTIST:かめりあ as "Bang Riot";
#TITLETRANSLIT:;
#SUBTITLETRANSLIT:;
#ARTISTTRANSLIT:Camellia as "Bang Riot";
#GENRE:;
#CREDIT:;
#BANNER:;
#BACKGROUND:;
#LYRICSPATH:;
#CDTITLE:;
#MUSIC:Blastix Riotz.mp3;
#OFFSET:-0.655964;
#SAMPLESTART:15.187000;
#SAMPLELENGTH:12.657000;
#SELECTABLE:YES;
#BPMS:0.000000=255.998978
,60.000000=127.999008
,64.000000=255.998978
,252.000000=127.999008
,284.000000=255.998978
;
#STOPS:344.000000=0.938000
;
#BGCHANGES:;
#KEYSOUNDS:;
#ATTACKS:;

//---------------dance-single - ----------------
#NOTES:
     dance-single:
     :
     Challenge:
     17:
     1.394530,1.781297,0.375751,0.093938,1.726108,1247.000000,1199.000000,48.000000,12.000000,0.000000,0.000000,1.394530,1.781297,0.375751,0.093938,1.726108,1247.000000,1199.000000,48.000000,12.000000,0.000000,0.000000:
0000
0000
0000
0000
,
0000
0000
0000
0000
,
0000
0000
0000
0000
,
0000
0000
0000
0000
,
1000
0000
0001
0000
0001
0000
0100
0000
0010
0000
1000
0000
0001
0000
0100
0010
,
0100
0000
0010
0000
1000
0000
0100
0000
0010
0001
0010
0001
1000
0100
1000
0010
,
0100
0100
0001
0100
0100
0010
1000
0001
,
2002
0000
3003
0000
,
1000
0001
0100
0010
1000
0100
0010
0100
1000
0001
0100
0010
4000
0000
0000
0000
,
3010
0100
0001
0100
0010
1000
0100
0010
0100
1000
0001
0100
0040
0000
0000
0000
,
0130
1000
0001
0100
0010
1000
0100
0010
0100
1000
0001
0100
0040
0000
0000
0000
,
0130
0001
0100
0010
1000
0001
0100
0000
0010
0000
0000
0010
0000
0000
0010
0000
,
1000
0100
0010
0100
1000
0001
0100
0010
1000
0100
0010
0100
1000
0001
0010
0100
,
1000
0100
0010
0100
1000
0001
0100
0010
1000
0001
0100
0010
1000
0001
1000
0001
,
0100
0010
0100
0001
0100
0010
1000
0001
0100
0010
1000
0001
2000
0000
0000
0000
,
3020
0000
0000
0030
1000
0001
0100
0000
,
1001
0000
0001
0100
0010
1000
0001
0000
1000
0000
0010
0000
1000
0000
0010
0000
,
1000
0000
0010
0000
1000
0000
0001
0100
0001
0000
1000
0000
1000
0000
0001
0100
,
0001
0000
0100
0010
0100
0010
0100
0000
0010
0000
1000
0000
0010
0000
1000
0000
,
0001
0000
0100
0000
0001
0000
1000
0001
1000
0001
1000
0000
0010
0100
0010
0100
,
0010
0000
1000
0001
1000
0001
1000
0000
0010
0000
1000
0000
0001
0000
0100
0000
,
0010
1000
0001
0100
0010
1000
0004
0000
,
0103
0000
0040
0000
0000
0000
1030
0100
0010
0100
1000
0001
0100
0000
0010
1000
,
0001
0100
0010
1000
0100
0010
0100
1000
0001
0100
0010
1000
0010
1000
0010
1000
,
0010
0000
0100
0000
0001
0000
0100
0000
0010
0000
1000
0000
0010
0100
0001
0100
,
0010
0000
1000
0001
1000
0000
0001
0100
0001
0000
0101
0000
0000
0000
0101
0000
,
0000
0000
1000
0001
1000
0000
0010
0000
1000
0010
1000
0000
0001
0000
0100
0000
,
4000
0000
3000
1001
,
0010
0000
0010
0000
0000
0000
0000
0000
0100
0010
0100
0000
0000
0000
0000
0000
,
0001
1000
0001
0000
0000
0000
0000
0000
1000
0010
1000
0001
0100
0001
1000
0010
,
1000
0001
0100
0010
1000
0000
0001
0100
0001
0100
0010
1000
0001
0100
0010
1000
,
0001
0100
0010
1000
0001
0010
0100
1000
0100
0010
0100
1000
0100
0000
0000
0000
,
0010
0000
0001
0000
0100
0010
0000
1000
0000
0000
0001
0000
0000
1001
0000
0000
,
1000
0000
0010
0000
0100
0001
0000
0100
0000
0000
0010
0000
0000
1000
0000
0000
,
1010
0000
0010
0000
0100
0001
0000
1000
0000
0000
0010
0000
0000
0100
0000
0000
,
0101
0000
0001
0000
0100
0010
0000
0000
1000
0000
0001
0000
0100
0010
0100
0000
,
0001
0000
1000
0000
1010
0000
0000
0010
0000
0000
0100
0000
0000
0001
0000
0000
,
1001
0001
0100
0010
0010
1000
0010
0000
,
1000
0000
0010
0000
0100
0001
0100
0010
1000
0100
0010
0100
1000
0001
0100
0010
,
1000
0000
1000
0000
0001
0100
0001
0000
0100
0010
0100
0000
0010
1000
0010
0000
,
1000
0000
1000
0001
0100
0000
0010
0000
1000
0001
1000
0000
0010
1000
0010
0100
,
0001
0000
0100
0010
0100
0000
0001
0100
0010
1000
0010
1000
0010
0000
0000
0000
,
1010
0000
1000
0001
0100
0000
0010
0000
1000
0010
1000
0000
0001
0000
0100
0010
,
1000
0100
0010
0100
1000
0001
0100
0010
1000
0100
0000
0000
,
0011
0000
0001
0100
0010
0000
1000
0000
1000
0001
0100
0000
0010
0000
1000
0010
,
4000
0040
0000
0000
0000
0000
0000
0000
0000
3030
0000
0000
,
1001
0000
0001
0100
0010
0000
1000
0010
1000
0000
0001
0100
0010
0000
1000
0001
,
1000
0000
0010
0100
0010
0000
1000
0000
0001
0100
0001
0000
0100
0000
0000
0000
,
0010
1000
0010
1000
0010
0000
0100
0001
0100
0001
0100
0000
0001
0000
0000
0000
,
0000
0000
1000
0001
1000
0001
1000
0000
0001
0100
0001
0100
0001
0000
0100
0010
,
1000
0010
1000
0010
1000
0000
0001
0100
0001
0100
0001
0000
0100
0000
0000
0000
,
0200
0000
0000
0000
,
0310
1000
0010
1000
0010
0000
0100
0001
0100
0001
0100
0000
0001
0000
0000
0000
,
0000
0000
1000
0001
1000
0001
1000
0000
0001
1000
0001
1000
0001
0000
1000
0010
,
0100
0010
0100
0010
0100
0000
0001
1000
0001
1000
0001
0000
0000
0000
0000
0000
,
1000
0000
0001
0100
0001
0000
0100
0010
0100
0000
0010
1000
0010
1000
0001
0100
,
0010
1000
0010
1000
0010
0000
0100
0001
0100
0001
0100
0000
0010
0000
0000
0010
,
0000
0000
0010
1000
0010
1000
0010
0000
0100
0001
0100
0001
0100
0000
0001
1000
,
0001
1000
0001
1000
0010
0000
0100
0001
0100
0001
0100
0000
0000
0000
0000
0000
,
0010
1000
0001
0100
0010
1000
0100
0010
,
0100
1000
0001
0100
0010
0000
1000
0001
0100
0010
1000
0000
0000
0000
0000
0000
,
0000
0000
0001
0100
0010
1000
0001
0000
0100
0010
1000
0001
0100
0000
0010
1000
,
0001
1000
0100
0010
0100
1000
0001
0010
0100
1000
0100
0010
0100
1000
0001
0100
,
0010
1000
0010
1000
0010
1000
0000
0010
0000
0000
0000
0100
0000
0000
0010
0000
,
0010
1000
0100
0010
0001
0100
0000
0010
0000
1000
0000
0001
0000
0000
0100
0000
,
0000
0000
0000
0000
1000
0000
0000
0000
0010
0000
0000
0000
0100
0000
0000
0000
0000
0000
0000
0000
0000
0001
0000
0000
0100
0000
0000
0000
0000
0000
0000
0000
0000
0010
0000
0000
0000
0000
0000
0000
0000
0000
0010
0000
0000
0000
0000
0000
,
0000
0000
0000
0000
0001
0000
0000
0000
0100
0000
0000
0000
0010
0000
0000
0000
0000
0000
0000
0000
0000
1000
0000
0000
0001
0000
0000
0000
0000
0000
0000
0000
0000
0100
0000
0000
0000
0000
0000
0000
0000
0000
0100
0000
0000
0000
0000
0000
,
0010
1000
0010
0100
0001
0100
0000
0000
0000
0000
0000
0000
0000
0000
0000
0000
,
0001
0100
0010
1000
0001
0100
0000
0010
0000
1000
0000
0001
0000
0100
0000
0000
,
0001
0010
0001
0010
0100
1000
0100
1000
0001
0100
0001
0100
0010
1000
0010
0100
,
0010
0100
0010
0100
0001
0100
0001
0100
0010
1000
0001
0100
0010
1000
0001
0100
,
0001
0000
1000
0010
1000
0000
0001
0000
0100
0010
0100
0000
0010
0000
1000
0000
,
0001
1000
0001
1000
0001
0000
0100
0000
0010
0000
1000
0000
0100
0000
0010
0000
,
0001
0000
0100
0010
0100
0000
0001
0000
1000
0100
1000
0000
0001
0000
0100
0000
,
0010
1000
0010
0000
0100
0001
0100
0000
0010
0000
1000
0000
0001
0100
0010
1000
,
0001
0000
1000
0010
1000
0000
0010
0000
0100
0001
0100
0000
0010
0000
1000
0000
,
0001
0100
0010
0000
0010
0000
0100
0000
0010
0000
1000
0000
0001
0000
0100
0000
,
0001
0000
0100
0001
0100
0000
0010
0000
1000
0010
1000
0000
0001
0000
1000
0000
,
0100
0010
0100
0010
0100
0010
0100
0100
,
0110
0000
0000
0011
0000
0000
0101
0000
0000
0110
0000
0000
1010
0000
0000
0000
,
1010
0000
0000
1010
0000
0000
0110
0000
0000
0101
0000
0000
1001
0000
0001
0000
,
1001
0000
0000
1010
0000
0000
0110
0000
0000
0101
0000
0000
1001
0000
0000
0000
,
1010
0000
0000
1010
0000
0000
0110
0000
0000
0101
0000
0000
0001
0100
0010
1000
,
1001
0000
0000
1001
0000
0000
0010
0000
1010
0000
0000
1010
0000
0000
1000
0000
,
1001
0000
0000
1001
0000
0000
0001
0000
1000
0000
0001
0000
0100
0010
1000
0100
,
0010
0100
1000
0001
0100
0010
1000
0001
0100
0010
0100
0001
0100
0010
1000
0001
,
1001
0000
0000
0000
,
0001
0000
0100
0010
0100
0000
0001
0000
0100
0010
0100
0000
0001
0100
0010
1000
,
0001
0100
0010
1000
0001
0000
0000
0000
1000
0000
0000
0000
0001
1000
0001
0000
,
0010
0000
0100
1000
0100
0000
0010
0000
0001
1000
0010
0000
0100
0000
0001
1000
,
0010
0100
0001
0100
0010
0000
1000
0000
0001
0000
0100
0010
1000
0001
0100
0000
,
0010
0000
1000
0001
1000
0000
0010
0000
0100
0001
0100
0000
0010
0000
1000
0001
,
0100
0010
1000
0100
0010
0000
0001
0100
0010
0000
1000
0001
0100
0010
1000
0001
,
0100
0010
1000
0001
0100
0010
1000
0100
0010
0000
0001
0100
0010
1000
0001
0000
,
0100
0010
0100
0001
1000
0010
0100
0001
1000
0000
0010
1000
0020
0000
0000
0000
,
0130
0001
0100
0001
0100
0000
0010
0000
1000
0001
0100
0000
0010
0000
1000
0001
,
1000
0000
0010
1000
0010
0000
0100
0000
0100
0000
0001
0100
0040
0000
0000
0000
,
1030
0000
0000
0000
0000
0000
0010
0000
0000
0100
0000
0000
0010
0000
0000
0000
0000
0000
0100
0000
0000
0000
0000
0000
0001
0000
0000
0000
0100
0000
0000
0000
0001
0000
0000
0000
0100
0000
0000
0000
0001
0000
0000
0000
0100
0000
0000
0000
,
0101
0000
0000
0000
0000
0000
0000
0000
0110
0000
0000
0000
0000
0000
0000
0000
1010
0000
0000
0000
0000
0000
0000
0000
1000
0000
0000
0010
0000
0000
1000
0000
0000
0000
0000
0000
0001
0000
0000
0100
0000
0000
0001
0000
0000
0000
0000
0000
,
1000
0000
0010
0100
0010
0000
0010
0000
1000
0001
1000
0000
0010
0000
0010
0000
,
0100
0000
0001
0100
0020
0000
0000
0000
1030
0000
0000
0000
0000
0000
0000
0000
,
1000
0001
1000
0001
1000
0000
0010
0100
0010
0100
0010
0000
1000
0000
0010
0000
,
0100
0001
0100
0001
0100
0000
0010
1000
0010
1000
0010
0000
0010
1000
0010
1000
,
0010
0100
0001
0010
0100
0010
0001
1000
0010
0100
0001
0010
0100
1000
0001
0000
,
0000
0000
0000
0000
,
1000
0010
0100
0001
1000
0100
0010
0100
1000
0001
0010
0100
1000
0100
0010
0100
,
1000
0001
0100
0010
1000
0100
0010
0100
1000
0010
0100
0001
0100
0010
0100
0001
,
0100
0010
1000
0010
1000
0001
0100
0010
1000
0100
0010
0100
1000
0001
0100
0010
,
0200
0320
1030
0001
,
0001
1000
0010
0100
0001
1000
0100
0010
0001
0010
0100
0010
0001
1000
0010
0100
,
0001
1000
0100
0010
0001
0010
0100
0010
0001
1000
0010
0100
0001
1000
0010
0100
,
0001
0010
0100
0010
0001
1000
0010
0100
0001
1000
0010
0100
0001
1000
0010
0100
,
0001
0000
0000
0000
0000
0000
0000
0000
0000
0100
0000
0000
0000
0000
0000
0000
0000
0000
0000
0010
0000
0000
0000
0000
0000
0000
0000
0000
0000
1000
0000
0000
0000
0000
0000
0000
0000
0000
0010
0000
0000
0000
0000
0000
0000
0000
0000
0000
0100
0000
0000
0000
0000
0000
0000
0000
0000
0000
0001
0000
0000
0000
0000
0000
0000
0000
0000
0000
0100
0000
0000
0000
0000
0000
0000
0000
0000
0010
0000
0000
0000
0000
0000
0000
0000
0000
1000
0000
0000
0000
0000
0000
0000
0000
0000
0000
0010
0000
0000
0000
0000
0000
0000
0000
0000
0100
0000
0000
0000
0000
0000
0000
0000
0000
0000
0001
0000
0000
0000
0000
0000
0000
0000
0000
0000
0100
0000
0000
0000
0000
0000
0000
0000
0000
0000
0010
0000
0000
0000
0000
0000
0000
0000
0000
1000
0000
0000
0000
0000
0000
0000
0000
0000
0010
0000
0000
0000
0000
0000
0000
0000
0000
0000
0100
0000
0000
0000
0000
0000
0000
0000
0000
0000
0001
0000
0000
0000
0000
0000
0000
0000
0000
0000
1000
0000
0000
0000
0000
0000
0000
0000
0000
,
0001
0000
0000
1000
0000
0000
0001
0100
,
0010
1000
0100
0001
0100
1000
0001
0100
,
0101
0000
0000
0110
0000
0010
0010
1000
,
0001
0100
0010
1000
0100
0010
0100
1000
,
1001
0000
0000
1010
0000
0000
1000
0001
,
0100
0010
1000
0100
0001
0100
1000
0001
,
0101
0000
0000
0110
0000
0000
0000
0000
,
2000
3020
0230
0301
,
1000
0001
0100
0010
1000
0001
0010
0100
1000
0100
0010
0100
1000
0001
0100
0010
,
1000
0001
0100
0010
1000
0001
0010
0100
1000
0100
0010
0100
1000
0001
0100
0010
,
1000
0000
0000
0000
;

//---------------dance-single - ----------------
#NOTES:
     dance-single:
     :
     Hard:
     15:
     1.165277,1.588724,0.086110,0.101766,1.142911,1042.000000,1031.000000,11.000000,13.000000,0.000000,0.000000,1.165277,1.588724,0.086110,0.101766,1.142911,1042.000000,1031.000000,11.000000,13.000000,0.000000,0.000000:
0000
0000
0000
0000
,
0000
0000
0000
0000
,
0000
0000
0000
0000
,
0000
0000
0000
0000
,
1000
0001
0001
0100
0010
1000
0001
0100
,
0010
1000
0100
0010
0001
0010
0001
1000
,
0100
0010
0001
0100
0010
1000
0001
0100
,
0202
0000
0303
0000
,
1000
0100
1000
0000
0000
0000
0000
0000
0001
1000
0001
1000
0004
0000
0000
0000
,
0103
0010
0100
0010
0100
0000
0000
0000
0010
1000
0010
1000
0040
0000
0000
0000
,
0130
0001
0100
0001
0100
0000
0000
0000
0001
0100
0001
0100
0004
0000
0000
0000
,
0103
0001
0100
0010
1000
0001
0100
0000
0010
0000
0000
0010
0000
0000
0010
0000
,
1000
0100
0010
0001
0010
0100
1000
0001
0100
0000
0010
0000
4000
0000
0000
0000
,
3001
0010
0100
1000
0100
0010
0001
0100
0010
0000
1000
0000
0040
0000
0000
0000
,
0130
0001
0100
0000
0010
1000
0010
0000
0100
0001
1000
0001
2000
0000
0000
0000
,
3020
0000
0000
0030
1000
0001
0100
0000
,
1000
0000
0001
0100
0010
1000
0001
0000
1000
0000
0010
0000
1000
0000
0010
0000
,
1000
0000
0010
0000
1000
0000
0001
0100
0001
0000
1000
0000
1000
0000
0001
0100
,
0001
0000
0100
0010
0100
0010
0100
0000
0010
0000
1000
0000
0010
0000
1000
0000
,
0001
0000
0100
0000
0001
0000
1000
0001
1000
0001
1000
0000
0010
0100
0010
0100
,
0010
0000
1000
0001
1000
0001
1000
0000
0010
0000
1000
0000
0001
0000
0100
0000
,
0010
1000
0001
0100
0010
1000
0004
0000
,
0103
0000
0040
0000
0000
0000
1030
0100
0010
0100
1000
0001
0100
0000
0010
1000
,
0010
0100
0001
1000
0100
0010
0001
0100
,
0010
0000
0100
0000
0001
0000
0100
0000
0010
0000
1000
0000
0010
0100
0001
0100
,
0010
0000
1000
0001
1000
0000
0001
0100
0001
0000
0100
0000
0000
0000
0100
0000
,
0000
0000
1000
0001
1000
0000
0010
0000
1000
0010
1000
0000
0001
0000
0100
0000
,
0010
0000
0000
1001
,
0010
0000
0010
0000
0000
0000
0000
0000
0100
0010
0100
0000
0000
0000
0000
0000
,
0001
1000
0001
0000
0000
0000
0000
0000
1000
0000
0100
0000
1000
0000
0100
0000
,
1000
0001
0100
0010
0100
0001
1000
0010
,
0100
0001
1000
0100
0010
0001
0100
0000
,
0010
0000
0001
0000
0100
0010
0000
1000
0000
0000
0001
0000
0000
1000
0000
0000
,
1000
0000
0010
0000
0100
0001
0000
0100
0000
0000
0010
0000
0000
1000
0000
0000
,
1010
0000
0010
0000
0100
0001
0000
1000
0000
0000
0010
0000
0000
0100
0000
0000
,
0100
0000
0001
0000
0100
0010
0000
0000
1000
0000
0001
0000
0100
0010
0100
0000
,
0001
0000
1000
0000
0010
0000
0000
0010
0000
0000
0100
0000
0000
0001
0000
0000
,
1000
0001
0100
0010
1000
0010
0100
0000
,
0100
0001
0100
0000
0010
0000
1000
0000
,
0001
1000
0010
1000
0100
1000
0001
0000
,
0100
0000
0010
0100
0010
0000
1000
0000
0001
1000
0001
0000
1000
0000
0010
1000
,
0010
0000
0100
0001
0100
0000
0010
0000
4000
0000
0000
0000
3000
0000
0000
0000
,
0010
0000
1000
0001
0100
0000
0010
0000
1000
0010
1000
0000
0001
0000
0100
0010
,
1000
0100
0010
0100
1000
0001
0100
0010
1000
0100
0000
0000
,
0010
0000
0001
0100
0010
0000
1000
0000
1000
0001
0100
0000
0010
0000
1000
0010
,
4000
0040
0000
0000
0000
0000
0000
0000
0000
3030
0000
0000
,
1001
0000
0001
0100
0010
0000
1000
0010
1000
0000
0001
0100
0010
0000
1000
0001
,
1000
0000
0010
0100
0010
0000
1000
0000
0001
0100
0001
0000
0100
0000
0000
0000
,
0010
1000
0010
1000
0010
0000
0100
0001
0100
0001
0100
0000
0001
0000
0000
0000
,
0000
0000
1000
0001
1000
0001
1000
0000
0001
0100
0001
0100
0001
0000
0100
0010
,
1000
0010
1000
0010
1000
0000
0001
0100
0001
0100
0001
0000
0100
0000
0000
0000
,
0200
0000
0000
0000
,
0310
1000
0010
1000
0010
0000
0100
0001
0100
0001
0100
0000
0001
0000
0000
0000
,
0000
0000
1000
0001
1000
0001
1000
0000
0001
1000
0001
1000
0001
0000
1000
0000
,
0100
0010
0100
0010
0001
0000
1000
0001
1000
0001
1000
0000
0000
0000
0000
0000
,
1000
0000
0001
0100
0001
0000
0100
0010
0100
0000
0010
1000
0010
1000
0001
0100
,
0010
1000
0010
1000
0010
0000
0100
0001
0100
0001
0100
0000
0010
0000
0000
0010
,
0000
0000
0010
1000
0010
1000
0010
0000
0100
0001
0100
0001
0100
0000
0001
1000
,
0001
1000
0001
1000
0010
0000
0100
0001
0100
0001
0100
0000
0000
0000
0000
0000
,
0010
1000
0001
0100
0010
1000
0100
0010
,
0100
1000
0001
0100
0010
0000
1000
0001
0100
0010
1000
0000
0000
0000
0000
0000
,
0000
0000
0001
0100
0010
1000
0001
0000
0100
0010
1000
0001
0100
0000
0010
1000
,
0001
0100
0010
1000
0100
0010
0100
1000
,
0010
1000
0010
1000
0010
1000
0000
0010
0000
0000
0000
0100
0000
0000
0010
0000
,
0010
1000
0100
0010
0001
0100
0000
0010
0000
1000
0000
0001
0000
0000
0100
0000
,
0000
0000
0000
0000
1000
0000
0000
0000
0010
0000
0000
0000
0100
0000
0000
0000
0000
0000
0000
0000
0000
0001
0000
0000
0100
0000
0000
0000
0000
0000
0000
0000
0000
0010
0000
0000
0000
0000
0000
0000
0000
0000
0010
0000
0000
0000
0000
0000
,
0000
0000
0000
0000
0001
0000
0000
0000
0100
0000
0000
0000
0010
0000
0000
0000
0000
0000
0000
0000
0000
1000
0000
0000
0001
0000
0000
0000
0000
0000
0000
0000
0000
0100
0000
0000
0000
0000
0000
0000
0000
0000
0100
0000
0000
0000
0000
0000
,
0010
1000
0010
0100
0001
0100
0000
0000
0000
0000
0000
0000
0000
0000
0000
0000
,
0001
0100
0010
1000
0001
0100
0000
0010
0000
1000
0000
0001
0000
0100
0000
0000
,
0001
0010
0001
0010
0100
1000
0100
1000
0001
0100
0001
0100
0010
1000
0010
0100
,
0010
0100
0010
0100
0001
0100
0001
0100
0010
1000
0001
0100
0010
1000
0001
0100
,
0001
0000
1000
0010
1000
0000
0001
0000
0100
0010
0100
0000
0010
0000
1000
0000
,
0001
1000
0001
1000
0001
0000
0100
0000
0010
0000
1000
0000
0100
0000
0010
0000
,
0001
0000
0100
0010
0100
0000
0001
0000
1000
0100
1000
0000
0001
0000
0100
0000
,
0010
1000
0010
0000
0100
0001
0100
0000
0010
0000
1000
0000
0001
0100
0010
1000
,
0001
0000
1000
0010
1000
0000
0010
0000
0100
0001
0100
0000
0010
0000
1000
0000
,
0001
0100
0001
0000
0010
0000
0100
0000
1000
0000
0010
0000
0100
0000
0001
0000
,
0100
0001
0001
0010
0100
0100
1000
0100
,
0010
0001
0100
0010
1000
0001
0010
0100
,
0010
0000
0000
0100
0000
0000
0001
0000
0000
0100
0000
0000
0010
0000
0000
0000
,
1000
0000
0000
0001
0000
0000
0100
0000
0000
0010
0000
0000
1000
0000
0000
0000
,
0001
0000
0000
1000
0000
0000
0001
0000
0000
0100
0000
0000
0010
0000
0000
0000
,
1000
0000
0000
0001
0000
0000
1000
0000
0000
0010
0000
0000
0100
0000
0001
0000
,
1000
0000
0000
1000
0000
0000
0010
0000
1000
0000
0000
1000
0000
0000
0100
0000
,
0010
0000
0000
0010
0000
0000
0001
0000
1000
0000
0001
0000
0100
0000
0010
0000
,
1000
0001
0100
0010
0100
0010
1000
0010
,
1001
0000
0000
0000
,
0001
0100
0100
0001
0100
0100
0010
1000
,
0100
0010
0100
0010
0001
0100
0101
0000
,
0010
1000
1000
0010
0100
0100
0010
1000
,
0100
0001
0100
1000
0001
0100
0101
0000
,
0001
0100
0100
0001
0010
1000
0010
0001
,
0100
0010
1000
0001
1000
0100
0011
0000
,
0200
0000
0000
0000
,
0310
1000
0010
0000
1000
0000
0010
0000
1000
0000
0010
1000
0020
0000
0000
0000
,
0130
0001
0100
0001
0100
0000
0000
0000
0010
0000
1000
0000
0010
0000
1000
0000
,
0001
0100
0001
0100
0001
1000
0040
0000
,
1030
0000
0000
0000
0000
0000
0010
0000
0000
0100
0000
0000
0010
0000
0000
0000
0000
0000
0100
0000
0000
0000
0000
0000
0001
0000
0000
0000
0100
0000
0000
0000
0001
0000
0000
0000
0100
0000
0000
0000
0001
0000
0000
0000
0100
0000
0000
0000
,
0001
0000
0000
0000
0010
0000
0000
0000
1000
0000
0000
0000
0010
0000
0000
0001
0000
0000
0100
0000
0000
0010
0000
0000
,
1000
0100
0010
0001
0100
0010
1000
0010
,
0100
0001
0020
0000
1030
0000
0000
0000
,
0001
0001
0100
0010
1000
1000
0010
0000
,
0100
0100
0001
0100
0100
0010
1000
0000
,
0001
0010
0001
0010
0100
1000
0100
1000
,
0001
0000
0000
0000
,
1000
0100
1000
0100
0010
0001
0010
0001
0100
0010
0100
0010
1000
0001
1000
0001
,
1000
0100
0010
0001
0010
0100
1000
0001
0010
0100
1000
0100
0010
0100
1000
0001
,
0100
0010
1000
0001
0100
0010
1000
0001
0100
0010
1000
0001
0100
0010
1000
0001
,
0200
0320
1030
0001
,
0001
1000
0010
0100
0001
1000
0100
0010
0001
0010
0100
0010
0001
1000
0010
0100
,
0001
1000
0100
0010
0001
0010
0100
0010
0001
1000
0010
0100
0001
1000
0010
0100
,
0001
0010
0100
0010
0001
1000
0010
0100
0001
1000
0010
0100
0001
1000
0010
0100
,
0010
1000
0010
1000
0001
0100
0001
0100
0010
1000
0010
1000
0001
0100
0001
0100
,
0001
0000
0000
1000
0000
0000
0001
0100
,
0010
1000
0100
0001
0100
1000
0001
0100
,
0001
0000
0000
0110
0000
0010
0010
1000
,
0001
0100
0010
1000
0100
0010
0100
1000
,
0001
0000
0000
1010
0000
0000
1000
0001
,
0100
0010
1000
0100
0001
0100
1000
0001
,
0100
0000
0000
0110
0000
0000
0000
0000
,
2000
3020
0230
0301
,
1000
0100
1000
0001
1000
0010
0100
0001
0100
0010
1000
0100
0010
0100
1000
0001
,
0100
0010
1000
0001
0100
0010
1000
0100
0010
0100
1000
0001
0100
0010
1000
0010
,
1000
0000
0000
0000
;

//---------------dance-single - ----------------
#NOTES:
     dance-single:
     :
     Medium:
     12:
     0.771633,1.059150,0.148735,0.054797,0.109594,690.000000,671.000000,19.000000,7.000000,0.000000,0.000000,0.771633,1.059150,0.148735,0.054797,0.109594,690.000000,671.000000,19.000000,7.000000,0.000000,0.000000:
0000
0000
0000
0000
,
0000
0000
0000
0000
,
0000
0000
0000
0000
,
0000
0000
0000
0000
,
1000
0000
0000
1000
0000
0000
0010
0000
,
0100
0010
0100
0010
,
1000
0000
0000
0001
0000
0000
0010
0000
,
0002
0203
0320
2030
,
3001
0010
0100
1000
0100
0010
0100
1000
,
0001
0100
0010
1000
0001
0100
0010
1000
,
0001
0010
0100
1000
0100
0010
0100
1000
,
0001
0100
0010
1000
0001
0100
0001
0100
,
0010
1000
0010
1000
0020
0000
0000
0000
,
0130
0001
0100
1000
0010
1000
0001
0100
,
1000
0100
0001
1000
0010
0001
0010
1000
,
0001
0000
0000
0000
,
1000
0100
1000
0100
0001
0100
0001
0100
,
1000
0010
1000
0010
0100
0001
0100
0001
,
0010
0001
0010
0001
1000
0100
0001
0100
,
1000
0010
0100
0001
1000
0001
0100
0010
,
1000
0100
0001
0100
1000
0001
0010
1000
,
0010
0001
0100
0010
1000
0100
0001
0100
,
4000
0000
0000
0000
3010
0100
0010
0100
,
0001
0100
0001
0100
0001
0000
1000
0001
,
1000
0000
0001
0100
0010
1000
0100
0001
,
0100
1000
0001
0010
1000
0010
0000
1000
,
0100
0001
0100
1000
0001
0100
0010
1000
,
0004
0000
0000
0003
,
1001
0000
0110
0000
,
0011
0000
1001
0000
,
1000
0100
1000
0100
1000
0100
1000
0100
,
0010
0001
0010
0001
0010
0001
1000
0010
,
0100
0001
0100
0000
0010
0000
1000
0000
,
0001
1000
0001
0000
1000
0000
0010
0000
,
0100
0001
0100
0000
0010
1000
0010
0000
,
0100
0001
0100
0000
0010
1000
0010
0000
,
1000
0001
1000
0000
0001
0000
0100
0000
,
0010
1000
0010
0000
0100
0000
0001
0000
,
1000
0001
1000
0000
0010
0100
0010
0000
,
1000
0001
1000
0000
0001
0100
0001
0000
,
1000
0100
0100
0010
0001
0001
0100
0010
,
0010
1000
0001
0001
0100
0010
1000
0000
,
0001
0100
0100
1000
0001
0010
0100
1000
,
0001
0100
0001
1000
0010
1000
0001
0000
0000
0000
0000
0000
,
1000
0100
0100
0001
1000
0010
0010
0100
,
1000
0001
1000
0001
1000
0001
1000
0000
0000
0000
0000
0000
,
0001
0100
0010
1000
,
0010
0000
0000
0000
,
1000
0001
0100
0000
,
0001
0100
0010
0000
,
0010
1000
0001
0000
,
0000
0000
0000
0000
,
1000
0001
1000
0010
0100
0001
0000
0000
,
0000
0001
0100
0010
1000
0001
0100
0000
,
0010
1000
0100
1000
0001
0100
0000
0000
,
0010
0010
1000
1000
,
0001
1000
0010
1000
0100
0010
0000
0000
,
0000
0001
0100
0010
1000
0100
0010
0000
,
0001
0100
0010
1000
0100
1000
0001
0000
,
0000
0000
0000
0000
,
0001
1000
0001
1000
0001
1000
0000
0000
,
0000
0001
0100
0001
0100
0001
0100
0001
,
0100
0010
1000
0001
1000
0010
1000
0001
,
1000
0000
0010
0000
0100
0001
0000
0100
0000
0000
0000
0010
0000
0000
0010
0000
,
1000
0000
0010
1000
0010
1000
0000
0010
0000
0000
0000
0000
0000
0000
0000
0000
,
0100
0001
0000
0000
,
0001
0000
1000
0000
,
0010
0000
0000
0000
,
0010
0100
0001
0010
,
0100
1000
0100
0001
,
0100
1000
0010
0010
,
1000
0100
0001
0100
1000
0010
0001
0010
,
1000
0100
0010
0100
1000
0001
0100
0010
,
1000
0100
0010
0100
1000
0001
0100
0010
,
1000
0001
1000
0010
1000
0001
1000
0010
,
0100
0001
0100
0001
1000
0010
1000
0010
,
0100
0001
0100
0010
1000
0100
0010
0001
,
0100
0010
1000
0001
0100
0010
1000
0100
,
0010
0100
1000
0001
0100
0010
1000
0001
,
1001
0000
0000
1001
0000
0000
1001
0000
,
0011
0000
0000
0011
0000
0000
0011
0000
,
0011
0000
0000
1001
0000
0000
1001
0000
,
0110
0000
0000
0110
0000
0000
0110
0000
,
1001
0000
0000
0010
0010
0000
0000
0100
,
0100
0000
0000
0000
0001
0001
0000
0010
,
0010
0000
0000
0100
0100
0100
0100
0100
,
0100
0000
0000
0000
,
1000
0100
1000
0100
1000
0001
0100
0010
,
1000
0100
0010
0100
1000
0001
0100
0010
,
1000
0001
0100
0010
1000
0001
0010
0100
,
1000
0100
0010
0100
1000
0001
0100
0010
,
1000
0010
1000
0001
0100
0010
1000
0100
,
0010
0100
1000
0001
0100
0010
1000
0001
,
0010
0100
1000
0100
0010
0100
1000
0001
,
0100
0010
1000
0001
0100
0010
1000
0001
,
0100
0000
0000
0000
0010
1000
0010
1000
,
0010
1000
0010
1000
0010
1000
0010
1000
,
0001
0100
0001
0010
0001
0000
0001
0000
,
0001
0000
0100
0000
0010
0000
4000
0000
0000
0000
0000
0000
,
3001
0100
0000
0000
0010
1000
0000
0000
,
0001
0000
0000
0000
,
1000
0001
1000
0001
1000
0000
0001
1000
0001
1000
0001
0000
0000
0000
0000
0000
,
1000
0001
1000
0001
1000
0000
0000
0000
,
1000
0001
1000
0001
1000
0001
1000
0001
1000
0001
1000
0001
1000
0001
1000
0001
,
1000
0000
0000
0000
,
0001
0010
1000
0001
0100
1000
0001
0010
,
1000
0001
0100
1000
0001
0100
0010
1000
,
0100
0001
1000
0010
0001
1000
0100
0001
,
0100
0010
0001
0000
0100
0000
0100
0000
,
0010
1000
0100
0001
0100
1000
0001
0010
,
1000
0001
0100
1000
0001
0010
1000
0001
,
0100
1000
0100
0001
1000
0010
0001
1000
,
0100
0001
0100
1000
0001
0010
1000
0010
,
0100
0000
0000
0100
0000
0000
0010
0000
,
1000
0010
0100
0001
,
0010
0000
0000
0010
0000
0000
0010
0000
,
1000
0010
0100
0001
,
1000
0000
0000
1000
0000
0000
0010
0000
,
0100
0001
0010
0001
,
1001
0000
0000
0001
0000
0000
0001
0000
,
0100
0010
1000
0001
,
2002
0000
0000
0000
,
0000
0000
0000
0000
,
3003
0000
0000
0000
;

//---------------dance-single - ----------------
#NOTES:
     dance-single:
     :
     Easy:
     8:
     0.449560,0.433288,0.000000,0.046969,0.000000,402.000000,402.000000,0.000000,6.000000,0.000000,0.000000,0.449560,0.433288,0.000000,0.046969,0.000000,402.000000,402.000000,0.000000,6.000000,0.000000,0.000000:
0000
0000
0000
0000
,
0000
0000
0000
0000
,
0000
0000
0000
0000
,
0000
0000
0000
0000
,
1000
0000
0000
1000
0000
0000
0010
0000
,
0100
0010
0100
0010
,
1000
0000
0000
0001
0000
0000
0010
0000
,
0002
0203
0320
2030
,
3000
1000
0100
0010
,
0001
0010
1000
0010
,
0001
1000
0100
0010
,
0001
0010
1000
0001
,
0100
1000
0020
0000
,
0130
1000
0010
0100
,
0001
0010
0100
0010
,
0001
0000
0000
0000
,
0010
1000
0010
1000
,
0100
0001
0100
1000
,
0010
1000
0010
1000
,
0010
0010
0100
0001
,
0010
0100
1000
0010
,
1000
0010
1000
0010
,
0100
0000
0001
1000
,
0100
1000
0100
0010
,
0001
0010
1000
0100
,
1000
0100
1000
0100
,
1000
0001
0010
0100
,
2000
0000
0000
0000
,
3001
0000
0001
0000
,
0100
0000
0100
0000
,
1000
0100
0010
1000
,
0010
0100
0001
0010
,
0100
1000
0100
1000
,
0100
1000
0100
0010
,
0001
1000
0100
0010
,
0100
1000
0100
0001
,
0100
1000
0001
0100
,
0010
0100
1000
0010
,
1000
0100
0010
0001
,
0010
0100
1000
0010
,
0100
0001
0100
0010
,
1000
0100
1000
0001
,
0010
0100
1000
0010
,
1000
0001
0100
0000
,
0100
1000
0100
0001
,
0100
0010
0100
0000
,
1000
0100
1000
0100
,
1000
0000
0000
0000
,
1000
0100
1000
0000
,
0100
0010
0100
0000
,
0010
0100
0001
0000
,
0000
0000
0000
0000
,
0001
1000
0100
1000
,
0000
1000
0001
1000
,
0010
0100
0100
1000
,
1000
0100
0100
0001
,
1000
0100
1000
0010
,
0000
1000
0100
0010
,
0100
1000
0001
1000
,
0000
0000
0000
0000
,
0100
0001
0100
0010
,
0000
0001
1000
0100
,
1000
0001
1000
0001
,
1000
0100
0010
0001
,
0010
0100
1000
0000
,
1000
0001
0000
0000
,
1000
0000
0100
0000
,
0010
0000
0000
0000
,
0010
0100
0010
0100
,
0001
0010
0100
1000
,
0100
0010
0001
0010
,
0100
1000
0001
1000
,
0001
0010
0100
1000
,
0010
0100
0010
1000
,
0010
1000
0001
1000
,
0010
1000
0010
1000
,
0010
0100
0001
0100
,
0010
0100
1000
0010
,
1000
0010
0100
0001
,
1000
0000
1000
1000
,
1000
0000
1000
1000
,
1000
0000
1000
0001
,
0010
0000
0100
0100
,
0100
0000
0001
0000
,
1000
0000
0001
1000
,
0100
0000
0100
1000
,
0100
0000
0000
0000
,
0010
0100
0010
0001
,
0010
1000
0100
1000
,
0100
1000
0010
1000
,
0010
1000
0010
1000
,
0010
1000
0001
0010
,
0100
1000
0100
1000
,
0100
1000
0100
0010
,
0001
0100
0010
1000
,
0100
0000
0100
1000
,
0001
0010
0001
0010
,
0001
1000
0010
1000
,
0001
0001
0010
0000
,
0000
0100
0001
1000
,
0100
0000
0000
0000
,
0001
1000
1000
0001
,
1000
0010
0010
0000
,
0100
1000
0100
0100
,
0010
0000
0000
0000
,
0001
1000
0010
1000
,
0010
1000
0010
1000
,
0010
1000
0010
1000
,
0100
0010
0001
0010
,
0001
1000
0010
1000
,
0100
0010
0001
0100
,
0010
1000
0010
0100
,
0010
1000
0001
0100
,
0010
0000
0001
1000
,
0100
1000
0100
0010
,
0001
0000
1000
0010
,
1000
0010
1000
0010
,
0100
0000
0100
0010
,
0001
0100
0001
1000
,
0100
0000
0100
1000
,
0010
1000
0100
1000
,
4000
0000
0000
0000
,
0000
0000
0000
0000
,
3000
0000
0000
0000
;
