#TITLE:You Are a Cunt;
#SUBTITLE:;
#ARTIST:Kat McSnatch;
#TITLETRANSLIT:;
#SUBTITLETRANSLIT:;
#ARTISTTRANSLIT:;
#GENRE:;
#CREDIT:;
#BANNER:[You Won't See This In DDR V] - You Are a Cunt.png;
#BACKGROUND:[You Won't See This In DDR V] - You Are a Cunt-bg.png;
#LYRICSPATH:;
#CDTITLE:cdtitle.png;
#MUSIC:[You Won't See This In DDR V] - You Are a Cunt.ogg;
#OFFSET:0.025000;
#SAMPLESTART:56.268826;
#SAMPLELENGTH:17.272728;
#SELECTABLE:YES;
#BPMS:0.000000=132.000000
;
#STOPS:
;
#BGCHANGES:;
#KEYSOUNDS:;
#ATTACKS:;

//---------------dance-single - ----------------
#NOTES:
     dance-single:
     C 01 X 02:
     Beginner:
     1:
     0.079727,0.134467,0.000000,0.121324,0.000000,69.000000,69.000000,0.000000,15.000000,0.000000,0.000000,0.079727,0.134467,0.000000,0.121324,0.000000,69.000000,69.000000,0.000000,15.000000,0.000000,0.000000:
// measure 0
0000
0000
0000
0000
,  // measure 1
0000
0000
0000
0000
,  // measure 2
0000
0000
0000
0000
,  // measure 3
1000
0000
0000
0000
,  // measure 4
1000
0000
0000
0000
,  // measure 5
0001
0000
0000
0000
,  // measure 6
0001
0000
0000
0000
,  // measure 7
0010
0000
0000
0000
,  // measure 8
0010
0000
0000
0000
,  // measure 9
0100
0000
0100
0000
,  // measure 10
0200
0000
0300
0000
,  // measure 11
0000
0000
0000
0000
,  // measure 12
0000
0000
0000
1000
,  // measure 13
0000
0000
0000
1000
,  // measure 14
0000
0000
0000
0001
,  // measure 15
0000
0000
0000
0002
,  // measure 16
0000
0003
0000
0100
,  // measure 17
0000
0000
0000
0100
,  // measure 18
0000
0000
0000
0010
,  // measure 19
0000
0010
0000
0020
,  // measure 20
0000
0030
0000
0000
,  // measure 21
0000
0000
0000
0000
,  // measure 22
0000
1000
0000
0000
,  // measure 23
0000
0001
0000
0000
,  // measure 24
0000
1000
0000
0000
,  // measure 25
0000
0001
0000
0000
,  // measure 26
0000
0100
0000
0000
,  // measure 27
0000
0010
0000
0000
,  // measure 28
0000
0100
0000
0100
,  // measure 29
0000
0020
0000
0030
,  // measure 30
0000
0000
0000
0000
,  // measure 31
0000
0000
0000
1000
,  // measure 32
0000
1000
0000
2000
,  // measure 33
0000
3000
0000
0200
,  // measure 34
0000
0300
0000
0200
,  // measure 35
0000
0300
0000
0010
,  // measure 36
0000
0010
0000
0020
,  // measure 37
0000
0030
0000
0001
,  // measure 38
0000
0001
0000
0002
,  // measure 39
0000
0003
0000
0000
,  // measure 40
0000
0000
0000
0000
,  // measure 41
0000
1000
0000
0000
,  // measure 42
0000
0100
0000
0000
,  // measure 43
0000
0010
0000
0000
,  // measure 44
0000
0002
0000
0000
,  // measure 45
0000
0000
0000
0000
,  // measure 46
0000
0000
0003
0000
,  // measure 47
0000
0000
0000
0000
,  // measure 48
0000
0000
0000
0000
,  // measure 49
0000
0000
1000
0000
,  // measure 50
1000
0000
0010
0000
,  // measure 51
0010
0000
0100
0000
,  // measure 52
0100
0000
0001
0000
,  // measure 53
0000
0000
0001
0000
,  // measure 54
0001
0000
0010
0000
,  // measure 55
0010
0000
0100
0000
,  // measure 56
0100
0000
2000
0000
,  // measure 57
3000
0000
0001
0000
,  // measure 58
0001
0000
0200
0000
,  // measure 59
0300
0000
0010
0000
,  // measure 60
0010
0000
2000
0000
,  // measure 61
3000
0000
1000
0000
,  // measure 62
1000
0000
0200
0000
,  // measure 63
0300
0000
0010
0000
,  // measure 64
0010
0000
0001
0000
,  // measure 65
0002
0000
0000
0000
,  // measure 66
0000
0000
0003
0000
;

//---------------dance-single - ----------------
#NOTES:
     dance-single:
     C 03 X 05:
     Easy:
     3:
     0.169853,0.242041,0.048530,0.137500,0.004044,147.000000,141.000000,6.000000,17.000000,0.000000,0.000000,0.169853,0.242041,0.048530,0.137500,0.004044,147.000000,141.000000,6.000000,17.000000,0.000000,0.000000:
// measure 0
0000
0000
0000
0000
,  // measure 1
0000
0000
0000
0000
,  // measure 2
0000
0000
0000
0000
,  // measure 3
1000
0000
1000
0000
,  // measure 4
0001
0000
0001
0000
,  // measure 5
0010
0000
0010
0000
,  // measure 6
0100
0000
0000
0000
,  // measure 7
1000
0000
1000
0000
,  // measure 8
0001
0000
0001
0000
,  // measure 9
0100
0000
0100
0000
,  // measure 10
0010
0010
0010
0000
,  // measure 11
0000
0000
0000
0000
,  // measure 12
0000
0000
0000
2000
,  // measure 13
3000
2000
3000
2000
,  // measure 14
0000
3000
0000
0010
,  // measure 15
0000
0100
0000
0010
,  // measure 16
0010
0010
0000
2000
,  // measure 17
3000
2000
3000
2000
,  // measure 18
0000
3000
0000
0100
,  // measure 19
0000
0010
0000
0100
,  // measure 20
0100
0200
0000
0010
,  // measure 21
0000
1000
0000
0310
,  // measure 22
0000
0001
0001
0001
,  // measure 23
0000
1000
1000
1000
,  // measure 24
0000
0010
0010
0010
,  // measure 25
0000
0110
0000
0000
,  // measure 26
0000
1000
1000
0001
,  // measure 27
0000
0001
0001
1000
,  // measure 28
0000
0110
0000
0110
,  // measure 29
0000
1000
0001
1000
,  // measure 30
0000
0000
0000
0000
,  // measure 31
0000
0000
0000
0001
,  // measure 32
1000
0001
1000
0002
,  // measure 33
0000
0003
0000
0100
,  // measure 34
0000
0010
0000
0100
,  // measure 35
0100
0010
0000
1000
,  // measure 36
0001
1000
0001
2000
,  // measure 37
0000
3000
0000
1001
,  // measure 38
0000
1001
0000
0001
,  // measure 39
0010
0200
0300
0200
,  // measure 40
0300
0200
0300
0200
,  // measure 41
0300
1000
0000
0010
,  // measure 42
0000
0100
0000
0001
,  // measure 43
0000
0010
0000
0100
,  // measure 44
1000
0000
0000
0000
0000
0000
0000
0002
0000
0000
0000
0000
0000
0000
0000
0000
0000
0000
0000
0000
0000
0000
0000
0000
,  // measure 45
0000
0000
0000
0000
,  // measure 46
0000
0000
0003
0000
,  // measure 47
0000
0000
0000
0000
,  // measure 48
0000
0000
0000
0000
,  // measure 49
0000
0000
1000
0010
,  // measure 50
1000
0000
0010
1000
,  // measure 51
0010
0000
0100
0001
,  // measure 52
0100
0000
0001
0100
,  // measure 53
0001
0000
1000
0100
,  // measure 54
1000
0000
0100
1000
,  // measure 55
0100
0000
0010
0000
,  // measure 56
0001
0000
0010
0001
,  // measure 57
0011
0000
1000
0010
,  // measure 58
1000
0010
0100
0100
,  // measure 59
0100
0000
0001
0010
,  // measure 60
0001
0010
0100
0100
,  // measure 61
0100
0000
1000
0100
,  // measure 62
1000
0100
0010
0010
,  // measure 63
0010
0000
0001
0100
,  // measure 64
0001
0100
0010
0010
,  // measure 65
0020
0030
2000
3000
,  // measure 66
0002
0003
0010
0000
;

//---------------dance-single - ----------------
#NOTES:
     dance-single:
     C 06 X 09:
     Medium:
     6:
     0.294644,0.376508,0.218383,0.177942,0.024265,255.000000,228.000000,27.000000,22.000000,0.000000,0.000000,0.294644,0.376508,0.218383,0.177942,0.024265,255.000000,228.000000,27.000000,22.000000,0.000000,0.000000:
// measure 0
0000
0000
0000
0000
,  // measure 1
0000
0000
0000
0000
,  // measure 2
0000
0000
0000
0000
,  // measure 3
1000
0100
0010
0000
,  // measure 4
0001
0100
0010
0000
,  // measure 5
1000
0010
0100
0000
,  // measure 6
0001
0010
0100
0000
,  // measure 7
1000
0001
0100
0000
,  // measure 8
0001
1000
0100
0000
,  // measure 9
1001
0000
0110
0000
,  // measure 10
1000
0001
0010
0000
,  // measure 11
0000
0000
0000
0000
,  // measure 12
0000
0000
0000
0001
,  // measure 13
0101
1000
1100
0001
,  // measure 14
0100
0010
0000
1000
,  // measure 15
0100
0010
0001
0100
,  // measure 16
0010
1000
0000
0001
,  // measure 17
0011
1000
1010
0001
,  // measure 18
0010
0100
0000
0110
,  // measure 19
0001
1001
1000
0001
,  // measure 20
0010
0002
2003
3002
,  // measure 21
2003
3002
2003
3001
,  // measure 22
0000
0000
0000
1000
0000
0100
0000
0010
,  // measure 23
0000
0001
0000
1000
0000
0010
0000
0100
,  // measure 24
0000
0001
0000
0010
0000
0001
0000
1000
,  // measure 25
0000
0100
1000
0000
0000
0000
0000
0001
,  // measure 26
0000
1000
0000
0001
0000
0010
0000
0100
,  // measure 27
0000
1000
0000
0001
0000
0100
0000
0010
,  // measure 28
0000
1000
0001
0000
0000
0001
1000
0000
,  // measure 29
0000
1000
0001
0000
1001
0000
0110
0000
,  // measure 30
0000
0000
0000
0000
,  // measure 31
0000
0000
0000
1000
,  // measure 32
1010
0001
0101
1000
,  // measure 33
0100
0010
0001
0000
0000
0000
1000
0000
,  // measure 34
0100
0000
0001
0000
0100
0000
1000
0010
,  // measure 35
1000
0010
1000
0000
0000
0000
0001
0000
,  // measure 36
0011
1000
1100
0001
,  // measure 37
0100
0010
1000
0000
0000
0000
0110
0000
,  // measure 38
0100
0000
1001
0000
0001
0000
1000
0100
,  // measure 39
1000
0100
0020
0000
0230
0000
0320
0000
,  // measure 40
0230
0320
0230
0320
,  // measure 41
0230
0000
1300
0000
0010
0000
0100
0100
,  // measure 42
0001
0010
0100
1000
,  // measure 43
0010
0001
0000
0001
,  // measure 44
0010
0000
0000
0000
0000
0000
0000
0000
0000
0000
0000
0000
0000
0000
2000
0000
0000
0000
0000
0000
0000
0000
0000
0000
0000
0000
0000
0000
0000
0000
0000
0000
0000
3200
0000
0000
0000
0000
0000
0000
0000
0000
0000
0000
0000
0000
0000
0000
,  // measure 45
0000
0000
0000
0000
0000
0000
0000
0000
0000
0000
0000
0000
0000
0000
0000
0000
0000
0000
0000
0000
0000
0000
0000
0000
0320
0000
0000
0000
0000
0000
0000
0000
0000
0000
0000
0000
0000
0000
0000
0000
0000
0000
0000
0000
0000
0000
0000
0000
0000
0000
0000
0000
0000
0000
0000
0000
0000
0000
0000
0000
0000
0000
0000
0000
0000
0000
0000
0000
0000
0000
0000
0000
0000
0000
0000
0000
0000
0000
0000
0000
0000
0000
0000
0000
0000
0000
0000
0000
0000
0000
0000
0000
0000
0000
0000
0000
0000
0000
0000
0000
0000
0000
0000
0000
0000
0000
0000
0000
0000
0000
0000
0000
0000
0002
0000
0000
0030
0000
0000
0000
0000
0000
0000
0000
0000
0000
0000
0000
0000
0000
0000
0000
0000
0000
0000
0000
0000
0000
0000
0000
0000
0000
0000
0000
0000
0000
0000
0000
0000
0000
0000
0000
0000
0000
0000
0000
0000
0000
0000
0000
0000
0000
0000
0000
0000
0000
0000
0000
0000
0000
0000
0000
0000
0000
0000
0000
0000
0000
0000
0000
0000
0000
0000
0000
0000
0000
0000
0000
0000
0000
0000
0000
,  // measure 46
0000
0000
0003
0000
,  // measure 47
0000
0000
0000
0000
,  // measure 48
0000
0000
0000
0000
0000
0000
0000
0000
0000
0000
0000
0000
0000
0000
0000
0000
0000
0000
0000
0000
0000
0000
0000
0000
0000
0000
0000
0000
0000
0000
0000
0000
0000
0000
0000
0000
0000
0000
0000
0000
0000
0000
0000
0000
0000
0000
0000
0000
0000
0000
0000
0000
0000
0000
0000
0000
0000
0000
0000
0000
0000
0000
0000
0000
0000
0000
0000
0000
0000
0000
0000
0000
0000
0000
0000
0000
0000
0000
0000
0000
0000
0000
0000
0000
0000
0000
0000
0000
0000
0000
0000
0000
0000
0000
0000
0000
0000
0000
0000
0000
0000
0000
0000
0000
0000
0000
0000
0000
0000
0000
0000
0000
0000
0000
0000
0000
0000
0000
0000
0000
0000
0000
0000
0000
0000
0000
0000
0000
0000
0000
0000
0000
0000
0000
0000
0000
0000
0000
0000
0000
0000
0000
1000
0000
0000
0000
0000
0000
0000
0000
0000
0000
0000
0000
0000
0000
0000
0000
0000
0000
0000
0000
0000
0000
0000
0000
0000
0000
0000
0000
0000
0000
0000
0000
0000
0000
0000
0000
0000
0000
0000
0000
0000
0000
0000
0000
0000
0000
0000
0000
0010
0000
,  // measure 49
0000
0000
0000
0000
0000
0000
0000
0000
0000
0000
0000
0000
0000
0000
0000
0000
0000
0000
0000
0000
0000
0000
0000
0000
0000
0000
0000
0000
0000
0000
0000
0000
0000
0000
0000
0000
0000
0000
0000
0000
0000
0000
0000
0000
0000
0000
1000
0000
0000
0000
0000
0000
0000
0000
0000
0000
0000
0000
0000
0000
0000
0000
0000
0000
0000
0000
0000
0000
0000
0000
0000
0000
0000
0000
0000
0000
0000
0000
0000
0000
0000
0000
0000
0000
0000
0000
0000
0000
0000
0000
0000
0000
0000
0000
0000
0000
0001
0000
0000
0000
0000
0000
0000
0000
0000
0000
0000
0000
0000
0000
0000
0000
0000
0000
0000
0000
0000
0000
0000
0000
0000
0000
0000
0000
0000
0000
0000
0000
0000
0000
0000
0000
0000
0000
0000
0000
0000
0000
0000
0000
0000
0000
0000
0000
0100
0000
0000
0000
0000
0000
0000
0000
0000
0000
0000
0000
0000
0000
0000
0000
0000
0000
0000
0000
0000
0000
0000
0000
0000
0000
0000
0000
0000
0000
0000
0000
0000
0000
0000
0000
0000
0000
0000
0000
0000
0000
0000
0000
0000
0000
0000
0000
,  // measure 50
1000
0000
0100
0000
0100
0000
0001
0100
,  // measure 51
1000
0100
0010
1000
,  // measure 52
0001
0100
0101
0000
,  // measure 53
0000
0001
1000
0001
1000
0000
0100
0000
,  // measure 54
0010
0100
1000
0001
,  // measure 55
0010
0000
0011
0001
,  // measure 56
1100
0000
1000
0000
0001
0100
0010
1000
,  // measure 57
0001
0000
1100
1100
,  // measure 58
0011
0000
0011
0000
1000
0100
0010
0001
,  // measure 59
1000
0000
0000
0000
0001
0100
0010
0000
,  // measure 60
1000
0100
0010
0000
0001
0100
1000
0100
,  // measure 61
0001
0000
1010
1010
,  // measure 62
0101
0000
0101
0000
1000
0010
0100
0001
,  // measure 63
1000
0000
0000
0000
0001
0010
0100
0000
,  // measure 64
1000
0010
0100
0000
0001
0010
1000
0010
,  // measure 65
0002
2003
3002
2003
,  // measure 66
3001
0010
0100
1000
0001
0000
0000
0000
;

//---------------dance-single - ----------------
#NOTES:
     dance-single:
     C 09 X 13:
     Hard:
     9:
     0.492228,0.618550,0.299266,0.177942,0.266913,426.000000,389.000000,37.000000,22.000000,51.000000,2.000000,0.492228,0.618550,0.299266,0.177942,0.266913,426.000000,389.000000,37.000000,22.000000,51.000000,2.000000:
// measure 0
0000
0000
0000
0000
,  // measure 1
0000
0000
0000
0000
,  // measure 2
0000
0000
0000
0000
,  // measure 3
0001
0000
0010
0000
0100
0000
1000
0010
,  // measure 4
1000
0000
0001
0010
0100
0000
0000
0000
,  // measure 5
1000
0100
0001
0000
,  // measure 6
0101
0000
0100
0000
1000
0000
1000
0010
,  // measure 7
1000
0000
0001
0100
0001
0000
1000
0100
,  // measure 8
1000
0000
0001
0010
0001
0000
1000
0000
,  // measure 9
0110
0001
0110
1000
,  // measure 10
0001
0010
0100
1000
0001
0000
0000
0000
,  // measure 11
0000
0000
0000
0000
,  // measure 12
0010
0100
0010
0110
,  // measure 13
1001
0000
0110
0000
1001
0000
0001
0001
,  // measure 14
0100
0010
0100
0000
0110
0000
0010
1000
,  // measure 15
0010
0000
0100
0001
0100
0000
0001
0001
,  // measure 16
0010
0100
1000
0001
0100
0000
0011
0000
,  // measure 17
1010
0000
1100
0000
0101
0000
0001
0001
,  // measure 18
0010
0100
0010
0M00
00M0
0000
0001
1000
,  // measure 19
0001
0000
0100
0010
0100
0000
0001
0001
,  // measure 20
0100
0010
2000
0001
000M
0010
00M0
0100
,  // measure 21
0M00
0001
000M
0010
00M0
0001
300M
0100
,  // measure 22
0100
1000
2000
0000
3020
0000
0230
0000
,  // measure 23
0301
1000
0001
0000
2000
3020
0230
0000
,  // measure 24
0301
0010
0200
0000
0301
0100
0010
0001
,  // measure 25
0000
0001
1000
0010
0001
0010
1000
0001
,  // measure 26
0100
0001
0010
0000
0001
0100
1000
0000
,  // measure 27
0001
0000
0010
0000
0100
0000
0010
0000
1000
0000
0100
0000
0010
0000
M000
000M
,  // measure 28
M000
000M
0010
0000
0100
0000
0100
0000
1000
0000
0010
0000
0100
0000
0100
0000
,  // measure 29
0001
0010
0100
1000
0010
0001
0100
0000
,  // measure 30
0000
0000
0000
0000
0000
0000
0000
0000
000M
0000
0000
00M0
0000
0000
M000
0000
0000
000M
0000
0000
M000
0000
0000
0000
00M0
0000
0000
0000
000M
0000
0000
0000
0000
0000
0000
0000
0M00
0000
0000
0000
0M00
0000
0000
0000
0000
0000
0000
1000
,  // measure 31
0000
0000
0000
0000
0000
0000
0000
0000
0000
0000
0000
0000
0000
0000
0000
0000
0000
0000
0000
0000
0000
0000
0000
0000
0000
0000
0000
0000
0000
0000
0000
0000
0000
0000
0000
0000
0000
0000
0000
0000
0000
0000
0000
0000
0001
0000
0000
0000
0000
0000
0000
0000
0000
0000
0000
0000
0000
0000
0000
0000
0000
0000
0000
0000
0000
0000
0000
0000
0000
0000
0000
0000
0000
0000
0000
0000
0000
0000
0000
0000
0000
0000
0000
0000
0000
0000
0000
0000
1000
0000
0000
0000
0000
0000
0000
0000
0000
0000
0000
0000
0000
0000
0000
0000
0000
0000
0000
0000
0000
0000
0000
0000
0000
0000
0000
0000
0000
0000
0000
0000
0000
0000
0000
0000
0000
0000
0000
0000
0000
0000
0000
0000
0000
0000
0000
0000
0000
0000
0000
0000
0000
0000
0000
0000
1000
0010
0000
0000
0000
0000
0000
0000
0000
0000
0000
0000
0000
0000
0000
0000
0000
0000
0000
0000
0000
0000
0000
0000
0000
0000
0000
0000
0000
0000
0000
0000
0000
0000
0000
0000
0000
0000
0000
0000
0000
0000
0000
0000
0000
0000
0000
0000
,  // measure 32
1100
0010
0000
0000
0000
0000
0000
0000
0000
0000
0000
0000
0000
0000
0000
0000
0000
0000
0000
0000
0000
0000
0000
0000
0000
0000
0000
0000
0000
0000
0000
0000
0000
0000
0000
0000
0000
0000
0000
0000
0000
0000
0000
0000
0000
0000
0000
0000
1000
0010
0000
0000
0000
0000
0000
0000
0000
0000
0000
0000
0000
0000
0000
0000
0000
0000
0000
0000
0000
0000
0000
0000
0000
0000
0000
0000
0000
0000
0000
0000
0000
0000
0000
0000
0000
0000
0000
0000
0000
0000
0000
0000
0000
0000
0000
0000
1100
0010
0000
0000
0000
0000
0000
0000
0000
0000
0000
0000
0000
0000
0000
0000
0000
0000
0000
0000
0000
0000
0000
0000
0000
0000
0000
0000
0000
0000
0000
0000
0000
0000
0000
0000
0000
0000
0000
0000
0000
0000
0000
0000
0000
0000
0000
0000
0001
0000
0000
0000
0000
0000
0000
0000
0000
0000
0000
0000
0000
0000
0000
0000
0000
0000
0000
0000
0000
0000
0000
0000
0100
0000
0000
0000
0000
0000
0000
0000
0000
0000
0000
0000
0000
0000
0000
0000
0000
0000
0000
0000
0000
0000
0000
0000
,  // measure 33
1000
0100
0001
0010
0010
0000
0001
0010
,  // measure 34
0001
0000
1000
0010
1000
0000
0100
0000
1000
0000
0001
0100
0001
0000
0010
0000
,  // measure 35
1000
0000
0000
0000
0000
0000
0000
0000
0000
0000
0000
0000
0000
0000
0000
0000
0000
0000
0000
0000
0000
0000
0000
0000
0010
0000
0000
0000
0000
0000
0000
0000
0000
0000
0000
0000
0000
0000
0000
0000
0000
0000
0000
0000
0000
0000
0000
0000
0001
0000
0000
0000
0000
0000
0000
0000
0000
0000
0000
0000
0000
0000
0000
0000
0000
0000
0000
0000
0000
0000
0000
0000
0010
0000
0000
0000
0000
0000
0000
0000
0000
0000
0000
0000
0000
0000
0000
0000
0000
0000
0000
0000
0000
0000
0000
0000
0001
0000
0000
0000
0000
0000
0000
0000
0000
0000
0000
0000
0000
0000
0000
0000
0000
0000
0000
0000
0000
0000
0000
0000
0100
0000
0000
0000
0000
0000
0000
0000
0000
0000
0000
0000
0000
0000
0000
0000
0000
0000
0000
0000
0000
0000
0000
0000
0100
0001
0000
0000
0000
0000
0000
0000
0000
0000
0000
0000
0000
0000
0000
0000
0000
0000
0000
0000
0000
0000
0000
0000
0000
0000
0000
0000
0000
0000
0000
0000
0000
0000
0000
0000
0000
0000
0000
0000
0000
0000
0000
0000
0000
0000
0000
0000
,  // measure 36
0100
0011
0000
0000
0000
0000
0000
0000
0000
0000
0000
0000
0000
0000
0000
0000
0000
0000
0000
0000
0000
0000
0000
0000
0000
0000
0000
0000
0000
0000
0000
0000
0000
0000
0000
0000
0000
0000
0000
0000
0000
0000
0000
0000
0000
0000
0000
0000
0100
0001
0000
0000
0000
0000
0000
0000
0000
0000
0000
0000
0000
0000
0000
0000
0000
0000
0000
0000
0000
0000
0000
0000
0000
0000
0000
0000
0000
0000
0000
0000
0000
0000
0000
0000
0000
0000
0000
0000
0000
0000
0000
0000
0000
0000
0000
0000
0100
0011
0000
0000
0000
0000
0000
0000
0000
0000
0000
0000
0000
0000
0000
0000
0000
0000
0000
0000
0000
0000
0000
0000
0000
0000
0000
0000
0000
0000
0000
0000
0000
0000
0000
0000
0000
0000
0000
0000
0000
0000
0000
0000
0000
0000
0000
0000
1000
0000
0000
0000
0000
0000
0000
0000
0000
0000
0000
0000
0000
0000
0000
0000
0000
0000
0000
0000
0000
0000
0000
0000
0010
0000
0000
0000
0000
0000
0000
0000
0000
0000
0000
0000
0000
0000
0000
0000
0000
0000
0000
0000
0000
0000
0000
0000
,  // measure 37
0001
0000
0010
0000
2000
0000
0000
3001
0000
0010
0001
0000
1000
0000
0100
0000
,  // measure 38
1000
0000
0001
0100
0001
0000
0010
0000
0001
0000
1000
0010
1000
0000
0100
0000
,  // measure 39
0001
0100
1100
0000
0101
0000
1100
0000
,  // measure 40
0101
0000
1010
0000
0011
0000
1010
1000
,  // measure 41
0001
1000
0100
0010
0100
0000
1000
0001
,  // measure 42
1000
0000
0010
0100
0010
1000
0000
1000
,  // measure 43
0001
0010
0001
0000
1000
0000
0100
0000
0010
0000
0000
0000
0001
0000
0000
0000
,  // measure 44
0100
0000
0000
0000
0000
0000
0000
0000
0000
0000
0000
0000
0000
0000
0002
0000
0000
0000
0000
0000
0000
0000
0000
0000
0000
0000
0000
0000
0000
0000
0000
0000
0000
0020
0000
0000
0000
0000
0000
0000
0000
0000
0000
0000
0000
0000
0000
0000
,  // measure 45
0000
0000
0000
0000
0000
0000
0000
0000
0000
0000
0000
0000
0000
0000
0000
0000
0000
0000
0000
0000
0000
0000
0000
0000
0200
0000
0000
0000
0000
0000
0000
0000
0000
0000
0000
0000
0000
0000
0000
0000
0000
0000
0000
0000
0000
0000
0000
0000
0000
0000
0000
0000
0000
0000
0000
0000
0000
0000
0000
0000
0000
0000
0000
0000
0000
0000
0000
0000
0000
0000
0000
0000
0000
0000
0000
0000
0000
0000
0000
0000
0000
0000
0000
0000
0000
0000
0000
0000
0000
0000
0000
0000
0000
0000
0000
0000
0000
0000
0000
0000
0000
0000
0000
0000
0000
0000
0000
0000
0000
0000
0000
0000
0000
2000
0000
0000
0000
0000
0000
0000
0000
0000
0000
0000
0000
0000
0000
0000
0000
0000
0000
0000
0000
0000
0000
0000
0000
0000
0000
0000
0000
0000
0000
0000
0000
0000
0000
0000
0000
0000
0000
0000
0000
0000
0000
0000
0000
0000
0000
0000
0000
0000
0000
0000
0000
0000
0000
0000
0000
0000
0000
0000
0000
0000
0000
0000
0000
0000
0000
0000
0000
0000
0000
0000
0000
0000
0000
0000
0000
0000
0000
0000
,  // measure 46
0000
0000
3333
0000
,  // measure 47
0MM0
0000
0000
MMMM
0000
0000
0000
0000
0000
0000
000M
000M
000M
000M
000M
000M
,  // measure 48
000M
0000
0000
0000
0000
0000
0000
0000
0000
M000
0000
0000
000M
0000
0000
0000
0000
0000
0000
0000
0000
0000
0000
0000
0M00
0000
0000
0000
0000
0000
0000
0000
0000
0000
0000
0000
0000
0000
0000
00M0
0000
0000
0000
0000
0000
0000
0000
0000
0000
0000
0000
0000
0000
0000
000M
0000
0000
0000
0000
0000
0000
0000
0000
0000
0000
0000
0000
0000
0000
0000
0000
0000
0000
0000
0000
0000
0000
0000
0000
0000
0000
0000
0000
0000
0000
0000
0000
MMMM
0000
0000
0000
0000
0000
0000
0000
0000
0000
0000
0000
0000
0000
0000
0000
0000
0000
0000
0000
0000
0000
0000
0000
0000
0000
0000
0000
0000
0000
0000
0000
0000
0000
0000
0000
0000
0000
0000
0000
0000
0000
0000
0000
0000
0000
0000
0000
0000
0000
0000
0000
0000
0000
0000
0001
0000
0000
0000
0000
0000
0000
0000
0000
0000
0000
0000
0000
0000
0000
0000
0000
0000
0000
0000
0000
0000
0000
0000
0000
0000
0000
0000
0000
0000
0000
0000
0000
0000
0000
0000
0000
0000
0000
0000
0000
0000
0000
0000
0000
0000
0000
0000
1000
0000
,  // measure 49
0000
0000
0000
0000
0000
0000
0000
0000
0000
0000
0000
0000
0000
0000
0000
0000
0000
0000
0000
0000
0000
0000
0000
0000
0000
0000
0000
0000
0000
0000
0000
0000
0000
0000
0000
0000
0000
0000
0000
0000
0000
0000
0000
0000
0000
0000
0001
0000
0000
0000
0000
0000
0000
0000
0000
0000
0000
0000
0000
0000
0000
0000
0000
0000
0000
0000
0000
0000
0000
0000
0000
0000
0000
0000
0000
0000
0000
0000
0000
0000
0000
0000
0000
0000
0000
0000
0000
0000
0000
0000
0000
0000
0000
0000
0000
0000
1000
0000
0000
0000
0000
0000
0000
0000
0000
0000
0000
0000
0000
0000
0000
0000
0000
0000
0000
0000
0000
0000
0000
0000
0010
0000
0000
0000
0000
0000
0000
0000
0000
0000
0000
0000
0000
0000
0000
0000
0000
0000
0000
0000
0000
0000
0000
0000
1000
0000
0000
0000
0000
0000
0000
0000
0000
0000
0000
0000
0000
0000
0000
0000
0000
0000
0000
0000
0000
0000
0000
0000
0010
0000
0000
0000
0000
0000
0000
0000
0000
0000
0000
0000
1000
0000
0000
0000
0000
0000
0000
0000
0000
0000
0000
0000
,  // measure 50
0001
0000
0100
0000
0001
0100
0001
0000
1000
0000
0010
0000
0001
0000
0010
0000
,  // measure 51
2000
0000
3001
0010
0001
0100
1000
0100
,  // measure 52
0001
0100
1000
0100
0001
0001
1000
0001
,  // measure 53
0001
0010
0010
0010
0100
1000
0001
0100
,  // measure 54
0010
1000
0001
0010
1000
0001
1000
0010
,  // measure 55
0001
0000
0100
0000
0010
0000
1000
0000
0001
0000
0001
0000
0100
0000
0100
0010
,  // measure 56
1000
0000
1000
0000
0100
0000
0010
0000
0110
0000
1001
0000
0001
0100
0010
0000
,  // measure 57
1000
0010
0000
0000
0000
0000
0000
0000
0000
0000
0000
0000
0000
0000
0000
0000
0000
0000
0000
0000
0000
0000
0000
0000
0000
0000
0000
0000
0000
0000
0000
0000
0000
0000
0000
0000
0000
0000
0000
0000
0000
0000
0000
0000
0000
0000
0000
0000
0000
0000
0000
0000
0000
0000
0000
0000
0000
0000
0000
0000
0000
0000
0000
0000
0000
0000
0000
0000
0000
0000
0000
0000
0000
0000
0000
0000
0000
0000
0000
0000
0000
0000
0000
0000
0000
0000
0000
0000
0000
0000
0000
0000
0000
0000
0000
0000
110M
0010
0000
0000
0000
0000
0000
0000
0000
0000
0000
0000
0000
0000
0000
0000
0000
0000
0000
0000
0000
0000
0000
0000
0000
0000
0000
0000
0000
0000
0000
0000
0000
0000
0000
0000
0000
0000
0000
0000
0000
0000
0000
0000
0000
0000
0000
0000
11M0
0001
0000
0000
0000
0000
0000
0000
0000
0000
0000
0000
0000
0000
0000
0000
0000
0000
0000
0000
0000
0000
0000
0000
0000
0000
0000
0000
0000
0000
0000
0000
0000
0000
0000
0000
0000
0000
0000
0000
0000
0000
0000
0000
0000
0000
0000
0000
,  // measure 58
1M00
0011
0000
0000
0000
0000
0000
0000
0000
0000
0000
0000
0000
0000
0000
0000
0000
0000
0000
0000
0000
0000
0000
0000
0000
0000
0000
0000
0000
0000
0000
0000
0000
0000
0000
0000
0000
0000
0000
0000
0000
0000
0000
0000
0000
0000
0000
0000
M100
0011
0000
0000
0000
0000
0000
0000
0000
0000
0000
0000
0000
0000
0000
0000
0000
0000
0000
0000
0000
0000
0000
0000
0000
0000
0000
0000
0000
0000
0000
0000
0000
0000
0000
0000
0001
0000
0000
0000
0000
0000
0000
0000
0000
0000
0000
0000
0100
0000
0000
0000
0000
0000
0000
0000
0000
0000
0000
0000
0000
0000
0000
0000
0000
0000
0000
0000
0000
0000
0000
0000
0100
0000
0000
0000
0000
0000
0000
0000
0000
0000
0000
0000
0000
0000
0000
0000
0000
0000
0000
0000
0000
0000
0000
0000
0010
0000
0000
0000
0000
0000
0000
0000
0000
0000
0000
0000
0000
0000
0000
0000
0000
0000
0000
0000
0000
0000
0000
0000
1000
0000
0000
0000
0000
0000
0000
0000
0000
0000
0000
0000
0000
0000
0000
0000
0000
0000
0000
0000
0000
0000
0000
0000
,  // measure 59
0010
0000
0010
0000
0110
0000
0100
0000
0001
0010
0001
0000
1000
0000
0100
1000
,  // measure 60
0001
1000
0100
0000
0010
0000
0001
0100
0001
0000
1000
0000
1100
0000
0010
0000
,  // measure 61
0010
0001
0000
0000
0000
0000
0000
0000
0000
0000
0000
0000
0000
0000
0000
0000
0000
0000
0000
0000
0000
0000
0000
0000
0000
0000
0000
0000
0000
0000
0000
0000
0000
0000
0000
0000
0000
0000
0000
0000
0000
0000
0000
0000
0000
0000
0000
0000
0000
0000
0000
0000
0000
0000
0000
0000
0000
0000
0000
0000
0000
0000
0000
0000
0000
0000
0000
0000
0000
0000
0000
0000
0000
0000
0000
0000
0000
0000
0000
0000
0000
0000
0000
0000
0000
0000
0000
0000
0000
0000
0000
0000
0000
0000
0000
0000
M010
0101
0000
0000
0000
0000
0000
0000
0000
0000
0000
0000
0000
0000
0000
0000
0000
0000
0000
0000
0000
0000
0000
0000
0000
0000
0000
0000
0000
0000
0000
0000
0000
0000
0000
0000
0000
0000
0000
0000
0000
0000
0000
0000
0000
0000
0000
0000
10M0
0101
0000
0000
0000
0000
0000
0000
0000
0000
0000
0000
0000
0000
0000
0000
0000
0000
0000
0000
0000
0000
0000
0000
0000
0000
0000
0000
0000
0000
0000
0000
0000
0000
0000
0000
0000
0000
0000
0000
0000
0000
0000
0000
0000
0000
0000
0000
,  // measure 62
1M10
0001
0000
0000
0000
0000
0000
0000
0000
0000
0000
0000
0000
0000
0000
0000
0000
0000
0000
0000
0000
0000
0000
0000
0000
0000
0000
0000
0000
0000
0000
0000
0000
0000
0000
0000
0000
0000
0000
0000
0000
0000
0000
0000
0000
0000
0000
0000
101M
0100
0000
0000
0000
0000
0000
0000
0000
0000
0000
0000
0000
0000
0000
0000
0000
0000
0000
0000
0000
0000
0000
0000
0000
0000
0000
0000
0000
0000
0000
0000
0000
0000
0000
0000
1000
0000
0000
0000
0000
0000
0000
0000
0000
0000
0000
0000
0100
0000
0000
0000
0000
0000
0000
0000
0000
0000
0000
0000
0000
0000
0000
0000
0000
0000
0000
0000
0000
0000
0000
0000
0100
0000
0000
0000
0000
0000
0000
0000
0000
0000
0000
0000
0000
0000
0000
0000
0000
0000
0000
0000
0000
0000
0000
0000
0010
0000
0000
0000
0000
0000
0000
0000
0000
0000
0000
0000
0000
0000
0000
0000
0000
0000
0000
0000
0000
0000
0000
0000
0001
0000
0000
0000
0000
0000
0000
0000
0000
0000
0000
0000
0000
0000
0000
0000
0000
0000
0000
0000
0000
0000
0000
0000
,  // measure 63
0010
0000
0100
0000
0011
0000
0000
0000
1000
0010
0100
0010
1000
0000
0001
0010
,  // measure 64
1000
0000
0001
0100
1000
0000
0001
0000
0001
0000
0001
0000
0101
0000
0010
0000
,  // measure 65
2000
0010
3002
0010
2003
0100
3002
0100
,  // measure 66
2003
3020
0032
0203
1300
0000
0000
0000
;
