#TITLE:Well, Everybody's Fucking In A U.F.O.;
#SUBTITLE:WHY DID I STEP THIS?;
#ARTIST:Rob Zombie;
#TITLETRANSLIT:;
#SUBTITLETRANSLIT:;
#ARTISTTRANSLIT:;
#GENRE:;
#CREDIT:;
#BANNER:Well, Everybody's Fucking In A UFO.png;
#BACKGROUND:Well, Everybody's Fucking In A UFO-bg.png;
#LYRICSPATH:;
#CDTITLE:cdtitle.png;
#MUSIC:Well, Everybody's Fucking In A UFO.ogg;
#OFFSET:-3.610657;
#SAMPLESTART:61.274445;
#SAMPLELENGTH:16.551723;
#SELECTABLE:YES;
#BPMS:0.000000=116.000000
;
#STOPS:54.000000=0.517000,
61.000000=0.517000,
100.000000=0.517000,
121.000000=1.034000,
177.000000=0.517000,
198.000000=1.034000
;
#BGCHANGES:;
#KEYSOUNDS:;
#ATTACKS:;

//---------------dance-single - ----------------
#NOTES:
     dance-single:
     :
     Challenge:
     9:
     0.706547,0.700959,0.389435,0.241450,0.907384,635.000000,585.000000,50.000000,31.000000,174.000000,0.000000,0.706547,0.700959,0.389435,0.241450,0.907384,635.000000,585.000000,50.000000,31.000000,174.000000,0.000000:
// measure 0
0001
0000
0100
0010
1000
0000
0010
0100
0001
0000
0100
0010
1000
0000
0001
0010
,  // measure 1
0100
0000
1000
0100
0010
0000
0001
0010
0100
0000
1000
0100
0010
0000
0001
1000
,  // measure 2
0010
0000
1000
0001
0010
0000
0001
1000
0010
0000
1000
0001
0010
0000
0100
1000
,  // measure 3
0001
0000
0100
0001
1000
0000
0100
1000
0001
0000
M2MM
0000
M01M
0000
M31M
0000
,  // measure 4
1000
0000
1000
0001
0100
0001
1000
0001
0010
0100
0000
2000
0000
0000
3100
0010
,  // measure 5
0100
1000
0001
0000
0100
0010
0000
0020
1000
0000
0000
0000
1030
0000
0000
1000
,  // measure 6
0001
0000
0001
0000
1000
0000
0001
0010
0100
0000
0010
0001
0100
0001
0100
2000
,  // measure 7
0000
3100
0010
0000
0010
1000
0001
0020
0100
0000
0000
0000
0130
2000
0000
0000
,  // measure 8
3001
0000
0001
0000
0100
0001
0100
0001
1000
0001
0000
0020
0000
0000
0130
1000
,  // measure 9
0010
0000
0001
0000
0010
0000
1000
0200
0010
0000
0000
0000
0310
0000
0001
0000
,  // measure 10
0100
0000
0100
0000
0010
0000
1000
0000
0001
0010
0000
0200
0000
0000
0310
0000
,  // measure 11
0100
0000
0100
0000
1000
0000
0001
0000
0100
0010
0000
1000
0000
0M01
0M10
0000
,  // measure 12
0011
0000
MMMM
0000
1001
0000
MMMM
0000
1010
0000
0100
M0M1
0000
1MM0
0000
0001
,  // measure 13
0011
MMMM
1001
MMMM
1010
0000
1100
MMMM
,  // measure 14
1001
0000
MMMM
0000
0101
0000
0010
1M0M
0000
0MM1
0000
1000
1100
0000
MMMM
0000
,  // measure 15
1001
0000
MMMM
0000
0101
0000
0001
0000
1000
0000
1000
0001
0100
0010
0000
2000
,  // measure 16
0000
0000
3100
0010
0100
0010
0100
1000
0001
0000
0100
0000
0010
0000
0010
0000
,  // measure 17
0000
0000
2001
0000
0000
0000
0010
0000
3010
0000
0100
0010
1000
0100
0000
0001
,  // measure 18
0000
0100
0000
2000
0000
0000
3010
0100
0010
0100
0001
1000
0001
0010
0000
0020
,  // measure 19
0100
0000
0000
0000
0130
0000
1MM0
0000
0001
0100
0001
0100
0010
1000
0000
0001
,  // measure 20
0000
1000
0000
0100
0000
1000
0100
1000
0001
1000
0010
0000
0001
0010
0000
0020
,  // measure 21
1000
0000
0000
0000
1030
0000
0010
1000
0001
0000
0001
1000
0100
0000
0010
0000
,  // measure 22
0100
0000
0000
1000
0000
0000
0000
0000
0000
2000
0000
0000
0000
0000
0000
0000
0000
0000
3010
0000
0000
0000
0000
0000
2010
0000
0000
0000
0000
0000
0000
0000
0000
0000
3000
0000
1001
0000
0000
0000
0000
0000
1000
0000
0000
0000
0000
0000
,  // measure 23
1100
0000
0000
0000
0000
0000
0010
0000
0001
0000
0010
0000
0001
0000
0000
1000
0000
0000
001M
0000
0000
100M
0000
0000
1010
0000
0000
0000
0000
0000
MMMM
0000
0000
0000
0000
0000
1001
0000
0000
0000
0000
0000
MMMM
0000
0000
0000
0000
0000
,  // measure 24
0011
0000
0100
10MM
0000
0MM1
0000
1000
1010
0000
MMMM
0000
1001
0000
MMMM
0000
,  // measure 25
0011
0000
0000
0000
0101
0000
MMMM
0000
1001
0000
MMMM
0000
1100
0000
0010
MM01
,  // measure 26
0000
1MM0
0000
0001
0101
0000
MMMM
0000
1001
0000
MMMM
0000
1100
0000
M0M1
0100
,  // measure 27
0001
0100
0020
0000
1030
0100
1000
0100
0010
0100
0010
0100
0001
0100
0001
0100
,  // measure 28
0010
0100
0010
0100
1000
0010
0100
0001
1000
0100
0000
0100
0020
0000
0000
0000
,  // measure 29
0130
0000
0020
0000
0031
0100
0001
0100
1000
0100
1000
0100
0001
0010
0001
0010
,  // measure 30
1000
0000
0010
0000
1000
0000
0010
0000
0001
0000
0000
0000
0000
0000
1000
0010
100M
0000
000M
0000
0010
0000
0000
0000
1MM1
0000
0000
0000
0001
0000
0000
0000
,  // measure 31
0010
0000
0100
1000
0010
0000
1000
0010
0100
0001
0000
0001
1MM1
0000
1000
0010
,  // measure 32
0100
0000
0001
0100
1000
0100
0001
0000
0010
0100
0000
0100
11MM
0000
1000
0000
,  // measure 33
0001
0000
0100
0010
1000
0000
0001
0010
0100
0010
0000
0001
1MM0
0001
0000
0001
,  // measure 34
0100
0000
0000
0000
0010
0000
0100
0000
0001
1000
0001
0000
1MM0
0000
0001
0000
0010
0000
0100
0000
M010
0000
0001
0000
1000
0000
0000
0000
1000
0000
0000
0000
,  // measure 35
0010
0000
0100
0001
0000
0002
0000
0103
0001
1000
0001
0000
0010
0000
0010
0000
,  // measure 36
0100
1000
0000
2000
0001
0000
0000
0000
3001
0000
1000
0010
1000
0000
0001
0000
,  // measure 37
0001
0000
1000
0000
0100
0010
0000
0002
0000
0000
0103
0001
0010
0000
0100
0000
,  // measure 38
1000
0001
0000
0002
0100
0000
0000
0000
0103
0001
0100
001M
1M00
0000
1000
0001
,  // measure 39
0010
0000
0001
0000
0001
1000
0000
0020
0000
0000
1030
0000
0010
0000
0001
0000
,  // measure 40
0010
1000
0000
2000
0100
0000
0000
0000
3100
0000
0010
0000
0001
0000
0001
0000
,  // measure 41
1000
0000
1000
0000
0001
0100
0001
0200
0000
0000
0310
1000
0001
0000
0001
1000
,  // measure 42
0100
0000
0000
0010
0000
0000
0000
0000
0000
0010
0000
0000
0001
0000
1000
0000
0001
0000
1M00
0000
0001
0M00
1000
0000
0001
0000
0000
0000
0000
0000
0000
0000
0000
0000
0000
0000
1010
0000
0000
0000
0000
0000
MMMM
0000
0000
0000
0000
0000
,  // measure 43
0110
0000
MMMM
0000
0101
0000
0010
1M0M
0000
0MM1
0000
0010
0011
0000
MMMM
0000
,  // measure 44
0110
MMMM
1100
0000
0101
MMMM
0110
MMMM
,  // measure 45
1010
0000
0100
M0M1
0000
1MM0
0000
0100
1100
0000
MMMM
0000
0110
0000
MMMM
0000
,  // measure 46
0011
0000
1000
0010
1000
0010
0200
0000
0301
0100
0001
0100
0010
0100
0010
0100
,  // measure 47
1000
0100
1000
0100
0010
0100
0010
0100
0001
0010
0100
1000
0001
0100
0000
0100
,  // measure 48
0020
0000
0000
0000
0130
0000
0020
0000
1030
0100
1000
0100
0001
0100
0001
0100
,  // measure 49
1000
0010
1000
0010
0001
0010
0001
0010
1000
0000
0100
0010
0001
0010
0100
1000
,  // measure 50
1MM1
0000
0001
0000
0100
0000
0010
1000
0100
0000
0010
0100
1000
0001
0000
0001
,  // measure 51
1MM1
0000
1000
0000
0010
0000
0100
0001
0010
0000
0100
1000
0010
1000
0000
1000
,  // measure 52
1MM1
0000
0001
0000
1000
0000
1000
0000
0100
0010
0100
1000
0001
1000
0000
0010
,  // measure 53
M10M
0010
0000
1000
0001
0000
0010
0100
1000
0000
0001
0100
0000
0010
1000
0001
,  // measure 54
1MM1
0000
1000
0000
0100
0000
0001
0100
1000
0000
0010
0100
0001
1000
0000
1000
,  // measure 55
1MM1
0000
0001
0100
0010
0000
0100
0000
1000
0000
0100
0001
0000
0001
0010
0000
,  // measure 56
01MM
1000
0000
1000
0010
0000
0001
0000
1000
0000
0100
0001
0000
0001
0010
0000
,  // measure 57
01MM
1000
0000
1000
0001
0000
1000
0001
0100
0010
0100
M11M
0000
2MM2
0000
3003
,  // measure 58
0000
M00M
0000
0000
0000
0000
0000
0000
0000
0000
0000
0000
0000
0000
0000
0000
;

//---------------dance-single - ----------------
#NOTES:
     dance-single:
     :
     Hard:
     8:
     0.554111,0.497455,0.264816,0.147985,0.412802,498.000000,464.000000,34.000000,19.000000,110.000000,0.000000,0.554111,0.497455,0.264816,0.147985,0.412802,498.000000,464.000000,34.000000,19.000000,110.000000,0.000000:
// measure 0
100M
0100
100M
0010
010M
0010
100M
0100
,  // measure 1
M010
0001
M100
0010
M100
0001
M010
0001
,  // measure 2
1M00
0010
1M00
0001
0M10
1000
0M10
0001
,  // measure 3
10M0
0000
0100
0000
00M1
0000
0100
0000
10M0
000M
0M20
M000
0001
0000
0000
0000
,  // measure 4
1030
0000
0100
0000
0010
0000
0100
0000
1000
0010
0000
0010
0100
0000
0001
0000
,  // measure 5
0010
0000
0100
0000
0010
0001
0000
0002
1000
0000
0000
0000
1003
0000
0000
0000
,  // measure 6
0001
0000
0100
0000
0010
0000
0100
0000
0001
0000
0010
0000
1000
0000
0010
0001
,  // measure 7
0000
0001
0100
0000
0010
0000
1000
0002
1000
0000
0000
0000
1003
0000
0001
0000
,  // measure 8
1000
0000
0100
0000
1000
0000
0001
0000
0100
0010
0000
0010
1000
0000
0010
0000
,  // measure 9
0001
0000
0010
0000
1000
0000
0001
2000
0001
0000
0000
0000
3001
0000
1000
0000
,  // measure 10
0100
0000
0010
0000
0001
0000
1000
0000
0010
0100
0000
0100
0001
0000
1000
0000
,  // measure 11
0100
0000
0001
0000
0100
0000
1000
0000
0001
0100
0000
0010
1000
0000
0001
0000
,  // measure 12
1MM1
0000
0000
0000
M11M
0000
0000
0000
1MM1
0000
0001
M100
0000
001M
0000
0100
,  // measure 13
M0M1
M11M
1MM1
1MM1
,  // measure 14
M11M
0000
0000
0000
1MM1
0000
1000
010M
0000
M010
0000
0100
10MM
0000
0000
0000
,  // measure 15
M11M
0000
0000
0000
1MM1
0000
0001
0000
1000
0000
0001
0000
1000
0100
0000
0100
,  // measure 16
0010
0100
1000
0001
0100
0010
1000
0001
,  // measure 17
0000
0000
1002
0000
0000
0000
0013
0000
0001
0000
0100
0000
0010
1000
0000
0001
,  // measure 18
0000
1000
0000
0001
0010
0000
0100
0000
1000
0000
0010
0000
1000
0001
0000
0002
,  // measure 19
1000
0000
0000
0000
1003
0000
001M
0000
1000
0000
0001
0000
0010
0100
0000
0010
,  // measure 20
0000
0100
0000
0010
0001
0000
0100
0000
1000
0000
0100
0000
0001
0010
0000
0020
,  // measure 21
0100
0000
0130
1000
0010
0001
0010
1000
,  // measure 22
0100
0010
0000
0010
0001
0000
1000
0000
0020
0000
0000
0030
0010
0000
1000
0000
,  // measure 23
0001
0000
1000
0001
1000
0000
0001
0000
1MM1
0000
0000
0000
M11M
0000
0000
0000
,  // measure 24
1MM1
0000
0001
M010
0000
010M
0000
0010
MM01
0000
0000
0000
M11M
0000
0000
0000
,  // measure 25
1MM1
0000
0000
0000
1MM1
0000
0000
0000
M11M
0000
0000
0000
1MM1
0000
1000
001M
,  // measure 26
0000
M100
0000
0010
1M0M
0000
0000
0000
M11M
0000
0000
0000
1MM1
0000
0001
0000
,  // measure 27
1000
0020
1030
0100
0010
0100
0001
0100
,  // measure 28
0010
0000
0100
0000
1000
0000
0001
0000
0100
0010
0000
0010
2000
0000
0000
0000
,  // measure 29
3100
0020
0031
0100
1000
0100
0001
0010
,  // measure 30
1000
0000
0010
0000
0001
0000
0000
0001
0100
0000
0010
0000
1000
0000
0010
0000
,  // measure 31
0001
0000
0010
0000
1000
0000
0100
0010
0000
0001
0000
0010
0001
0000
0100
0000
,  // measure 32
1000
0000
0100
0000
0010
0000
1000
0000
0100
0010
0000
0010
0001
0000
0010
0000
,  // measure 33
1000
0000
0010
0000
0001
0000
0100
0010
0000
1000
0000
0001
1000
0001
0000
1000
,  // measure 34
0100
0001
1000
0010
0001
1000
0001
0100
,  // measure 35
0010
0000
1000
0001
0000
1000
0000
0001
1000
0000
0100
0000
0010
0000
0100
0000
,  // measure 36
1000
0001
0000
0002
0100
0000
0000
0000
0103
0000
0001
0000
1000
0000
0100
0000
,  // measure 37
0001
0000
0100
0000
1000
0010
0000
0010
0100
0000
0001
0000
1000
0000
0001
0000
,  // measure 38
0010
0100
0000
0200
1000
0000
0000
0000
1300
0000
0M01
0000
1000
0000
0010
0000
,  // measure 39
0100
0000
0001
0000
1000
0100
0000
0100
0010
0000
0001
0000
0100
0000
1000
0000
,  // measure 40
0100
0001
0000
0002
0010
0000
0000
0000
0013
0000
0100
0000
1000
0000
0001
0000
,  // measure 41
1000
0000
0001
0000
0100
0000
0010
1000
0000
1000
0001
0000
1000
0000
0100
0000
,  // measure 42
0010
0001
0000
0001
0100
0000
0010
0000
1001
0000
0000
0000
11MM
0000
0000
0000
,  // measure 43
MM11
0000
0000
0000
11MM
0000
1000
00M1
0000
M100
0000
0001
1MM0
0000
0000
0000
,  // measure 44
11MM
MM11
M1M1
1M1M
,  // measure 45
M1M1
0000
0001
10M0
0000
010M
0000
1000
0MM1
0000
0000
0000
M1M1
0000
0000
0000
,  // measure 46
1M1M
1000
0100
0020
0031
0100
0010
0100
,  // measure 47
1000
0000
0100
0000
0010
0000
0100
0000
0001
0000
1000
0000
0100
0010
0000
0010
,  // measure 48
0002
0000
0103
0020
1030
0100
0001
0100
,  // measure 49
1000
0010
0001
0010
1000
1000
0010
0100
,  // measure 50
0001
0000
0010
0000
1000
0000
0010
0000
0001
0000
0100
0010
0000
1000
0000
0010
,  // measure 51
1000
0000
0100
0000
0001
0000
0100
0000
0010
0000
0001
0000
0100
0010
0000
0010
,  // measure 52
1000
0000
0010
0000
0001
0000
0010
0000
1000
0000
0100
0000
0010
0001
0000
1000
,  // measure 53
0001
1000
0000
0001
0100
0000
1000
0000
0001
0000
0010
0000
1000
0000
0001
0000
,  // measure 54
1000
0000
0100
0000
0001
0000
0100
0000
1000
0000
0010
1000
0000
0100
0000
0010
,  // measure 55
0001
0000
0100
0000
1000
0000
0100
0000
0001
0000
1000
0100
0000
0100
0010
0000
,  // measure 56
0001
1000
0000
1000
0001
0000
0100
0000
0010
0000
1000
0001
0000
0001
1000
0000
,  // measure 57
0010
0100
0000
0100
0001
0000
1000
0000
0100
0000
0000
1MM1
0000
2MM2
0000
3003
,  // measure 58
0000
M00M
0000
0000
0000
0000
0000
0000
0000
0000
0000
0000
0000
0000
0000
0000
;

//---------------dance-single - ----------------
#NOTES:
     dance-single:
     :
     Medium:
     6:
     0.425041,0.407009,0.412802,0.147985,0.128514,382.000000,329.000000,53.000000,19.000000,38.000000,0.000000,0.425041,0.407009,0.412802,0.147985,0.128514,382.000000,329.000000,53.000000,19.000000,38.000000,0.000000:
// measure 0
1000
0100
1000
0100
0020
0000
0031
0000
,  // measure 1
0001
0100
0001
0100
0020
0000
2030
0000
,  // measure 2
3001
0010
0001
0010
0200
0000
1300
0000
,  // measure 3
1000
0010
1000
0010
0100
00M2
1M00
00M0
,  // measure 4
1003
0100
0010
0000
0100
1000
0010
0000
,  // measure 5
0100
0001
0100
0001
2000
0000
3000
0000
,  // measure 6
0001
0010
0100
0000
0010
0001
0100
0000
,  // measure 7
0001
0100
1000
0100
0002
0000
0003
0000
,  // measure 8
0010
0100
1000
0000
0010
1000
0100
0000
,  // measure 9
1000
0010
0001
0010
2000
0000
3000
0000
,  // measure 10
0001
0100
0010
0000
0100
0001
0010
0000
,  // measure 11
0100
1000
0100
1000
0001
0000
0100
0000
,  // measure 12
1001
0000
0000
0000
0110
0000
0000
0000
1001
0000
0000
M001
0000
M001
0000
0000
,  // measure 13
1001
0110
1001
1001
,  // measure 14
0110
0000
0000
0000
1001
0000
0000
100M
0000
100M
0000
0000
1001
0000
0000
0000
,  // measure 15
0110
0000
1001
0000
0001
0010
0100
0000
,  // measure 16
0010
0100
1000
0000
0001
0100
0010
1000
,  // measure 17
0000
2001
0000
0000
3100
0000
1000
0100
,  // measure 18
0001
0100
2000
0000
3001
0100
0001
0100
,  // measure 19
0020
0000
0030
0000
1000
0100
0010
0000
,  // measure 20
0001
0100
0010
0000
0100
0001
1000
0001
,  // measure 21
0020
0000
0030
0000
0100
1000
0010
0000
,  // measure 22
0100
0001
0010
0000
0200
0000
1300
0100
,  // measure 23
0001
0100
1000
0000
1001
0000
0110
0000
,  // measure 24
1001
0000
0000
M01M
0000
M01M
0000
0000
1001
0000
0000
0000
0110
0000
0000
0000
,  // measure 25
1001
0000
0000
0000
1001
0000
0000
0000
0110
0000
0000
0000
1001
0000
0000
M10M
,  // measure 26
0000
M10M
0000
0000
1001
0000
0000
0000
0110
0000
0000
0000
0001
0000
1000
0000
,  // measure 27
0001
0000
1000
0100
1000
0100
0010
0001
,  // measure 28
0010
0001
1000
0000
0010
1000
0200
0000
,  // measure 29
0310
0000
0001
0100
0001
0100
1000
0100
,  // measure 30
1000
0100
0001
0000
MMMM
0000
0101
0000
,  // measure 31
1010
0000
0000
0000
1000
0000
0001
1000
0000
1000
0000
0000
1100
0000
0000
0000
,  // measure 32
0011
0000
0000
0000
0001
0000
1000
0001
0000
0001
0000
0000
1001
0000
0000
0000
,  // measure 33
0110
0000
0000
0000
1000
0000
0001
1000
0000
1000
0000
0000
0001
0000
0100
0000
,  // measure 34
1000
0000
1000
0100
0001
0000
0010
0100
,  // measure 35
1000
0000
0010
0100
0001
0000
1000
0001
,  // measure 36
1000
0001
0020
0000
0030
0000
0100
1000
,  // measure 37
0001
0000
0100
0001
1000
0000
0010
1000
,  // measure 38
0100
0010
0002
0000
0003
0000
0100
0001
,  // measure 39
0010
0000
0100
1000
0010
0000
1000
0010
,  // measure 40
0100
0001
2000
0000
3000
0000
0001
0100
,  // measure 41
0010
0000
1000
0010
0100
0000
0001
1000
,  // measure 42
0001
1000
0100
0000
0010
0000
0011
0000
,  // measure 43
1100
0000
0000
0000
0011
0000
0000
10MM
0000
10MM
0000
0000
1010
0000
0000
0000
,  // measure 44
0101
1010
1100
0011
,  // measure 45
1100
0000
0000
MM01
0000
MM01
0000
0000
0101
0000
0000
0000
1010
0000
0000
0000
,  // measure 46
1000
0001
1000
0000
0001
0100
0001
0100
,  // measure 47
0010
1000
0010
1000
0001
0000
0010
0001
,  // measure 48
0200
0000
0310
0000
1000
0100
1000
0100
,  // measure 49
0001
0100
0001
0100
1000
0000
MMMM
0000
,  // measure 50
1010
0000
0000
0000
0101
0000
0000
0000
0001
0000
1000
0001
0000
0001
0000
0000
,  // measure 51
0011
0000
0000
0000
1100
0000
0000
0000
1000
0000
0001
1000
0000
1000
0000
0000
,  // measure 52
1001
0000
0000
0000
0110
0000
0000
0000
0001
0000
1000
0001
0000
0001
0000
0000
,  // measure 53
1000
0100
0001
0000
0001
0100
1000
0000
,  // measure 54
1010
0000
0000
0000
1001
0000
0000
0000
0001
0000
0010
0001
0000
0010
0000
0000
,  // measure 55
0011
0000
0000
0000
1001
0000
0000
0000
1000
0000
0010
1000
0000
0010
0000
0000
,  // measure 56
0110
0000
0000
0000
1001
0000
0000
0000
0001
0000
1000
0001
0000
1000
0000
0000
,  // measure 57
0001
0000
0010
0000
0100
0000
1000
0000
0001
0000
0000
M1MM
0000
M2MM
0000
0300
,  // measure 58
0000
0M00
0000
0000
0000
0000
0000
0000
0000
0000
0000
0000
0000
0000
0000
0000
;

//---------------dance-single - ----------------
#NOTES:
     dance-single:
     :
     Easy:
     4:
     0.330464,0.405256,0.529632,0.101253,0.000000,297.000000,229.000000,68.000000,13.000000,8.000000,0.000000,0.330464,0.405256,0.529632,0.101253,0.000000,297.000000,229.000000,68.000000,13.000000,8.000000,0.000000:
1000
1000
0001
0001
,
1000
0100
0001
0100
,
1000
1000
0001
0001
,
1000
0010
0001
0010
,
1000
0100
0010
0100
,
1000
0001
0200
0300
,
0001
0100
0001
0010
,
1000
0010
0002
0003
,
0100
0001
1000
0100
,
0001
0100
2000
3000
,
0001
0100
0010
1000
,
0100
0010
0001
1000
,
1001
0101
0110
1010
,
1001
0101
1010
1001
,
1100
0110
0011
1001
,
1100
0011
0001
0100
,
0010
1000
0001
1000
,
0000
2001
0000
0000
3010
0000
0001
0000
,
0010
1000
0100
0010
,
0002
0003
1000
0010
,
1000
0100
0001
0100
,
2000
3000
0001
0100
,
0010
1000
0001
0001
,
1000
1000
1001
0011
,
0110
1100
1001
0101
,
1010
1001
1010
0110
,
0101
1001
1100
0011
,
0001
1000
0100
0001
,
0100
1000
0010
0200
,
0300
0001
0100
1000
,
0010
0001
MMMM
1010
,
0101
0000
0001
1000
0001
0000
0011
0000
,
1100
0000
1000
0001
1000
0000
0101
0000
,
1010
0000
1000
0001
1000
0000
1100
0000
,
0011
0000
0001
1000
0001
0000
1000
0000
,
0010
0100
0001
0010
,
0001
0200
0300
0001
,
0100
0010
1000
0100
,
0010
0002
0003
1000
,
0010
1000
0001
0010
,
0001
2000
3000
0001
,
0100
1000
0100
0001
,
0010
0100
1000
1010
,
1001
1100
1001
0011
,
1001
0101
0011
1001
,
0101
1001
1010
1001
,
1100
1000
0001
0100
,
1000
0100
0001
0010
,
0200
0300
1000
0100
,
0001
0010
1000
MMMM
,
1010
0000
1001
0000
1000
0100
1000
0000
,
0011
0000
1001
0000
0001
0100
0001
0000
,
1100
0000
1001
0000
1000
0010
1000
0000
,
0101
0000
1001
0000
0001
0010
0001
0000
,
0101
0000
1010
0000
0001
0100
0001
0000
,
1100
0000
0011
0000
1000
0100
1000
0000
,
1010
0000
0101
0000
1000
0010
1000
0000
,
0011
0000
0000
0000
1100
0000
0000
0000
2002
0000
0000
0000
0000
3003
0000
0000
;

//---------------dance-single - ----------------
#NOTES:
     dance-single:
     :
     Beginner:
     2:
     0.176915,0.201533,0.000000,0.000000,0.000000,159.000000,159.000000,0.000000,0.000000,0.000000,0.000000,0.176915,0.201533,0.000000,0.000000,0.000000,159.000000,159.000000,0.000000,0.000000,0.000000,0.000000:
1000
0000
0001
0000
,
1000
0000
0001
0000
,
0100
0000
0010
0000
,
0100
0000
0010
0000
,
1000
0000
1000
0000
,
0100
0100
0100
0000
,
0010
0000
0010
0000
,
0001
0001
0001
0000
,
0100
0000
0100
0000
,
0010
0010
0010
0000
,
1000
0000
1000
0000
,
0001
0000
1000
0000
,
0001
0001
0001
0001
,
0001
0001
0001
1000
,
1000
1000
1000
1000
,
1000
1000
0001
0000
,
0001
0000
0010
0010
,
0010
0000
0100
0000
,
0100
0000
1000
1000
,
1000
0000
0010
0000
,
0010
0000
0100
0100
,
0100
0000
0001
0000
,
0001
0000
1000
0000
,
0001
0000
1000
1000
,
1000
1000
1000
1000
,
1000
0001
0001
0001
,
0001
0001
0001
0001
,
0000
1000
0000
0100
,
0000
0010
0010
0010
,
0000
0001
0000
0100
,
0000
0010
0000
1000
,
1000
1000
0000
0100
,
0100
0100
0000
0001
,
0001
0001
0000
0010
,
0010
0010
0000
1000
,
0000
0001
0000
1000
,
1000
1000
0000
0100
,
0000
0010
0000
0100
,
0100
0100
0000
1000
,
0000
0010
0000
0100
,
0100
0100
0000
0001
,
0000
0010
0000
0100
,
0000
1000
0000
0001
,
0001
0001
0001
0001
,
0001
0001
1000
1000
,
1000
1000
1000
1000
,
1000
0000
0001
0000
,
0100
0000
0010
0010
,
0010
0000
1000
0000
,
0100
0000
0010
0000
,
0001
0001
0001
0000
,
0100
0100
0100
0000
,
1000
1000
1000
0000
,
0010
0010
0010
0000
,
0001
0001
0001
0000
,
0100
0100
0100
0000
,
1000
1000
1000
0000
,
0010
0010
0010
0000
;
