#VERSION:0.83;
#TITLE:The Sampling Paradise;
#SUBTITLE:;
#ARTIST:Mamonis;
#TITLETRANSLIT:;
#SUBTITLETRANSLIT:;
#ARTISTTRANSLIT:;
#GENRE:EDM;
#ORIGIN:;
#CREDIT:;
#BANNER:Sampling Paradiseee Banner.png;
#BACKGROUND:Sampling Paradiseeee Background.png;
#PREVIEWVID:;
#JACKET:;
#CDIMAGE:;
#DISCIMAGE:;
#LYRICSPATH:;
#CDTITLE:;
#MUSIC:The Sampling Paradise.ogg;
#OFFSET:-0.100000;
#SAMPLESTART:14.480143;
#SAMPLELENGTH:12.000000;
#SELECTABLE:YES;
#DISPLAYBPM:150.000000;
#BPMS:0.000=150.000,
32.000=300.000,
33.000=150.000,
64.000=300.000,
68.000=150.000,
85.000=300.000,
86.000=150.000,
87.000=300.000,
88.000=150.000,
89.000=300.000,
92.000=150.000,
96.000=75.000,
96.500=37.500,
96.875=18.750,
96.938=9.375,
97.000=150.000,
110.750=300.000,
112.000=150.000,
130.000=300.000,
131.500=150.000,
140.000=300.000,
141.000=150.000,
157.000=300.000,
158.000=150.000,
201.500=112.500,
202.000=75.000,
202.250=37.500,
202.375=18.750,
202.438=9.375,
202.500=18.750,
202.625=37.500,
202.875=75.000,
203.375=150.000,
204.000=225.000,
205.000=150.000,
225.750=300.000,
226.750=150.000,
227.750=300.000,
228.500=150.000,
244.000=225.000,
244.750=75.000,
245.000=150.000;
#STOPS:32.000=0.050,
32.250=0.050,
32.500=0.050,
32.750=0.050,
64.000=0.100,
64.500=0.050,
64.750=0.100,
65.250=0.050,
65.500=0.100,
66.000=0.050,
66.250=0.050,
66.500=0.100,
67.000=0.100,
67.500=0.100,
85.000=0.050,
85.250=0.050,
85.500=0.050,
85.750=0.050,
87.000=0.050,
87.250=0.050,
87.500=0.033,
87.667=0.033,
87.833=0.034,
89.000=0.050,
89.250=0.050,
89.500=0.050,
89.750=0.050,
90.000=0.050,
90.250=0.050,
90.500=0.050,
90.750=0.050,
91.000=0.050,
91.250=0.050,
91.500=0.050,
91.750=0.050,
110.750=0.100,
111.250=0.050,
111.500=0.100,
130.000=0.050,
130.250=0.100,
130.750=0.100,
131.250=0.050,
140.000=0.050,
140.250=0.050,
140.500=0.050,
140.750=0.050,
157.000=0.050,
157.250=0.050,
157.500=0.050,
157.750=0.050,
225.750=0.050,
226.000=0.050,
226.250=0.050,
226.500=0.050,
227.750=0.050,
228.000=0.050,
228.250=0.050;
#DELAYS:;
#WARPS:;
#TIMESIGNATURES:0.000=4=4;
#TICKCOUNTS:0.000=4;
#COMBOS:0.000=1;
#SPEEDS:0.000=1.000=0.000=0;
#SCROLLS:0.000=1.000;
#FAKES:;
#LABELS:0.000=Song Start;
#BGCHANGES:;
#KEYSOUNDS:;
#ATTACKS:
;

//---------------dance-single - ----------------
#NOTEDATA:;
#CHARTNAME:;
#STEPSTYPE:dance-single;
#DESCRIPTION:;
#CHARTSTYLE:;
#DIFFICULTY:Challenge;
#METER:11;
#RADARVALUES:0.945515,0.960363,0.141352,0.066519,1.650494,796.000000,779.000000,17.000000,8.000000,106.000000,0.000000,8.000000,0.000000,0.000000,0.945515,0.960363,0.141352,0.066519,1.650494,796.000000,779.000000,17.000000,8.000000,106.000000,0.000000,8.000000,0.000000,0.000000;
#CREDIT:Benpai;
#DISPLAYBPM:150.000000;
#NOTES:
0000
0000
0000
0000
,
0000
0000
0000
0000
,
0000
0000
0000
0000
,
000M
M000
0000
000M
M000
0000
0M00
00M0
0M00
M000
0M00
M000
0M00
0000
0000
00M0
,
000M
0000
M000
0M00
0000
00M0
0000
000M
00M0
000M
0000
M000
00M0
M000
0M00
0000
,
1001
0000
0001
0010
0001
0000
1000
0010
1000
0100
0010
0100
1000
0000
0001
0100
,
0010
1000
0100
0010
0100
0010
0001
0100
0010
0100
0001
1000
0100
1000
0100
0010
,
0001
1000
0100
1000
0010
0100
0001
0010
0001
1000
0100
0010
0100
1000
0010
0100
,
0001
1000
0001
1000
0002
0000
0000
0000
0103
0000
0000
0000
0110
0000
0000
0000
,
1000
0000
0100
1000
0100
0010
0001
0100
0000
0010
0100
0000
0001
0100
0001
0100
,
0010
0000
1000
0010
0000
0100
0010
1000
0000
1000
0000
1000
0001
0010
0100
0010
,
0001
0000
0010
0001
0000
1000
0100
0010
0001
0010
0001
0000
1000
0010
0100
0010
,
1000
0001
0100
0000
0100
0000
0100
0010
0000
1000
0000
0010
1000
0001
0010
0100
,
1000
0000
0001
0100
0000
0001
0000
0100
0010
0100
0010
0000
1000
0010
1000
0001
,
1000
0000
0100
0010
0001
1000
0010
0100
0001
0000
1000
0001
0000
1000
0010
0100
,
0010
0000
0000
0000
0000
0000
1000
0000
0000
0001
0000
0000
0010
0000
0000
0100
0000
0000
1000
0000
0000
0000
0000
0000
0100
0000
1000
0000
0100
0000
1000
0000
0000
0010
0000
0000
0100
0000
0000
0010
0000
0000
1000
0000
0000
0100
0000
0000
,
0010
0000
0001
0010
0000
0001
1000
0000
0010
0100
0010
0000
0010
0000
4000
0000
,
3001
0000
0010
0001
0000
0010
0100
1000
0000
1000
0000
0010
0100
0010
1000
0010
,
0100
0001
0010
0000
0010
0000
0001
0100
0010
0100
0001
0010
0000
0100
1000
0000
,
0001
0000
0100
0001
1000
0000
0001
0100
0000
0010
1000
0100
0010
0001
0100
0010
,
1000
0000
0010
1000
0000
1000
0001
0100
0010
0010
1000
0000
0010
0000
0100
0000
,
0001
0000
0000
0000
0000
0000
0010
0000
0000
0001
0000
0000
1000
0000
0000
0100
0000
0000
1000
0000
0000
0100
0000
0000
1000
0000
0000
0000
0000
0000
0010
0000
0000
0100
0000
0000
0001
0000
0000
0100
0000
0000
0001
0000
1000
0000
0001
0000
,
1000
0000
0100
0010
0001
0100
0010
1000
0001
0010
0001
0010
0001
1000
0010
0100
,
0001
0000
1000
0000
0100
1000
0000
0010
0000
0100
0000
0101
0000
0001
0010
0100
,
2000
0000
0000
0000
3001
0010
0100
0010
0001
0010
0000
0010
0000
0001
0000
1000
,
0010
0100
0001
0000
1000
0010
1000
0100
0010
0001
1000
0010
0100
0001
0010
0001
,
0100
0010
1000
0100
0000
0100
0000
1000
0100
0010
0001
0010
0000
0001
0010
0001
,
1000
0100
0010
0100
0010
0000
0100
1000
0010
0100
0001
1000
0000
0010
1000
0000
,
0010
0000
1000
0000
0010
0000
0100
0000
0000
0010
0000
0000
1000
0000
0000
0000
0000
0000
0100
0000
0000
0010
0000
0000
0100
0000
0000
1000
0000
0000
0001
0000
0000
0010
0000
0000
0000
0000
0000
0001
0000
0000
1000
0000
0000
0010
0000
0000
,
0100
0001
0100
0010
0100
0001
0010
0100
1000
0001
0000
1001
0000
1001
0000
1000
,
0001
0100
0010
1000
0010
1000
0100
0000
0010
0000
0001
0000
0100
0000
0010
0000
,
1000
0100
0010
0100
2000
0000
0000
0000
0000
0000
0000
0000
3001
0000
0000
0000
,
1001
0000
0000
0000
1000
0000
1000
0000
00M1
01M0
00M0
1MMM
00M0
0100
0010
1000
,
0100
0000
0000
1000
0000
0000
0010
0000
0100
0000
0010
0000
0100
0000
0000
0000
0000
0000
0010
0000
0000
0000
0000
0000
1000
0000
0000
0000
0000
0000
1000
0000
0000
01M0
0000
0000
M0M0
0000
0000
MMM1
0000
0000
M0M0
0000
0000
01M0
0000
0000
,
1000
0000
0000
0010
0000
0000
1000
0000
0100
0000
1000
0000
0100
0000
0000
1000
0000
0000
0010
0000
0000
0000
0000
0000
0010
0000
0000
0000
0000
0000
M100
0000
0000
M010
0000
0000
M000
0000
0000
M001
0000
0000
0010
0000
0100
000M
0010
0000
,
100M
001M
0100
0001
1000
0000
0001
0010
MM01
0000
0100
0010
MM00
0010
0000
1MM0
,
0001
0000
0010
0000
0100
0000
1000
0000
0000
0010
0000
0000
0100
0000
0000
000M
0000
0000
0100
0000
0000
0000
0000
0000
0001
0000
0000
1000
0000
0000
0000
0000
0000
0010
0000
0000
1000
0000
0000
000M
0000
0000
1000
0000
0000
0000
0000
0000
,
0100
0010
M000
0010
0001
0M00
0001
0000
0010
0001
M000
0001
0100
00M0
0100
0000
,
0010
0100
0001
1000
010M
1000
0100
0010
M001
0100
0001
0010
010M
1000
0010
0100
,
M001
0010
0001
1000
0010
1000
0010
1000
0010
0000
0100
0000
0110
0000
0000
0000
,
0004
0000
0000
0000
1003
0100
1000
0100
0010
0001
0000
0010
0000
0001
0100
0001
,
0010
0001
0100
0010
1000
0000
0001
1000
0010
1000
0000
0100
0000
0010
0000
0100
,
1000
0010
0100
0001
0000
0100
0001
0000
0001
0000
0010
0100
0000
0100
0000
1000
,
0100
0000
1000
0100
0010
0000
0100
1000
0000
0001
0100
0001
0010
0100
0010
0001
,
1000
0000
0100
0000
1000
0000
0100
0000
0000
1000
0000
0000
0001
0000
0000
0000
0000
0000
0100
0000
0000
0000
0000
0000
0010
0000
0000
0100
0000
0000
0000
0000
0000
0001
0000
0000
0000
0000
0000
0001
0000
0000
1000
0000
0000
0100
0000
0000
,
0010
0100
1000
0000
0001
0000
0001
0010
0100
1000
0000
1100
0000
1100
0000
0100
,
0010
0100
0010
0001
1000
0010
1000
0001
0010
0001
1000
0100
1000
0001
0100
0001
,
0010
0001
1000
0000
1000
0001
1000
0001
0100
0010
1000
0100
0010
0001
1000
0100
,
1000
0010
0100
0010
1000
0000
1000
0000
1001
0000
0001
0010
0000
0011
0000
M010
,
0M01
10M0
010M
1000
0010
0000
0110
0000
0100
0001
0000
0100
0000
0101
0000
100M
,
01M0
100M
0010
0100
M002
0M00
00M0
M000
0M00
00M0
M000
0M00
00M0
M000
0M00
00M0
,
M000
0M00
00M0
0000
1003
0000
0100
1000
0001
0100
0010
0000
0010
0000
4000
3040
,
0130
0000
0010
0000
1000
0001
0000
0010
0100
0000
0010
0000
0001
0100
0004
0003
,
0040
0030
0000
0110
0000
0000
0100
1000
0020
0000
1030
0000
0001
0000
0010
0100
,
0010
0000
0001
0000
1000
0100
0000
1000
0000
0001
0100
0001
1000
0000
0010
0000
,
4000
0000
3100
0010
0100
1000
0001
1000
0001
0000
0000
100M
0000
0100
0100
M001
,
0010
0000
0010
0000
0200
0000
0300
1000
0100
1000
0001
0100
0000
0010
0000
0100
,
0100
0010
1000
0000
0001
0000
011M
0000
11M0
0000
1M00
0001
0100
0001
0010
0001
,
0100
0000
0000
0010
0000
0000
1000
0000
0000
0001
0000
0000
2000
0000
0000
0000
0000
0000
0000
0000
0000
0000
0000
0000
0000
0000
0000
0000
0000
0000
0000
0000
0000
0000
0000
0000
0000
0000
0000
3100
0000
0000
1000
0000
0100
0000
0010
0000
,
0001
0000
0000
0000
1000
0000
0000
0000
0010
0000
0000
0000
0100
0000
0000
0010
0000
0000
0100
0000
0000
0000
0000
0000
0001
0000
0000
1000
0000
0000
0400
0000
0000
0300
0000
0000
1000
0000
0000
0001
0000
0000
0100
0000
0001
0000
0100
0000
,
0001
0010
0100
0010
0001
0100
0001
0100
0010
1000
0100
0010
0000
0100
1000
0010
,
0100
M00M
M00M
0000
0010
0000
1000
0010
1000
0010
0000
0100
M01M
0100
0000
0001
,
0100
0010
1000
0001
0100
0000
0001
0010
0001
0010
0000
0100
M01M
0100
0000
1000
,
0010
0100
0010
1000
0001
0000
0100
0000
0010
0000
1000
0010
0M0M
0010
0100
0010
,
1000
0100
0010
0100
1000
0000
0100
1000
0000
0100
0010
0100
M010
0001
0100
0010
,
1000
0000
0100
0000
0010
0000
0001
0000
0000
0010
0000
0000
0001
0000
0000
0000
0000
0000
0100
0000
0000
0001
0000
0000
0100
0000
0000
0010
0000
0000
0000
0000
0000
0100
0000
0000
M0M0
0000
0000
0001
0000
0000
0010
0000
0000
0100
0000
0000
,
0010
0001
0100
0010
0100
0000
0100
0010
1000
0100
0000
1000
0MM1
1000
0001
0010
,
0000
0100
0010
0001
1000
0000
0010
0100
0010
1000
0100
0001
M0M0
0100
0010
0001
,
1000
0000
0001
0000
0011
0000
1000
0100
0010
0100
1000
0010
0100
0001
0010
0100
,
0010
0001
1000
0002
0000
0000
0000
0000
0000
0000
0000
0000
0000
0000
0000
0000
,
0003
0000
0000
0000
;

//---------------dance-single - ----------------
#NOTEDATA:;
#CHARTNAME:;
#STEPSTYPE:dance-single;
#DESCRIPTION:;
#CHARTSTYLE:;
#DIFFICULTY:Hard;
#METER:10;
#RADARVALUES:0.826732,0.840941,0.108093,0.091463,1.405207,696.000000,683.000000,13.000000,11.000000,102.000000,0.000000,13.000000,0.000000,0.000000,0.826732,0.840941,0.108093,0.091463,1.405207,696.000000,683.000000,13.000000,11.000000,102.000000,0.000000,13.000000,0.000000,0.000000;
#CREDIT:Benpai;
#DISPLAYBPM:150.000000;
#NOTES:
0000
0000
0000
0000
,
0000
0000
0000
0000
,
0000
0000
0000
0000
,
000M
M000
0000
000M
M000
0000
0M00
00M0
0M00
M000
0M00
M000
0M00
0000
0000
00M0
,
000M
0000
M000
0M00
0000
00M0
0000
000M
00M0
000M
0000
M000
00M0
M000
0M00
0000
,
0001
0000
0010
0000
0011
0000
0001
0100
0010
0000
1000
0100
1000
0000
0001
0100
,
0010
0000
0100
0010
0100
0000
0001
0010
0001
0000
0100
0001
1000
0000
0100
0010
,
0004
0040
0000
0000
0000
0000
0000
0003
0430
4000
0000
0000
0000
0000
0000
0300
,
3001
1000
0010
0100
0002
0000
0000
0000
0103
0000
0000
0000
0101
0000
0000
0000
,
0001
0000
0100
0010
0000
1000
0000
0100
0000
0010
0200
0000
0000
0300
0010
0001
,
0010
0000
0100
0020
0000
0030
0001
1000
0000
0010
0000
0100
0001
0000
0000
0000
,
0100
0000
0010
0100
0000
0000
1000
0100
0001
0100
0001
0000
1000
0000
0100
0000
,
0010
0001
0000
0010
0001
0000
1000
0010
0000
0100
0000
0010
1000
0001
0010
0100
,
1000
0000
0001
0100
0000
0001
0000
0100
0010
0100
0010
0000
1000
0000
0100
0000
,
1000
0000
0000
0100
0010
0000
0000
0100
1000
0000
0001
0100
0000
0010
0100
0000
,
0010
0000
1000
0001
0010
0100
1000
0000
0100
0010
0001
0010
0100
1000
0010
0100
,
0010
0000
1000
0010
0000
0100
0010
0000
0100
0001
0100
0000
0001
0000
1000
0000
,
0100
0000
0010
0001
0000
0010
0001
0100
0000
0100
0000
0010
0100
0000
0010
0000
,
1000
0100
1000
0000
0010
0000
0100
0010
0000
0100
0001
0000
0010
0100
1000
0000
,
0001
0000
0100
0001
1000
0000
0001
0100
0000
0010
1000
0100
0000
1000
0100
0010
,
0001
0000
1000
0100
0000
1000
0010
0100
0001
0000
0100
0000
0010
0000
1000
0000
,
0001
0000
0010
0000
0100
0010
0100
0010
0100
0000
1000
0100
1000
0001
0400
0000
,
0310
0000
0100
0000
0010
1000
0010
1000
0001
0100
0001
0100
0010
1000
0001
0100
,
0010
0000
1000
0000
0100
1000
0000
0100
0000
0010
0000
0001
0000
1000
0010
0100
,
0002
0000
0000
0000
1003
0001
0100
0010
1000
0001
0000
0100
0000
0001
0000
0010
,
0100
1000
0000
0010
0100
0000
0100
0001
0000
1000
0100
0010
0100
1000
0010
1000
,
0001
1000
0010
0100
0000
0001
1000
0000
0010
0100
0000
0001
0100
0001
0010
0001
,
1000
0100
0010
0100
0010
0000
0001
1000
0000
0100
0010
0001
0000
0010
0001
0000
,
0010
0001
1000
0100
1000
0000
0010
0100
0000
0001
0100
0000
0010
1000
0000
0100
,
0010
0001
0100
0010
0100
0000
0001
0100
0001
0000
1000
0100
0000
0100
0000
1000
,
0001
0100
0010
0100
0001
1000
0100
0000
0010
0000
0001
0000
0100
0000
0010
0000
,
1000
0001
2000
0000
0000
0000
3001
0010
,
0011
0000
0000
0000
4000
0000
0000
3000
0001
MM10
0000
01MM
0000
MM10
0001
1000
,
0010
0100
0010
0100
0001
0000
0010
0000
0100
0000
0010
0001
0000
1M00
000M
0M10
,
100M
0000
0000
0000
0000
0000
0000
0000
0000
0000
0000
0000
0010
0000
0000
0000
0000
0000
0000
0000
0000
0000
0000
0000
0100
0000
0000
0000
0000
0000
0000
0000
0000
0000
0000
0000
M001
0000
0000
0000
0000
0000
0000
0000
0000
0000
0000
0000
M1M0
0000
0000
0000
0000
0000
0000
0000
00M0
0000
0000
0000
0001
0000
0000
0000
0000
0000
0000
0000
0000
0000
0000
0000
0010
0000
0000
0000
0000
0000
0000
0000
0000
0000
0000
0000
0M00
0000
0000
0000
0000
0000
0000
0000
0000
0000
0000
0000
0001
0000
0000
0000
0000
0000
0000
0000
0000
0000
0000
0000
0M00
0000
0000
0000
0000
0000
0000
0000
0000
0000
0000
0000
1000
0000
0000
0000
0000
0000
0000
0000
0000
0000
0000
0000
0010
0000
0000
0000
0000
0000
0000
0000
0000
0000
0000
0000
0000
0000
0000
0000
0000
0000
0000
0000
0000
0000
0000
0000
0100
0000
0000
0000
0000
0000
0000
0000
0000
0000
0000
0000
0040
0000
0000
0000
0000
0000
0000
0000
0000
0000
0000
0000
0430
0000
0000
0000
0000
0000
M000
0000
0000
0000
0000
0000
,
0310
0000
1000
00M0
0100
M00M
0010
0M00
0001
00M0
0000
0000
1000
0000
0000
0000
0100
0000
0000
0000
1M0M
0000
0M1M
0000
0M0M
0000
0M1M
0000
M000
0000
M100
0000
,
M001
M010
0001
1000
0010
0000
0100
0000
0001
1000
0000
0010
1000
0000
0010
0000
,
0100
0010
0000
0100
0001
0000
0010
0000
0001
0100
0000
0100
0001
0000
0010
0000
,
0100
1000
0000
0100
0010
0100
0000
0010
0001
0010
0000
0100
1000
0100
0000
1000
,
0001
1000
0000
0000
0010
0100
0010
0100
0010
0000
0100
0000
0001
0000
1000
0000
,
1004
0000
0000
0000
1003
0000
0010
0100
0010
0100
0000
0001
0000
0010
0100
0010
,
0001
0000
1000
0010
1000
0000
0001
1000
0010
1000
0000
0100
0000
1000
0000
0010
,
0001
0010
0100
0001
0000
1000
0001
0000
0010
0000
0001
0100
0000
0100
0000
1000
,
0100
0000
0010
0100
0010
0000
0100
0001
0000
0100
0010
1000
0100
0010
0100
1000
,
0001
0100
0001
0100
0001
0000
0100
0000
0001
0100
0000
0001
0000
1000
0100
0000
,
0010
0100
1000
0000
0001
0000
1000
0010
0100
0001
0000
0100
0000
0100
0000
0010
,
1000
0010
1000
0100
0010
0001
0010
0100
1000
0100
0010
0100
1000
0001
0100
0010
,
0000
0010
0100
0000
0001
0100
0001
0000
0100
0010
1000
0000
0100
0010
0001
0100
,
0010
0000
1000
0000
0100
0000
0010
0000
0001
0000
0000
0000
0001
0000
0000
M000
0001
0M00
0000
00M0
1000
000M
0100
0000
0000
0000
0010
0000
M000
0M00
00M1
0000
,
1000
0000
0010
0000
0100
0000
0001
0000
1000
0000
0000
0000
1000
0000
0000
000M
1000
00M0
0001
0M00
0000
0000
1000
000M
0000
00M0
0001
0M00
0000
00M0
1000
000M
,
0100
0010
0100
0010
0M02
M0M0
0M00
M0M0
0M00
M0M0
0M00
M0M0
0M00
M0M0
0M00
M0M0
,
0M00
M0M0
0M00
00M0
1003
0000
0001
0100
0000
0100
0010
0000
1000
0000
0400
0340
,
0031
0000
0010
0000
0001
0100
0000
0000
0100
0000
0010
0000
1000
0100
4000
3000
,
0004
0003
0000
1001
0000
0000
1000
0100
0020
0000
0130
0000
1000
0000
0010
0100
,
0000
00M0
0001
0000
0100
0001
0000
0100
0000
0010
0100
0001
0100
0000
0010
0000
,
2000
0000
3001
0100
0001
0000
1000
0100
1000
0000
0000
001M
0000
0100
0010
M100
,
0010
0000
1000
0000
0200
0000
0300
1000
0100
1000
0100
1000
0000
0010
0000
0100
,
0010
1000
0001
0000
1000
0000
0010
0000
0100
0000
0001
0010
0000
0001
0010
0000
,
0100
0010
0100
0010
0002
0000
0000
0000
0000
0000
0000
0000
0000
0103
1000
0000
,
0100
0000
0000
0000
0010
0000
0000
0000
0100
0000
0000
0000
0001
0000
0000
0010
0000
0000
0100
0000
0000
0000
0000
0000
1000
0000
0000
0100
0000
0000
0010
0000
0000
0000
0000
0000
0001
0000
0000
0010
0000
0000
0100
0000
0000
0010
0000
0000
,
0001
0010
0100
0010
0000
0100
1000
0010
0100
0001
1000
0010
0000
0100
0001
0010
,
0100
M00M
M00M
0000
0010
0000
0001
0010
0001
0010
0100
0000
0110
0000
1000
0100
,
1000
0010
0100
0001
1000
0000
0001
0100
0001
0010
0001
0000
0011
0000
1000
0010
,
0000
0100
0010
1000
0001
0000
0010
0000
0001
0100
0010
0000
1010
0000
1000
0100
,
0010
0000
0010
0100
1000
0000
0100
1000
0000
0100
1000
0000
0010
0100
0001
0010
,
0001
0000
1001
0000
1000
0000
0010
0100
0010
1000
0100
0000
0110
0000
0010
0001
,
0010
0000
0100
0010
0100
0000
1000
0000
0010
1000
0001
0000
1001
0000
0001
0010
,
0000
0100
0010
0001
1000
0000
0010
1000
0010
1000
0100
0000
0011
0000
0001
1000
,
0001
0000
0100
0000
0110
0000
0010
1000
0000
0000
0100
0000
1000
0001
0000
0100
,
0010
0000
1000
0002
0000
0000
0000
0000
0000
0000
0000
0000
0003
0000
0000
0000
;

//---------------dance-single - ----------------
#NOTEDATA:;
#CHARTNAME:;
#STEPSTYPE:dance-single;
#DESCRIPTION:;
#CHARTSTYLE:;
#DIFFICULTY:Beginner;
#METER:2;
#RADARVALUES:0.142540,0.230113,0.074833,0.066519,0.004157,120.000000,111.000000,9.000000,8.000000,0.000000,0.000000,0.000000,0.000000,0.000000,0.142540,0.230113,0.074833,0.066519,0.004157,120.000000,111.000000,9.000000,8.000000,0.000000,0.000000,0.000000,0.000000,0.000000;
#CREDIT:Benpai;
#DISPLAYBPM:150.000000;
#NOTES:
0000
0000
0000
0000
,
0000
0000
0000
0000
,
0000
0000
0000
0000
,
0000
0000
0000
0000
,
0000
0000
0000
0000
,
0000
0000
0000
0000
,
0000
0000
0000
0000
,
0000
0000
0000
0000
,
2000
0000
0000
3000
0000
0000
0000
0000
,
1000
0000
1000
0000
,
0001
0000
0001
0000
,
0100
0000
0001
0000
,
1000
0000
0010
0000
,
1000
0000
0100
0000
,
0010
0000
0001
0000
,
0100
0000
0010
0000
,
1000
0000
0100
0000
,
0010
0000
0100
0000
,
1000
0000
0001
0000
,
1000
0000
0010
0000
,
0100
0000
0010
0000
,
1000
0000
1000
0000
,
0001
0000
0002
0000
,
0003
0000
1000
0000
,
0200
0300
0000
0000
,
0000
0000
0000
0000
,
0000
0000
0000
0000
,
0000
0000
0000
0000
0000
0000
0000
0000
0000
0000
0000
1000
0000
0000
0000
0000
,
0000
0100
0000
0000
,
0000
0100
0000
0000
,
0000
0010
0000
0010
,
0000
0001
0000
0000
,
0000
0001
0000
0000
,
0000
1000
0000
0000
,
0000
0100
0000
0000
,
0000
0010
0000
0000
,
0000
0100
0000
1000
,
0000
1000
0000
0010
,
0000
0010
0010
0010
,
0010
2000
3000
0000
,
1001
0001
0000
0010
,
0000
0001
0000
0100
,
0000
0001
0000
1000
,
0000
0100
0000
1000
,
0000
0100
0000
0010
,
0000
0100
0000
1000
,
0000
0001
0001
0001
,
0001
0010
0000
0100
,
0000
0010
0010
0010
,
0000
1000
1000
1000
,
0000
0002
0000
0003
,
0000
1000
0000
0001
,
0000
0100
0000
0010
,
0000
0100
0000
0001
,
0000
0010
0000
0100
,
0000
1000
0000
0001
,
0000
1000
0000
0100
,
0000
0010
0000
0100
,
0000
2000
0000
0000
,
3000
0100
0000
1000
,
0000
0001
0000
0000
,
0100
0100
0000
1001
,
0000
0001
0000
0110
,
0000
1000
0000
1100
,
0000
0100
0000
0110
,
0000
0010
0000
0011
,
0000
0001
0000
1001
,
0000
0001
0000
0101
,
0000
0100
0000
0220
,
0000
0000
0000
0330
0000
0000
0000
0000
0000
0000
0000
0000
0000
0000
0000
0000
;

//---------------dance-single - ----------------
#NOTEDATA:;
#CHARTNAME:;
#STEPSTYPE:dance-single;
#DESCRIPTION:;
#CHARTSTYLE:;
#DIFFICULTY:Easy;
#METER:4;
#RADARVALUES:0.238754,0.316691,0.099778,0.149667,0.008315,201.000000,189.000000,12.000000,18.000000,4.000000,0.000000,0.000000,0.000000,0.000000,0.238754,0.316691,0.099778,0.149667,0.008315,201.000000,189.000000,12.000000,18.000000,4.000000,0.000000,0.000000,0.000000,0.000000;
#CREDIT:Benpai;
#DISPLAYBPM:150.000000;
#NOTES:
// measure 0
0000
0000
0000
0000
,  // measure 1
0000
0000
0000
0000
,  // measure 2
0000
0000
0000
0000
,  // measure 3
0000
0000
0000
0000
,  // measure 4
0000
0000
0000
0000
,  // measure 5
0001
0000
0001
0000
,  // measure 6
1000
0000
1000
0000
,  // measure 7
0010
0010
0010
0010
,  // measure 8
0200
0000
0000
0300
0000
0000
0110
0000
,  // measure 9
0010
1000
0001
0000
,  // measure 10
0001
0010
0001
0000
,  // measure 11
0100
0010
0100
0000
,  // measure 12
0001
0010
0100
0000
,  // measure 13
1000
0001
0010
0000
,  // measure 14
0010
0001
0100
0000
,  // measure 15
0100
0010
0100
0000
,  // measure 16
0001
0000
0100
0000
,  // measure 17
0010
0000
1000
1000
,  // measure 18
0100
0000
0010
0010
,  // measure 19
0001
0000
0100
0010
,  // measure 20
0100
0000
0001
0010
,  // measure 21
0001
2000
3001
0002
,  // measure 22
1003
0020
0230
0000
,  // measure 23
0310
1000
0001
1000
,  // measure 24
0200
0310
0000
0000
,  // measure 25
0000
0000
0000
0000
,  // measure 26
0000
0000
0000
0000
,  // measure 27
0000
0000
0000
0000
0000
0000
0000
0000
0000
0000
0000
0002
0000
0000
0000
0000
,  // measure 28
0000
0103
0000
0010
,  // measure 29
0000
1000
0000
0100
,  // measure 30
0000
0010
0001
0010
,  // measure 31
0100
2000
0000
3001
,  // measure 32
1001
1000
0200
0000
,  // measure 33
0000
0300
1000
0000
0010
0000
0200
0000
,  // measure 34
0000
0301
0100
0002
,  // measure 35
0000
0013
0100
0020
,  // measure 36
0000
0031
0001
1000
,  // measure 37
1000
0010
0010
0100
,  // measure 38
0100
0001
1000
0001
,  // measure 39
1000
1002
0003
0000
,  // measure 40
1001
0001
0010
0001
,  // measure 41
0100
0010
1000
0100
,  // measure 42
0010
0001
0010
0001
,  // measure 43
0100
0010
0100
0001
,  // measure 44
1000
0100
1000
0010
,  // measure 45
0100
0001
0010
0001
,  // measure 46
1000
0001
0001
0010
,  // measure 47
0010
0100
0100
1000
,  // measure 48
1000
0010
0010
0010
,  // measure 49
00M0
0001
0001
0001
,  // measure 50
000M
2000
0000
0000
,  // measure 51
0000
0000
3001
0000
0000
0001
0000
0000
,  // measure 52
0000
0010
0100
0010
,  // measure 53
0001
0100
0000
0001
,  // measure 54
0010
0100
1000
0010
,  // measure 55
M000
0000
0000
0000
1000
0000
0000
0000
0000
0000
0000
0M00
0001
0000
0000
0000
,  // measure 56
0000
1000
1000
0100
,  // measure 57
0100
0010
0100
1000
,  // measure 58
0001
2000
0000
0000
,  // measure 59
3010
0200
0000
0302
,  // measure 60
0000
0023
0000
0000
,  // measure 61
0130
1000
0001
1001
,  // measure 62
0000
0100
0010
0110
,  // measure 63
0000
1000
0100
1100
,  // measure 64
0000
0010
0001
0011
,  // measure 65
0000
1000
0001
1001
,  // measure 66
0000
0010
0100
0110
,  // measure 67
0000
0001
0100
0101
,  // measure 68
0001
1000
0100
0010
,  // measure 69
0001
1001
0000
0000
;

//---------------dance-single - ----------------
#NOTEDATA:;
#CHARTNAME:;
#STEPSTYPE:dance-single;
#DESCRIPTION:;
#CHARTSTYLE:;
#DIFFICULTY:Medium;
#METER:7;
#RADARVALUES:0.422869,0.518222,0.116408,0.091463,0.112250,356.000000,342.000000,14.000000,11.000000,37.000000,0.000000,1.000000,0.000000,0.000000,0.422869,0.518222,0.116408,0.091463,0.112250,356.000000,342.000000,14.000000,11.000000,37.000000,0.000000,1.000000,0.000000,0.000000;
#CREDIT:Benpai;
#DISPLAYBPM:150.000000;
#NOTES:
0000
0000
0000
0000
,
0000
0000
0000
0000
,
0000
0000
0000
0000
,
0000
0000
0000
0000
,
0000
0000
0000
0000
,
0001
1000
0001
1000
0000
0000
0000
0000
,
0010
0100
0010
1000
,
0001
0010
0001
0010
0100
1000
0100
1000
,
0002
0003
0100
0110
,
0010
0000
1000
0000
0001
0010
0000
0000
,
0001
0000
0100
0000
0010
0100
0001
0000
,
1000
0000
0100
0000
1000
0001
0000
0100
,
0001
0000
0010
0000
0100
0010
0100
1000
,
0001
0000
0010
0000
0001
0010
0000
0100
,
0010
0000
0001
0000
0100
0010
1000
0001
,
0100
0010
0100
0001
,
1000
0001
0000
1000
0100
0010
0001
1000
,
0001
0000
0100
0000
0010
1000
0010
0000
,
1000
0000
0100
0000
0010
0001
0010
0000
,
0001
0000
1000
0000
0010
0100
0010
0000
,
1000
0000
0001
0000
0010
0100
0010
0000
,
0001
0000
2000
0000
3010
0100
0002
0000
,
0013
0100
0020
0000
0031
0010
0100
0010
,
0001
0000
1000
0000
0010
0100
0010
1000
,
0200
0310
0000
0000
,
0000
0000
0000
0000
,
0000
0000
0000
0000
,
0000
0000
0000
0000
0000
0000
0000
0000
0000
0000
0000
0200
0000
0000
0000
0000
,
0000
1300
0010
1000
,
0100
0010
0001
0100
,
0010
0000
0100
0001
0100
0001
0010
0100
,
1000
0001
2000
0000
0000
0000
3001
0000
,
1001
0000
0000
0000
1000
0000
0010
0000
1000
00M0
0000
0M01
0000
M010
000M
01M0
,
M00M
0010
0000
0M00
0001
00M0
0000
0000
1000
0000
0000
M01M
0000
M10M
0000
M01M
,
0000
M10M
0000
0000
0001
0000
0000
0000
100M
0000
00M0
0001
0M00
0010
M000
010M
,
0000
10M0
0000
0M00
0010
M000
0000
0000
0100
0000
0000
0001
0000
100M
0000
M001
,
0000
100M
0000
M000
0001
0000
0010
0000
0001
0000
0000
0000
1000
0000
0010
0000
,
1000
0000
0001
0100
0001
0000
1000
0100
,
1000
0000
0001
0010
0001
0100
0010
0100
,
0001
0010
0400
0000
0300
1000
0001
0000
,
1001
0000
1000
0010
1000
0000
0100
0010
,
0001
0000
0010
0100
1000
0000
0010
0100
,
0010
0000
1000
0001
0100
0000
0001
0100
,
0010
1000
0001
0010
0100
0010
0001
1000
,
0002
0000
0103
0010
1000
0000
0100
0010
,
0001
0000
1000
0001
1000
0000
0010
0100
,
0010
0000
0000
0000
1000
0000
0000
0100
0000
0000
0010
0000
0000
0001
0000
0000
,
0100
0010
0100
0001
0010
0100
1000
0100
,
1000
0010
0100
0001
0010
0000
0010
0000
,
0MM0
0000
1000
0010
1000
0000
0100
0000
,
0MM0
0020
0000
0000
,
0000
0000
0000
0000
1030
0000
0000
0001
0000
0000
0010
0000
0100
0000
0010
0000
,
0000
0001
0100
0000
0001
0010
0001
0100
,
1000
0000
0100
0010
1000
0001
0010
0001
,
0010
0000
0100
1000
0100
1000
0010
0000
,
M0MM
0000
0000
0000
0100
0000
0010
0000
1000
0000
0000
0M00
0001
0000
1000
0000
,
0001
0100
0010
0000
0010
0000
1000
0100
,
1000
0100
0010
0000
0011
0000
1000
0001
,
1000
0020
0000
0000
,
0030
1000
0100
0000
1000
0000
0001
0000
,
0100
0000
0010
0100
0010
0100
0001
0010
,
0200
0000
1300
0100
0010
0001
1001
0000
,
1000
0010
0100
0010
1000
0100
0110
0000
,
0010
0001
0010
0001
0100
0010
1010
0000
,
1000
0100
0010
0001
0010
0100
1100
0000
,
0011
0000
1000
0001
0100
0001
0101
0000
,
1000
0100
0010
0100
1000
0001
1001
0000
,
1000
0010
0100
0001
1000
0100
0110
0000
,
0011
0000
0001
0100
0010
1000
0100
0010
,
0100
0010
1001
0000
0000
0000
0000
0000
;
