#VERSION:0.83;
#TITLE:Sky of Scented Souls;
#SUBTITLE:;
#ARTIST:Manabu Namiki;
#TITLETRANSLIT:;
#SUBTITLETRANSLIT:;
#ARTISTTRANSLIT:;
#GENRE:;
#ORIGIN:;
#CREDIT:;
#BANNER:Sky of Scented Souls-banner.png;
#BACKGROUND:Sky of Scented Souls-bg.png;
#PREVIEWVID:;
#JACKET:Sky of Scented Souls-jacket.png;
#CDIMAGE:;
#DISCIMAGE:;
#LYRICSPATH:;
#CDTITLE:;
#MUSIC:Sky of Scented Souls.ogg;
#OFFSET:-1.908001;
#SAMPLESTART:1.932003;
#SAMPLELENGTH:15.000000;
#SELECTABLE:YES;
#BPMS:0.000=21.246,
21.500=21.200,
21.750=21.000,
22.000=19.750,
22.125=18.750,
22.250=18.745,
22.375=18.750,
22.500=18.126,
22.625=17.400,
22.875=12.260;
#STOPS:;
#DELAYS:;
#WARPS:;
#TIMESIGNATURES:0.000=4=4;
#TICKCOUNTS:0.000=4;
#COMBOS:0.000=1;
#SPEEDS:0.000=1.000=0.000=0;
#SCROLLS:0.000=1.000;
#FAKES:;
#LABELS:0.000=Song Start;
#LASTSECONDHINT:72.408997;
#BGCHANGES:;
#KEYSOUNDS:;
#ATTACKS:
;

//---------------dance-single - ----------------
#NOTEDATA:;
#CHARTNAME:;
#STEPSTYPE:dance-single;
#DESCRIPTION:;
#CHARTSTYLE:;
#DIFFICULTY:Hard;
#METER:5;
#RADARVALUES:0.172736,0.198646,0.000000,0.043184,0.437238,112.000000,112.000000,0.000000,4.000000,0.000000,0.000000,0.000000,0.000000,0.000000,0.172736,0.198646,0.000000,0.043184,0.437238,112.000000,112.000000,0.000000,4.000000,0.000000,0.000000,0.000000,0.000000,0.000000;
#CREDIT:;
#NOTES:
0000
0000
0000
0000
,
0000
0000
0000
0000
,
0001
0000
1000
0000
0010
0000
0100
0000
0001
0000
0000
0000
0100
0000
0010
0000
1000
0000
0001
0000
0010
0000
0100
0000
2000
0000
0000
0000
3002
0000
0000
0000
0103
0000
0010
0000
1000
0000
0001
0010
0001
0000
0000
0000
1000
0000
0000
0000
0001
0000
0010
0000
0100
0000
1000
0000
0100
0000
0001
0000
0100
0000
1000
0000
,
0001
0000
1000
0000
0010
0000
0100
0000
0001
0000
0000
0000
1000
0000
0100
0000
1000
0000
0001
0000
0100
0000
0010
0000
1000
0000
0100
0000
1000
0000
0010
0000
0100
0000
0001
0000
0010
0000
0100
0000
1000
0000
0001
0000
0100
0000
0010
0000
0100
0000
0001
0000
0010
0000
0100
1000
0001
0000
0100
0000
1000
0000
0100
0000
,
0001
0000
1000
0000
0100
0000
0010
0000
0001
0000
0000
0000
1000
0000
0010
0000
1000
0000
0100
0000
0010
0000
0001
0000
0100
0000
0010
0000
0100
0000
0001
0000
0010
0000
0100
0000
1000
0000
0001
0000
0100
0000
0000
0010
0000
0000
1000
0000
0010
0000
0100
0000
0001
0000
1000
0100
1000
0000
0001
0000
0100
0000
0010
0000
,
1000
0001
0010
0100
0010
0000
0000
0001
1000
0010
0100
0010
2000
0000
3002
0000
1003
0100
0010
0100
0001
0100
0010
0100
1000
0000
0000
0000
0000
0000
0000
0000
;

//---------------dance-single - ----------------
#NOTEDATA:;
#CHARTNAME:;
#STEPSTYPE:dance-single;
#DESCRIPTION:;
#CHARTSTYLE:;
#DIFFICULTY:Medium;
#METER:3;
#RADARVALUES:0.080199,0.086908,0.000000,0.021592,0.113358,52.000000,52.000000,0.000000,2.000000,0.000000,0.000000,0.000000,0.000000,0.000000,0.080199,0.086908,0.000000,0.021592,0.113358,52.000000,52.000000,0.000000,2.000000,0.000000,0.000000,0.000000,0.000000,0.000000;
#CREDIT:;
#NOTES:
// measure 0
0000
0000
0000
0000
,  // measure 1
0000
0000
0000
0000
,  // measure 2
0001
0010
0100
0000
1000
0010
1000
0100
1000
0010
0100
0000
0001
0010
0001
0100
,  // measure 3
0010
1000
0001
0000
0010
0100
0010
0000
0001
1000
0010
0100
0010
1000
0100
0000
,  // measure 4
1000
0010
0100
0000
0010
1000
0001
0000
0010
0100
0010
0100
1000
0001
0100
0000
,  // measure 5
0010
1000
0001
0000
0010
0100
2000
3002
0103
0010
1000
0010
0100
0000
0000
0000
;

//---------------dance-single - ----------------
#NOTEDATA:;
#CHARTNAME:;
#STEPSTYPE:dance-single;
#DESCRIPTION:;
#CHARTSTYLE:;
#DIFFICULTY:Easy;
#METER:1;
#RADARVALUES:0.047811,0.052765,0.000000,0.000000,0.000000,31.000000,31.000000,0.000000,0.000000,0.000000,0.000000,0.000000,0.000000,0.000000,0.047811,0.052765,0.000000,0.000000,0.000000,31.000000,31.000000,0.000000,0.000000,0.000000,0.000000,0.000000,0.000000,0.000000;
#CREDIT:;
#NOTES:
0000
0000
0000
0000
,
0000
0000
0000
0000
,
0001
0001
1000
1000
0010
0010
0100
0001
,
1000
1000
0100
0100
0010
0001
1000
0010
,
1000
1000
0001
0001
0010
0100
1000
0001
,
0100
0100
0010
0010
1000
0001
0010
0000
;

//---------------dance-single - ----------------
#NOTEDATA:;
#CHARTNAME:;
#STEPSTYPE:dance-single;
#DESCRIPTION:;
#CHARTSTYLE:;
#DIFFICULTY:Beginner;
#METER:1;
#RADARVALUES:0.023134,0.026720,0.000000,0.000000,0.000000,15.000000,15.000000,0.000000,0.000000,0.000000,0.000000,0.000000,0.000000,0.000000,0.023134,0.026720,0.000000,0.000000,0.000000,15.000000,15.000000,0.000000,0.000000,0.000000,0.000000,0.000000,0.000000,0.000000;
#CREDIT:;
#NOTES:
0000
0000
0000
0000
,
0000
0000
0000
0000
,
0001
1000
0010
0100
,
0001
0010
0100
1000
,
0010
0100
0010
1000
,
0100
0010
0100
0000
;
