#VERSION:0.83;
#TITLE:Murder;
#SUBTITLE:ft. Minx & Chilled;
#ARTIST:Boyinaband;
#TITLETRANSLIT:;
#SUBTITLETRANSLIT:;
#ARTISTTRANSLIT:;
#GENRE:;
#ORIGIN:;
#CREDIT:;
#BANNER:[You Won't See This In DDR V] - Murder ft Minx & Chilled.png;
#BACKGROUND:[You Won't See This In DDR V] - Murder ft Minx & Chilled-bg.png;
#PREVIEWVID:;
#JACKET:[You Won't See This In DDR V] - Murder ft Minx & Chilled-jacket.png;
#CDIMAGE:;
#DISCIMAGE:;
#LYRICSPATH:;
#CDTITLE:cdtitle.png;
#MUSIC:[You Won't See This In DDR V] - Murder ft Minx & Chilled.ogg;
#OFFSET:-0.006734;
#SAMPLESTART:10.677693;
#SAMPLELENGTH:21.333332;
#SELECTABLE:YES;
#BPMS:0.000=90.000,
112.000=45.000,
128.000=90.000;
#STOPS:;
#DELAYS:;
#WARPS:;
#TIMESIGNATURES:0.000=4=4;
#TICKCOUNTS:0.000=4;
#COMBOS:0.000=1;
#SPEEDS:0.000=1.000=0.000=0;
#SCROLLS:0.000=1.000;
#FAKES:;
#LABELS:0.000=Song Start;
#BGCHANGES:;
#KEYSOUNDS:;
#ATTACKS:
;

//---------------dance-single - ----------------
#NOTEDATA:;
#CHARTNAME:;
#STEPSTYPE:dance-single;
#DESCRIPTION:;
#CHARTSTYLE:;
#DIFFICULTY:Medium;
#METER:5;
#RADARVALUES:0.340391,0.428160,0.097586,0.463535,0.158578,293.000000,281.000000,12.000000,57.000000,7.000000,0.000000,0.000000,0.000000,0.000000,0.340391,0.428160,0.097586,0.463535,0.158578,293.000000,281.000000,12.000000,57.000000,7.000000,0.000000,0.000000,0.000000,0.000000;
#CREDIT:;
#NOTES:
0000
0000
0000
0000
,
0000
0000
0000
0000
,
0010
0010
0000
2002
0000
0000
3003
0000
,
0100
0100
0000
0000
0000
0000
0000
0000
,
1000
0000
0010
0000
0000
0010
0000
0010
0000
0010
1000
0000
0010
0000
0001
0000
,
0010
1000
0100
0100
0010
0001
0100
0100
,
0010
1000
1000
0100
0002
0000
0103
1000
,
1000
0001
0100
0200
0000
1300
0200
0000
,
0301
0000
0010
0000
0000
0010
0000
0010
0000
0010
0001
0000
0010
0000
1000
0000
,
0010
0001
0100
0100
0010
1000
0100
0100
,
0010
0001
0001
0100
2000
0000
3100
0001
,
0001
1000
0100
0200
0000
0301
0200
0000
,
1300
0000
0010
0000
0001
0000
0010
0000
1000
0100
0000
0020
0000
0000
0000
0000
,
0031
0000
0100
0000
1000
0000
0100
0000
0001
0010
0000
0200
0000
0000
0000
0000
,
1300
0010
0100
0001
0010
1000
0010
0001
,
0002
0000
0003
0000
0100
0000
0010
0000
1000
0000
0001
2000
0000
0000
3001
0000
,
1000
0100
0001
0100
1000
1000
0010
0100
,
0001
0100
1000
0100
0001
0001
0010
0100
,
1000
0010
0001
0010
1000
1000
0100
0010
,
0001
0000
0100
0000
0010
0000
1000
0000
0001
0000
1000
0100
0000
0100
0000
0000
,
2002
3003
2000
3020
0032
0023
2030
0000
,
3010
0000
0010
0000
1000
0000
0100
0000
0001
0000
0100
2000
0000
0000
3010
0000
,
0100
0000
0001
0000
1000
0000
0001
0000
0010
0000
2000
0000
3020
0000
0130
0020
,
0000
0031
0001
0001
1000
0010
0100
0001
,
MMMM
0000
0002
0000
0203
0000
2300
0000
3200
0000
0310
0200
0000
0000
0301
0000
,
0010
0100
1000
0010
0001
0010
1000
0200
,
0310
0001
0100
2001
3010
1000
0100
1002
,
0103
0100
0001
0001
0010
1000
0100
0001
,
2002
0000
0000
3000
0003
0000
1000
0000
0100
0000
1000
0000
0100
0000
0000
0000
2002
0000
0000
0003
3000
0000
0001
0000
0100
0000
0001
0000
0100
0000
0000
0000
,
0220
0000
0000
0300
0030
0000
0100
0000
0001
0000
1000
0000
0100
0000
0010
0000
0220
0000
0000
0330
0000
0000
0000
0000
0002
0000
2003
0000
0002
0000
3003
0000
,
0202
0000
0000
0003
0300
0000
0001
0000
0100
0000
0010
0000
1000
0000
0000
0000
2200
0000
0000
3000
0300
0000
1000
0000
0100
0000
0010
0000
0001
0000
0000
0000
,
0022
0000
0000
0030
0003
0000
0010
0000
0001
0000
0100
0000
0010
0000
1000
0000
2020
0000
0000
3030
0000
0000
0000
0000
000M
0000
000M
0000
000M
0000
0000
0000
,
0001
0000
0100
0000
0000
0100
0000
0100
0000
0100
0001
0000
0100
0000
1000
0000
,
0100
0001
0010
0010
0100
1000
0010
0010
,
0100
0001
0001
0010
2000
0000
3010
0001
,
0001
1000
0010
0020
0000
0031
0020
0000
,
1030
0000
0100
0000
0000
0100
0000
0100
0000
0100
1000
0000
0100
0000
0001
0000
,
0100
1000
0010
0010
0100
0001
0010
0010
,
0100
1000
1000
0010
0002
0000
0013
1000
,
1000
0000
0001
0000
0010
0000
0020
0000
0000
0000
1030
0000
0020
0000
0000
0002
,
0000
0000
0033
0000
;

//---------------dance-single - ----------------
#NOTEDATA:;
#CHARTNAME:;
#STEPSTYPE:dance-single;
#DESCRIPTION:;
#CHARTSTYLE:;
#DIFFICULTY:Hard;
#METER:8;
#RADARVALUES:0.503034,0.658708,0.040661,0.528593,0.727832,433.000000,428.000000,5.000000,65.000000,6.000000,0.000000,0.000000,0.000000,0.000000,0.503034,0.658708,0.040661,0.528593,0.727832,433.000000,428.000000,5.000000,65.000000,6.000000,0.000000,0.000000,0.000000,0.000000;
#CREDIT:;
#NOTES:
0000
0000
0000
0000
,
0000
0000
0000
0000
,
0100
0100
0000
2002
0000
0000
3003
0000
,
0010
0010
0000
0000
0000
0000
0000
0000
,
1000
0000
0001
0000
1000
0001
0000
0001
0000
1000
0100
0000
1000
0100
0001
0100
,
0010
0001
0100
0100
0010
1000
0100
0100
,
0010
0000
0001
0100
0001
0100
0001
0100
1000
0000
0100
0000
0001
0000
1000
0100
,
1000
0100
1000
0100
0001
0000
0200
0000
1000
0000
0301
0000
0100
1000
0000
1000
,
0010
0000
1000
0000
0001
1000
0000
1000
0000
0001
0100
0000
1000
0000
1000
0100
,
0001
0010
0100
0100
1000
0010
0100
0100
,
0001
0000
1000
0100
1000
0100
1000
0100
0001
0000
0100
0000
1000
0000
0001
0100
,
0001
0100
0001
0100
1000
0000
0200
0000
0001
0000
1300
0000
0100
0001
0000
0001
,
0010
0000
0001
0000
0100
0000
1000
0100
0001
0010
0000
0010
0100
0000
1000
0000
,
0010
1000
0100
0000
0001
0000
0100
1000
0010
0100
0000
0100
0001
0000
1000
0000
,
0001
0010
0001
0010
0100
0000
0001
0000
0100
0000
0100
0010
0001
0000
1000
0000
,
0010
0000
0010
0000
1000
0010
0000
0010
0001
0000
0001
0100
0000
0100
1000
0000
,
0001
0100
0010
1000
0100
0000
0010
0001
0100
0000
0100
0000
0010
0000
1000
0001
,
0010
0000
0100
0010
0000
0100
1000
0010
0000
0100
0001
0010
0000
0010
0000
0001
,
0100
1000
0100
0001
0000
0001
0000
0010
0100
0010
0001
0100
0010
1000
0000
0010
,
1000
0100
0010
0100
0001
0100
0010
0100
1000
0010
0100
0001
0000
0001
0000
0000
,
2002
3003
0000
0002
0023
2030
3020
0032
0203
2300
3200
0302
0000
0000
0013
0000
,
1000
0010
0001
0000
0010
0001
0010
0001
0100
1000
0100
0001
0000
1000
0100
0000
,
0001
0100
1000
0010
0000
0010
0000
0100
0000
0100
0002
0023
2030
0000
3020
0032
,
0000
0103
0010
0000
0010
0000
0010
0000
1000
0100
0010
0001
0000
0000
0011
0000
,
MMMM
0000
0002
0203
0320
2030
3200
0000
0302
0203
2300
3020
0000
0000
0130
0000
,
0001
0010
0100
1000
0000
1000
0010
0002
0000
0023
0000
2030
0000
0000
3100
0000
,
0010
0001
0100
0000
0100
0020
2030
3000
0010
1000
0100
0010
0000
0000
0022
0033
,
0001
0100
0001
0100
1000
0100
1000
0100
0001
0010
0100
1000
0000
2000
0000
0000
,
3001
0001
0000
0001
0001
0000
1000
0010
0100
0000
0010
1000
0200
0000
0000
0000
1300
1000
0000
1000
1000
0000
0001
0010
0100
0000
0010
0001
0200
0000
0000
0000
,
0301
0001
0000
0001
0001
0000
0100
0010
1000
0000
0100
0000
0010
0000
0001
0000
1000
1000
0000
1000
M000
0000
0000
0001
0200
0000
0301
0100
0020
0000
0000
0000
,
1030
1000
0000
1000
1000
0000
0002
0023
2030
0000
3020
0032
0203
0000
0000
0000
0301
0001
0000
0001
0001
0000
2000
3020
0032
0000
0023
2030
3200
0000
0000
0000
,
1300
1000
0000
1000
1000
0000
0002
0203
2300
0000
3200
0302
0023
0000
0230
0000
0310
0010
0000
0010
00M0
0000
0000
0001
1000
0000
0001
1000
0002
0000
0000
0000
,
1003
0000
0001
0000
1000
0001
0000
0001
0000
1000
0010
0000
1000
0010
0001
0010
,
0100
0001
0010
0010
0100
1000
0010
0010
,
0100
0000
0001
0010
0001
0010
0001
0010
1000
0000
0010
0000
0001
0000
1000
0010
,
1000
0010
1000
0010
0001
0000
0020
0000
1000
0000
0031
0000
0010
1000
0000
1000
,
0100
0000
1000
0000
0001
1000
0000
1000
0000
0001
0010
0000
1000
0000
1000
0010
,
0001
0100
0010
0010
1000
0100
0010
0010
,
0001
0000
1000
0010
1000
0010
1000
0010
0001
0000
0010
0000
1000
0000
0001
0010
,
0001
0010
0001
0010
1000
0000
0020
0000
0001
0000
1030
0000
0010
0001
0000
2002
,
0000
0000
3003
0000
;

//---------------dance-single - ----------------
#NOTEDATA:;
#CHARTNAME:;
#STEPSTYPE:dance-single;
#DESCRIPTION:;
#CHARTSTYLE:;
#DIFFICULTY:Easy;
#METER:3;
#RADARVALUES:0.230025,0.296419,0.081322,0.309023,0.000000,198.000000,188.000000,10.000000,38.000000,4.000000,0.000000,0.000000,0.000000,0.000000,0.230025,0.296419,0.081322,0.309023,0.000000,198.000000,188.000000,10.000000,38.000000,4.000000,0.000000,0.000000,0.000000,0.000000;
#CREDIT:;
#NOTES:
0000
0000
0000
0000
,
0000
0000
0000
0000
,
1000
0000
0000
2000
0000
0000
3000
0000
,
0001
0000
0000
0000
,
0001
0100
1000
0100
,
0001
0010
0100
0000
1000
0010
0100
0000
,
0001
0000
1000
0100
2000
0000
3001
0000
,
1000
0010
1000
2000
0000
3001
0002
0000
,
1003
0100
0001
0100
,
1000
0010
0100
0000
0001
0010
0100
0000
,
1000
0000
0001
0100
0002
0000
1003
0000
,
0001
0010
0001
0002
0000
1003
2000
0000
,
3010
0000
0010
0000
0010
1000
0001
0000
,
0010
0000
0010
0000
0010
0001
1000
0000
,
0001
0000
0001
0000
0100
0010
1000
0000
,
0001
0000
1000
0100
0200
0000
0300
0000
,
1000
0100
1000
0000
0001
0000
1000
0000
,
0001
0100
0001
0000
1000
0000
0001
0000
,
0010
0100
0010
0000
0001
0000
1000
0000
,
0001
0000
0100
0000
0010
1000
0001
0000
,
2001
0000
3100
0000
0010
0100
0010
0000
,
0001
0000
0100
0000
0001
0100
0010
0000
,
1000
0001
1000
0000
0100
0000
0100
0100
,
0100
0000
1000
0000
0001
1000
0001
0000
,
MMMM
0000
1000
0000
0010
1000
0100
0000
,
0010
0000
0010
0000
0100
0010
0001
0000
,
1000
0010
2000
0000
3001
0010
0002
0000
,
1003
0010
0220
0330
,
2002
0000
0000
3000
0003
0000
0000
0000
1000
0000
0000
0000
0100
0000
0000
0000
2002
0000
0000
0003
3000
0000
0000
0000
0001
0000
0000
0000
0100
0000
0000
0000
,
2002
0000
0000
3000
0003
0000
0000
0000
1000
0000
0000
0000
0010
0000
0000
0000
0220
0000
0000
0330
0000
0000
0000
0000
0002
0000
0003
0000
2000
0000
3000
0000
,
2200
0000
0000
0300
3000
0000
0000
0000
0010
0000
0000
0000
0100
0000
0000
0000
0202
0000
0000
0300
0003
0000
0000
0000
0010
0000
0000
0000
0100
0000
0000
0000
,
2002
0000
0000
0003
3000
0000
0000
0000
0001
0000
0000
0000
0100
0000
0000
0000
0220
0000
0000
0330
0000
0000
0000
0000
0000
0000
0000
0000
0000
0000
0000
0000
,
1000
0100
0001
0100
,
1000
0010
0100
0000
0001
0010
0100
0000
,
1000
0000
0001
0100
0002
0000
1003
0000
,
0001
0010
0001
0002
0000
1003
2000
0000
,
3001
0100
1000
0100
,
0001
0010
0100
0000
1000
0010
0100
0000
,
0001
0000
1000
0100
2000
0000
3001
0000
,
1000
0010
1000
2000
0000
3001
0002
0000
,
2000
0000
3003
0000
;

//---------------dance-single - ----------------
#NOTEDATA:;
#CHARTNAME:;
#STEPSTYPE:dance-single;
#DESCRIPTION:;
#CHARTSTYLE:;
#DIFFICULTY:Beginner;
#METER:1;
#RADARVALUES:0.113851,0.131742,0.016264,0.162644,0.000000,98.000000,96.000000,2.000000,20.000000,0.000000,0.000000,0.000000,0.000000,0.000000,0.113851,0.131742,0.016264,0.162644,0.000000,98.000000,96.000000,2.000000,20.000000,0.000000,0.000000,0.000000,0.000000,0.000000;
#CREDIT:;
#NOTES:
// measure 0
0000
0000
0000
0000
,  // measure 1
0000
0000
0000
0000
,  // measure 2
1000
0000
0000
0000
,  // measure 3
0001
0000
0000
0000
,  // measure 4
1000
0000
0100
0000
,  // measure 5
0010
0000
0001
0000
,  // measure 6
1000
1000
2000
3000
,  // measure 7
0001
0002
0003
0001
,  // measure 8
0001
0000
0100
0000
,  // measure 9
0010
0000
1000
0000
,  // measure 10
0001
0001
0002
0003
,  // measure 11
1000
2000
3000
1000
,  // measure 12
0100
0100
0100
0000
,  // measure 13
1000
1000
1000
0000
,  // measure 14
0001
0001
0001
0000
,  // measure 15
0100
0100
0200
0300
,  // measure 16
0010
0010
0010
0000
,  // measure 17
1000
1000
1000
0000
,  // measure 18
0001
0001
0001
0000
,  // measure 19
0010
0010
0010
0000
,  // measure 20
2002
3003
0100
0000
,  // measure 21
0001
0001
0001
0000
,  // measure 22
1000
1000
1000
0000
,  // measure 23
0100
0100
0100
0000
,  // measure 24
1001
0000
0010
0000
,  // measure 25
0100
0100
0100
0000
,  // measure 26
1000
0000
0001
0000
,  // measure 27
1000
0001
1000
0000
,  // measure 28
0002
0003
0000
0000
0200
0300
0000
0000
,  // measure 29
0020
0000
0000
0000
0030
0000
0000
0000
0000
0000
0000
0000
0000
0000
0000
0000
2000
0000
0000
3000
0000
0000
0000
0000
0000
0000
0000
0000
0000
0000
0000
0000
,  // measure 30
2000
3000
0000
0000
0200
0300
0000
0000
,  // measure 31
0020
0000
0000
0000
0030
0000
0000
0000
0000
0000
0000
0000
0000
0000
0000
0000
0002
0000
0000
0003
0000
0000
0000
0000
0000
0000
0000
0000
0000
0000
0000
0000
,  // measure 32
0001
0000
0100
0000
,  // measure 33
0010
0000
1000
0000
,  // measure 34
0001
0001
0002
0003
,  // measure 35
1000
2000
3000
1000
,  // measure 36
1000
0000
0100
0000
,  // measure 37
0010
0000
0001
0000
,  // measure 38
1000
1000
2000
3000
,  // measure 39
0001
0002
0003
0001
,  // measure 40
0002
0000
0003
0000
;
