#TITLE:Mega Francesita;
#SUBTITLE:;
#ARTIST:DJ Kbz@, DJ Axelito;
#TITLETRANSLIT:;
#SUBTITLETRANSLIT:;
#ARTISTTRANSLIT:;
#CREDIT:;
#BANNER:Mega Francesita.png;
#BACKGROUND:Mega Francesita-bg.png;
#LYRICSPATH:;
#CDTITLE:cdtitle.png;
#MUSIC:Mega Francesita.mp3;
#OFFSET:-0.024;
#SAMPLESTART:63.680;
#SAMPLELENGTH:9.200;
#SELECTABLE:YES;
#DISPLAYBPM:98.000:196.000;
#BPMS:0.000=49.000,28.000=98.000,36.000=49.000,40.000=98.000,56.000=196.000,84.000=98.000,86.000=196.000,146.000=98.000,179.000=392.000,181.000=196.000,244.000=24.500,244.250=98.000;
#STOPS:;
#BGCHANGES:;

//---------------dance-single - ----------------
#NOTES:
     dance-single:
     :
     Hard:
     9:
     0.523,0.645,0.447,0.138,0.215: // measure 1
0000
0000
0000
0000
,  // measure 2
0000
0000
0000
0000
,  // measure 3
0000
0000
0000
0000
,  // measure 4
0001
0000
1000
0000
,  // measure 5
0010
0100
0010
0100
,  // measure 6
0001
0000
0000
0000
0000
0000
0000
0000
0000
0000
0000
0000
0000
0000
0000
0000
0000
0000
0000
0000
0000
0000
0000
0000
1000
0000
0000
0000
0000
0000
0000
0000
0000
0000
0000
0000
0000
0000
0000
0000
0000
0000
0000
0000
0000
0000
0000
0000
0001
0000
0000
0000
0000
0000
0000
0000
0000
0000
0000
0000
0000
0000
0000
0000
0000
0000
0000
1000
0000
0000
0000
0000
0000
0000
0000
0000
0000
0000
0000
0000
0000
0000
0000
0000
0001
0000
0000
0000
0000
0000
0000
0000
0000
0000
0000
0000
0001
0000
0000
0000
0000
0000
0000
0000
0000
0000
0000
0000
0000
0000
0000
0000
0000
0000
0000
0000
0000
0000
0000
0000
0100
0000
0000
0000
0000
0000
0000
0000
0000
0000
0000
0000
0000
0000
0000
0000
0000
0000
0000
0000
0000
0000
0000
0000
0010
0000
0000
0000
0000
0000
0000
0000
0000
0000
0000
0000
0000
0000
0000
0000
0000
0000
0000
0100
0000
0000
0000
0000
0000
0000
0000
0000
0000
0000
0000
0000
0000
0000
0000
0000
0010
0000
0000
0000
0000
0000
0000
0000
0000
0000
0000
0000
,  // measure 7
0010
0000
0000
0000
0000
0000
0000
0000
0000
0000
0000
0000
0000
0000
0000
0000
0000
0000
0000
0000
0000
0000
0000
0000
0100
0000
0000
0000
0000
0000
0000
0000
0000
0000
0000
0000
0000
0000
0000
0000
0000
0000
0000
0000
0000
0000
0000
0000
0001
0000
0000
0000
0000
0000
0000
0000
0000
0000
0000
0000
0000
0000
0000
0000
0000
0000
0000
0100
0000
0000
0000
0000
0000
0000
0000
0000
0000
0000
0000
0000
0000
0000
0000
0000
0001
0000
0000
0000
0000
0000
0000
0000
0000
0000
0000
0000
0001
0000
0000
0000
0000
0000
0000
0000
0000
0000
0000
0000
0000
0000
0000
0000
0000
0000
0000
0000
0000
0000
0000
0000
1000
0000
0000
0000
0000
0000
0000
0000
0000
0000
0000
0000
0000
0000
0000
0000
0000
0000
0000
0000
0000
0000
0000
0000
0010
0000
0000
0000
0000
0000
0000
0000
0000
0000
0000
0000
0000
0000
0000
0000
0000
0000
0000
1000
0000
0000
0000
0000
0000
0000
0000
0000
0000
0000
0000
0000
0000
0000
0000
0000
0000
0000
0000
0000
0000
0000
0000
0000
0000
0000
0000
0000
,  // measure 8
0010
0000
0000
0000
0000
1000
0000
0000
0100
0000
0000
0000
0000
1000
0000
0000
0100
0000
0000
0000
0000
0000
0000
0000
0100
0000
0000
0000
0000
0000
0000
0000
0010
0000
0000
0000
0000
0001
0000
0000
0100
0000
0000
0000
0000
0001
0000
0000
0100
0000
0000
0000
0000
0000
0000
0000
0100
0000
0000
0000
0000
0000
0000
0000
,  // measure 9
0010
0000
0000
0000
0000
1000
0000
0000
0100
0000
0000
0000
0000
1000
0000
0000
0100
0000
0000
0000
0000
0000
0000
0000
0100
0000
0000
0000
0000
0000
0000
0000
0010
0000
0000
0000
0000
0001
0000
0000
0100
0000
0000
0000
0000
0001
0000
0000
0100
0000
0000
0000
0000
0000
0000
0000
0100
0000
0000
0000
0000
0000
0000
0000
,  // measure 10
0010
0000
0010
0000
,  // measure 11
0010
0000
0000
0000
0000
0000
0000
0000
0000
0000
0000
0000
0000
0000
0000
0000
1000
0000
0000
0000
0000
0000
0000
0000
1000
0000
0000
0000
0000
0000
0000
0000
0001
0000
0000
0000
0000
0000
0000
0000
1000
0000
0000
0000
0000
0100
0000
0000
0010
0000
0000
0000
0000
0100
0000
0000
0010
0000
0000
0000
0000
0000
0000
0000
,  // measure 12
0010
0000
0000
0000
0000
0000
0000
0000
0000
0000
0000
0000
0000
0000
0000
0000
0001
0000
0000
0000
0000
0000
0000
0000
0001
0000
0000
0000
0000
0000
0000
0000
1000
0000
0000
0000
0000
0000
0000
0000
0001
0000
0000
0000
0000
0100
0000
0000
0010
0000
0000
0000
0000
0100
0000
0000
0010
0000
0000
0000
0000
0000
0000
0000
,  // measure 13
0010
0000
0000
0000
0000
0000
0000
0000
0000
0000
0000
0000
0000
0000
0000
0000
1000
0000
0000
0000
0000
0000
0000
0000
1000
0000
0000
0000
0000
0000
0000
0000
0001
0000
0000
0000
0000
0000
0000
0000
1000
0000
0000
0000
0000
0100
0000
0000
0010
0000
0000
0000
0000
0100
0000
0000
0010
0000
0000
0000
0000
0000
0000
0000
,  // measure 14
0010
0000
0000
0000
0000
0000
0000
0000
0000
0000
0000
0000
0000
0000
0000
0000
0001
0000
0000
0000
0000
0000
0000
0000
0001
0000
0000
0000
0000
0000
0000
0000
1000
0000
0000
0000
0000
0000
0000
0000
0001
0000
0000
0000
0000
0100
0000
0000
0010
0000
0000
0000
0000
0100
0000
0000
0010
0000
0000
0000
0000
0000
0000
0000
,  // measure 15
1010
0010
0100
0010
0110
0010
1000
0010
,  // measure 16
1010
0010
0100
0010
0110
0010
1000
0010
,  // measure 17
1010
0000
0000
1001
1000
0000
1001
0000
,  // measure 18
0101
0001
0000
1001
1000
0000
1100
0000
,  // measure 19
0101
0001
0100
0001
1100
1000
0100
1000
,  // measure 20
0101
0001
0100
0001
1100
1000
0100
1000
,  // measure 21
0201
0000
0000
0010
0010
0000
0010
0000
,  // measure 22
0310
0000
0000
0000
2001
0000
0200
3300
,  // measure 23
0001
0010
0100
1000
0010
0100
0002
0000
,  // measure 24
0203
0000
0310
0000
0101
0000
0000
0001
,  // measure 25
0011
0000
0100
0000
0101
0000
0000
0001
,  // measure 26
0011
0000
0100
0000
0120
0000
2000
3030
,  // measure 27
0100
0001
1000
0100
0010
0100
2000
0000
,  // measure 28
3020
0000
0130
0000
1010
0000
0000
1000
,  // measure 29
1100
0000
0010
0000
1010
0000
0000
1000
,  // measure 30
1100
0000
0010
0000
0210
0000
0002
0303
,  // measure 31
0100
1000
0001
0100
0010
0100
0002
0000
,  // measure 32
0023
0000
0130
0000
0011
0000
0000
0001
,  // measure 33
0101
0000
0010
0000
0011
0000
0000
0001
,  // measure 34
0101
0000
0010
0000
1002
0000
0200
0303
,  // measure 35
1000
0010
0100
0001
0010
0100
2000
0000
,  // measure 36
3200
0000
0310
0000
1100
0000
0000
1000
,  // measure 37
1001
0000
0000
0000
0001
0000
0000
0000
0011
0000
0000
0000
0000
0000
0000
0001
,  // measure 38
1000
0000
0100
0000
1000
0000
0001
0100
0001
0010
0001
0100
0001
0000
0100
0010
,  // measure 39
0100
0000
1000
0000
0100
0000
1000
0000
0010
0000
0100
0000
0001
0000
1000
0001
,  // measure 40
1000
0000
0100
0000
1000
0000
0000
0001
0100
0000
0001
0100
0000
0001
0010
0100
,  // measure 41
0010
0100
0010
0001
0100
0010
0100
0000
0100
0000
0001
0000
0001
0000
1000
0010
,  // measure 42
1010
0000
0010
0000
0110
0000
0100
0000
0101
0000
1000
0100
0000
0001
0100
0010
,  // measure 43
0100
0001
0010
0100
1000
0100
1000
0100
0010
0000
0001
0100
0000
0000
0000
1000
,  // measure 44
1001
0000
0001
0000
0101
0000
0100
0000
0110
0000
0010
0000
1000
0000
0001
0010
,  // measure 45
0001
0100
0010
1000
0100
1000
0010
1000
0010
0000
1000
0100
0000
0000
0000
0000
,  // measure 46
0000
0000
0000
1000
1001
0000
0100
0000
,  // measure 47
0101
0000
1000
0100
1000
0010
1000
0100
,  // measure 48
1000
0000
0010
0100
0010
0000
0001
0000
,  // measure 49
0101
0001
0011
0100
,  // measure 50
1100
0000
0001
1000
0001
0000
0100
0000
,  // measure 51
0101
0000
0000
1000
0100
0000
1000
0100
,  // measure 52
0000
1000
0010
0100
0010
0100
0010
1000
,  // measure 53
0100
0010
0100
0000
1100
0000
1000
0000
,  // measure 54
1001
0000
0001
0010
0011
0000
0010
0000
,  // measure 55
0110
0000
0100
0000
1100
0000
0001
0100
,  // measure 56
0000
1000
0100
0010
0100
1000
0010
0100
,  // measure 57
0001
0100
0001
0100
0010
0000
1000
0100
,  // measure 58
0000
0000
0000
0001
1001
0000
1000
0000
,  // measure 59
1100
0100
0110
0010
,  // measure 60
0011
0000
1000
0010
1000
0100
0010
0001
,  // measure 61
0100
0001
0010
0001
0010
0000
0001
0100
,  // measure 62
0000
1000
0000
0000
0000
0000
0000
0000
0000
0000
0000
0000
0000
0000
0000
0000
;

//---------------dance-single - ----------------
#NOTES:
     dance-single:
     :
     Medium:
     6:
     0.362,0.446,0.309,0.000,0.037:
0000
0000
0000
0000
,
0000
0000
0000
0000
,
0000
0000
0000
0000
,
1000
0000
0001
0000
,
1000
0001
1000
0001
,
1000
0000
0000
0000
0000
0000
0000
0000
0001
0000
0000
0000
0000
0000
0000
0000
1000
0000
0000
0000
0000
00M0
0000
0000
0000
0000
0000
0000
0001
0000
0000
0000
0001
0000
0000
0000
0000
0000
0000
0000
0010
0000
0000
0000
0000
0000
0000
0000
0100
0000
0000
0000
0000
000M
0000
0000
0000
0000
0000
0000
0010
0000
0000
0000
,
0010
0000
0000
0000
0000
0000
0000
0000
0001
0000
0000
0000
0000
0000
0000
0000
1000
0000
0000
0000
0000
00M0
0000
0000
0000
0000
0000
0000
0001
0000
0000
0000
0001
0000
0000
0000
0000
0000
0000
0000
0010
0000
0000
0000
0000
0000
0000
0000
0100
0000
0000
0000
0000
00M0
0000
0000
0000
0000
0000
0000
0000
0000
0000
0000
,
1000
1000
0100
0100
0001
0001
0100
0100
,
1000
1000
0010
0010
0001
0001
0010
0010
,
1000
0000
1000
0000
,
1000
0000
1000
1000
0100
0010
0001
0010
,
0100
0000
0001
0001
0010
0100
1000
0100
,
0010
0000
1000
1000
0010
0100
0001
0100
,
0010
0000
0001
0001
0100
0010
1000
0010
,
0100
0001
0100
0001
0010
0001
0010
0001
,
0100
0001
0100
0001
0010
0001
0010
0001
,
0100
0000
0000
0001
0100
0000
0001
0000
,
0100
0000
0000
1000
0100
0000
1000
0000
,
0100
1000
0100
1000
0010
1000
0010
1000
,
0100
1000
0100
1000
0010
1000
0010
1000
,
0100
0000
0000
1000
0100
0000
1000
0000
,
0100
0000
0000
0000
1001
0000
0000
0001
,
1000
0000
0100
0000
1001
0000
0000
1000
,
0001
0000
0100
0000
1001
0000
0000
0001
,
1000
0000
0100
0000
1001
0000
0000
1000
,
0001
0000
0100
0000
0110
0000
0000
0010
,
0100
0000
0001
0000
0110
0000
0000
0100
,
0010
0000
1000
0000
0110
0000
0000
0010
,
0100
0000
0001
0000
0110
0000
0000
0100
,
0010
0000
1000
0000
1001
0000
0000
1000
,
0001
0000
0010
0000
1001
0000
0000
0001
,
1000
0000
0010
0000
1001
0000
0000
1000
,
0001
0000
0010
0000
1001
0000
0000
0001
,
1000
0000
0010
0000
0110
0000
0000
0100
,
0010
0000
1000
0000
0110
0000
0000
0010
,
0100
0000
0001
0000
0110
0000
0000
0100
,
0010
1000
0110
0000
,
0001
0000
1000
0000
0010
0010
0100
0000
,
0010
0000
0100
0000
0001
0001
1000
0000
,
0001
0000
0000
0000
1000
0000
0000
0000
0010
0000
0000
00M0
0000
0000
0010
0000
,
1000
1000
0001
0001
1000
0001
0100
0000
,
0101
0000
1000
0100
1100
0000
0001
0010
,
0011
0000
0001
0100
0101
0000
1000
0010
,
1010
0000
0001
0010
0011
0000
1000
0100
,
1100
0000
0000
0000
,
0000
0000
0000
0000
0011
0000
0000
1000
,
0001
0000
1000
0000
1001
0000
0000
0010
,
1000
0000
0010
0000
1010
0000
0000
0100
,
0010
0000
0100
0000
0110
0000
0000
0001
,
0100
0000
0001
0000
0101
0000
0000
1000
,
0001
0000
1000
0000
1001
0000
0000
0010
,
0001
0000
0010
0000
0011
0000
0000
0100
,
0010
0000
0100
0000
0110
0000
0000
1000
,
0100
0000
1000
0000
1100
0000
0000
0001
,
1000
0000
0001
0000
1001
0000
0000
0100
,
1000
0000
0100
0000
1100
0000
0000
0010
,
0100
0000
0010
0000
0110
0000
0000
0001
,
0010
0000
0001
0000
0011
0000
0000
1000
,
0001
0000
1000
0000
1001
0000
0000
0100
,
0001
0000
0100
0000
0101
0000
0000
0010
,
0100
0010
0000
0000
,
0000
1000
0000
0000
0000
0000
0000
0000
0000
0000
0000
0000
0000
0000
0000
0000
;

//---------------dance-single - ----------------
#NOTES:
     dance-single:
     :
     Easy:
     5:
     0.282,0.422,0.341,0.057,0.004:
0000
0000
0000
0000
,
0000
0000
0000
0000
,
0000
0000
0000
0000
,
1000
0000
0001
0000
,
1000
0001
0001
1000
,
1000
0100
0001
0100
,
1000
0010
0001
0010
,
1000
0000
0001
0001
0010
0000
1000
1000
,
0010
0000
0001
0001
0010
0000
1000
1000
,
0010
0000
0010
0000
,
0010
0000
0010
0000
0010
0000
0010
0010
,
0100
0000
0100
0000
0100
0000
0100
0100
,
0010
0000
0010
0000
0010
0000
0010
0010
,
0100
0000
0100
0000
0100
0000
0100
0100
,
0110
0010
0100
0100
,
0010
0010
0100
0100
,
0110
0000
1000
0010
,
1010
0000
0001
0010
,
0011
0001
1000
1000
,
0001
0001
1000
1000
,
1001
0000
0001
1000
,
0001
0000
1001
0000
,
0001
1000
1001
0000
,
0001
1000
1001
0000
,
1000
0001
1001
0000
,
1000
0001
1001
0000
,
0010
0100
0110
0000
,
0010
0100
0110
0000
,
0100
0010
0110
0000
,
0100
0010
0110
0000
,
0001
1000
1001
0000
,
0001
1000
1001
0000
,
1000
0001
1001
0000
,
1000
0001
1001
0000
,
0010
0100
0110
0000
,
0010
0100
0110
0000
,
0100
0010
0110
0000
,
0001
1000
0001
1000
,
0010
0100
0010
0100
,
0001
1000
0001
1000
,
0010
0100
0010
0100
,
1002
0103
2001
3100
,
1002
0103
2001
3100
,
1002
0013
2001
3010
,
0002
0000
1003
0000
,
0000
0000
1100
0000
,
1000
0001
1001
0000
,
0001
0100
0101
0000
,
0100
0010
0110
0000
,
0010
1000
1010
0000
,
1000
0001
1001
0000
,
1000
0100
1100
0000
,
0100
0010
0110
0000
,
0010
0001
0011
0000
,
0001
1000
1001
0000
,
0001
0010
0011
0000
,
0010
0100
0110
0000
,
0100
1000
1100
0000
,
1000
0001
1001
0000
,
1000
0010
1010
0000
,
0000
0000
0000
0000
,
0000
0010
0000
0000
0000
0000
0000
0000
0000
0000
0000
0000
0000
0000
0000
0000
;
