#TITLE:Mechanical Rhythm;
#SUBTITLE:(KAZOO'd);
#ARTIST:Tsuko G. vs ACE+;
#TITLETRANSLIT:;
#SUBTITLETRANSLIT:;
#ARTISTTRANSLIT:;
#GENRE:;
#CREDIT:;
#BANNER:;
#BACKGROUND:;
#LYRICSPATH:;
#CDTITLE:;
#MUSIC:[You Won't See This In DDR V] - Mechanical Rhythm.ogg;
#OFFSET:-0.040000;
#SAMPLESTART:39.710003;
#SAMPLELENGTH:14.700000;
#SELECTABLE:YES;
#BPMS:0.000000=130.000000
,8.000000=260.000000
,104.000000=130.000000
,131.750000=260.000000
,280.000000=130.000000
,296.000000=65.000000
;
#STOPS:128.750000=0.231000,
129.750000=0.231000,
130.750000=0.231000,
131.750000=0.289000
;
#BGCHANGES:;
#KEYSOUNDS:;
#ATTACKS:;

//---------------dance-single - ----------------
#NOTES:
     dance-single:
     :
     Beginner:
     3:
     0.182974,0.394002,0.040026,0.190122,0.020013,128.000000,124.000000,4.000000,19.000000,8.000000,0.000000,0.182974,0.394002,0.040026,0.190122,0.020013,128.000000,124.000000,4.000000,19.000000,8.000000,0.000000:
0000
0000
0000
0000
,
0000
0000
0000
0000
,
100M
0000
0000
0000
,
0100
0000
0010
0000
,
0001
0000
0000
0000
,
0010
0000
0100
0000
,
1000
0000
0000
0000
,
0010
0000
0100
0000
,
0001
0000
0000
0000
,
0100
0000
0010
0000
,
2000
0000
0000
0000
,
3000
0000
0100
0000
,
0002
0000
0000
0000
,
0003
0000
0100
0000
,
0020
0000
0000
0000
,
0031
0000
1000
0000
,
0010
0000
0100
0000
,
0001
0000
0000
0000
,
0002
0000
0000
0000
,
0003
0000
0100
0000
,
2000
0000
0000
0000
,
3000
0000
0100
0000
,
0020
0000
0000
0000
,
1030
0000
0100
0000
,
0001
0000
0100
0000
,
0020
0000
0030
0000
,
1M01
0000
0001
0000
,
0100
0000
0010
0000
,
1000
0000
0100
0000
,
0010
0000
0100
0000
,
1000
0000
0001
0000
,
0001
0000
1000
0000
,
1000
0000
0000
0M00
0001
0000
0000
00M0
0100
0000
0000
M000
0010
0000
0000
000M
,
2000
0000
0000
0000
,
3001
0000
0010
0000
,
0001
0000
0000
0000
,
1000
0000
0100
0000
,
1000
0000
0000
0000
,
0010
0000
1000
0000
,
0010
0000
0000
0000
,
0100
0000
0001
0000
,
0100
0000
0000
0000
,
0002
0000
0003
0000
,
2000
0000
3000
0000
,
0200
0000
0300
0000
,
2000
0000
3000
0000
,
0020
0000
0000
0000
,
0030
0000
0000
0000
,
0100
0000
0001
0000
,
1000
0000
0010
0000
,
1000
0000
0010
0000
,
1000
0000
0000
0000
,
0001
0000
0100
0000
,
0001
0000
0000
0000
,
0010
0000
0001
0000
,
0010
0000
0000
0000
,
0100
0000
1000
0000
,
0001
0000
0100
0000
,
0020
0000
0030
0000
,
2000
0000
3000
0000
,
0002
0000
0003
0000
,
0200
0000
0300
0000
,
0001
0000
0010
0000
,
0000
0000
0010
0000
,
0000
0000
0100
0000
,
1000
0000
1001
0000
,
1000
0000
0010
0000
,
0000
0000
0010
0000
,
0000
0000
0100
0000
,
0001
0000
1001
0000
,
10M0
0000
1000
0000
,
0001
0000
0001
0000
,
0100
0000
0100
0000
,
0010
0000
0010
0000
,
100M
0010
0100
0001
,
0001
0010
0100
1000
,
0010
1000
0001
0100
,
0001
1000
0100
0010
,
2002
0000
0000
3003
;

//---------------dance-single - ----------------
#NOTES:
     dance-single:
     :
     Easy:
     5:
     0.351654,0.866805,0.360231,0.320205,0.020013,246.000000,210.000000,36.000000,32.000000,8.000000,0.000000,0.351654,0.866805,0.360231,0.320205,0.020013,246.000000,210.000000,36.000000,32.000000,8.000000,0.000000:
0000
0000
0000
0000
,
0000
0000
0000
0000
,
100M
0000
0100
0000
,
0010
0001
0010
0000
,
0001
0000
0100
0000
,
0010
1000
0010
0000
,
1000
0000
0010
0000
,
0100
0001
0100
0000
,
0001
0000
0010
0000
,
0100
1000
0100
0000
,
2000
0000
0010
0000
,
0001
0000
0100
0000
,
3002
0000
0100
0000
,
1000
0000
0010
0000
,
0203
0000
0001
0000
,
0010
0000
1000
0000
,
0320
0000
0001
0000
,
2000
0000
3030
0000
,
0002
0000
0100
0000
,
1000
0000
0010
0000
,
2003
0000
0100
0000
,
0001
0000
3020
0000
,
0230
0000
0001
0000
,
1000
0000
0320
0000
,
0001
0000
2030
0000
,
0002
0000
3003
0000
,
10M0
0100
1000
1000
,
0001
0100
0001
0011
,
0001
0000
0010
0000
0001
0000
0000
1010
,
0000
1000
0000
1000
0000
0002
0000
0000
,
1003
0100
0010
0001
,
0001
0010
0100
1000
,
1001
0000
0000
00M0
0101
0000
0000
00M0
1100
0000
0000
000M
0110
0000
0000
M000
,
0001
0100
0010
1000
,
0001
0000
0010
0000
,
0100
0000
1000
0100
,
1000
0000
0010
0000
,
0100
0000
0001
0100
,
0010
0000
1000
0000
,
0001
0000
0010
0100
,
0020
0000
0032
0000
,
2003
0000
3200
0000
,
1300
0100
1000
0000
,
0001
0100
0001
0000
,
1000
0010
1000
0000
,
0001
0010
0001
0000
,
1001
0000
0001
0000
,
0010
0000
0100
0000
,
1000
0000
0001
0000
,
1000
0100
0001
0100
,
1000
0000
0010
0000
,
0100
0000
0001
0100
,
0001
0000
0010
0000
,
0100
0000
1000
0001
,
0010
0000
0001
0000
,
1000
0000
0010
0100
,
0020
0000
2030
0000
,
3002
0000
0013
0000
,
0012
0000
0103
0000
,
2010
0000
3100
0000
,
1000
0000
0010
0000
,
0001
0000
0010
0000
,
2000
0000
0001
0000
,
3001
0000
0011
0000
,
0002
0000
1000
0000
,
1003
0000
1100
0000
,
2000
0000
0001
0000
,
3001
0000
0101
0000
,
0002
0000
1000
0000
,
1003
0000
1010
0000
,
110M
1100
0101
0101
,
1010
1010
0011
0011
,
1001
1001
0110
0110
,
2000
3020
0230
0302
,
10M3
1000
1100
0000
0001
0001
0011
0011
,
0001
0001
0101
0000
1000
1000
1010
1010
,
0010
0010
0110
0000
0100
0100
1001
1001
,
1000
0100
0110
0000
0010
0001
0100
0010
,
2002
0000
0000
3003
;

//---------------dance-single - ----------------
#NOTES:
     dance-single:
     :
     Medium:
     7:
     0.498891,1.063806,0.310199,0.280179,0.120077,349.000000,318.000000,31.000000,28.000000,8.000000,0.000000,0.498891,1.063806,0.310199,0.280179,0.120077,349.000000,318.000000,31.000000,28.000000,8.000000,0.000000:
// measure 0
0000
0000
0000
0000
,  // measure 1
0000
0000
0000
0000
,  // measure 2
M001
0100
0001
0100
,  // measure 3
0001
1000
0010
1000
,  // measure 4
1000
0100
1000
0100
,  // measure 5
1000
0001
0010
0001
,  // measure 6
0010
0100
0010
0100
,  // measure 7
0010
0001
1000
0001
,  // measure 8
0100
0010
0100
0010
,  // measure 9
0100
1000
0001
0010
,  // measure 10
2000
0010
0000
0001
,  // measure 11
0000
3100
0010
0011
,  // measure 12
0002
0100
0000
1000
,  // measure 13
0000
0013
0100
1100
,  // measure 14
0200
1000
0000
1300
,  // measure 15
0002
0103
0020
0130
,  // measure 16
0001
0010
0000
0000
0011
0000
0000
0000
,  // measure 17
1000
0100
0000
0000
1100
0000
0000
0000
,  // measure 18
0002
0010
0000
1000
,  // measure 19
0000
0103
0010
1010
,  // measure 20
2000
0100
0000
0001
,  // measure 21
0000
3010
0100
0101
,  // measure 22
0002
0010
0000
0013
,  // measure 23
0200
1300
0002
0103
,  // measure 24
0020
1030
0020
0100
,  // measure 25
0000
0130
0002
0000
,  // measure 26
1M03
0100
0000
0001
0100
0000
1000
0010
,  // measure 27
0100
0001
0010
0000
1000
0010
0110
0000
,  // measure 28
0100
0010
0001
0000
1000
0010
0000
1020
,  // measure 29
0000
0130
0001
0011
0000
1100
0000
0101
,  // measure 30
0001
0100
0010
0000
1000
0010
0100
0001
,  // measure 31
1000
0100
0010
0000
0001
0010
0220
0330
,  // measure 32
100M
1000
0M01
0001
01M0
0100
M010
0010
,  // measure 33
1000
0100
0010
0001
,  // measure 34
1000
0000
0100
0000
1000
0000
0000
0001
,  // measure 35
0000
0010
0000
0001
1000
0000
0000
0000
,  // measure 36
0001
0000
0100
0000
0001
0000
0000
1000
,  // measure 37
0000
0010
0000
1000
0001
0000
0100
0000
,  // measure 38
0010
0000
1000
0000
0010
0000
0000
0100
,  // measure 39
0000
0001
0000
1000
0100
0000
0010
0000
,  // measure 40
0002
0000
0000
0023
0000
0000
0130
0000
,  // measure 41
2000
0000
0000
3020
0000
0000
0130
0000
,  // measure 42
0001
0000
0100
0000
0010
0000
1000
0020
,  // measure 43
0000
0130
0001
0020
,  // measure 44
0000
0000
0130
1000
,  // measure 45
0001
2000
0000
0000
0002
0000
3003
0000
,  // measure 46
0001
0100
1000
0100
,  // measure 47
0001
0010
1000
0010
,  // measure 48
0001
0000
0000
1001
0000
0000
0000
0110
,  // measure 49
0000
0000
0001
0000
1000
0100
0010
0000
,  // measure 50
0001
0000
0100
0000
0001
0000
0000
1000
,  // measure 51
0000
0010
0000
1000
0001
0000
0000
0000
,  // measure 52
1000
0000
0100
0000
1000
0000
0000
0001
,  // measure 53
0000
0010
0000
0001
1000
0000
0000
0000
,  // measure 54
0010
0000
1000
0000
0010
0000
0000
0100
,  // measure 55
0000
0001
0010
0100
,  // measure 56
0110
0000
1100
0000
,  // measure 57
0101
0000
1001
0000
,  // measure 58
0010
0000
0000
1000
0000
0000
0010
0000
,  // measure 59
0100
0000
0000
0001
0000
0000
0100
0000
,  // measure 60
0001
0000
0000
0010
0000
0000
1000
0000
,  // measure 61
0010
0000
0000
0001
0000
0000
0100
0000
,  // measure 62
0001
0100
0000
0100
,  // measure 63
0010
0000
0010
1000
,  // measure 64
0000
1000
0001
0000
,  // measure 65
1000
0100
0010
0100
,  // measure 66
1000
0100
0000
0100
,  // measure 67
0010
0000
0010
0001
,  // measure 68
0000
0000
0001
0000
1000
0000
0000
0010
,  // measure 69
0000
0100
0001
1000
,  // measure 70
0M01
0100
0110
0000
1010
0000
0120
0000
,  // measure 71
1030
0100
0110
0000
0011
0000
0210
0000
,  // measure 72
1300
0001
0101
0000
1010
0000
1001
0000
,  // measure 73
1000
0001
0011
0000
0001
1000
0010
0100
,  // measure 74
M001
0100
0010
1000
0001
1000
0000
0000
0000
1000
0100
0000
0001
0100
0110
0000
,  // measure 75
1000
0010
0100
0001
1000
0001
0000
0000
0000
1000
0100
1000
0001
0010
0001
0000
,  // measure 76
0001
0100
1000
0100
0010
1000
0000
0000
0000
0001
0100
0000
1000
0100
0110
0000
,  // measure 77
1000
0000
0010
0000
0001
0000
0010
0000
0100
0000
0001
0000
0000
0000
0010
0000
0000
0000
0100
0000
1000
0000
0001
0000
0010
0000
0100
0000
0000
1000
0000
0000
,  // measure 78
2002
0000
0000
3003
;

//---------------dance-single - ----------------
#NOTES:
     dance-single:
     :
     Hard:
     10:
     0.790506,1.497208,0.420269,0.360231,0.380243,553.000000,511.000000,42.000000,36.000000,8.000000,0.000000,0.790506,1.497208,0.420269,0.360231,0.380243,553.000000,511.000000,42.000000,36.000000,8.000000,0.000000:
0000
0000
0000
0000
,
0000
0000
0000
0000
,
110M
0000
0100
1000
0010
0100
0001
0100
,
0010
1000
0001
0020
0000
0031
0100
0002
,
0000
0000
0103
0001
0010
0100
1000
0100
,
0010
0001
1000
0010
0000
0200
0000
0300
,
0101
0000
0001
0100
0010
1000
0100
1000
,
0010
0100
0001
0020
0000
1030
0001
0200
,
0000
0000
1300
0100
0010
0001
0100
0010
,
0000
1000
0010
0100
0001
0010
0100
1000
,
0010
0000
1000
0100
0010
0100
1000
0000
,
0010
0000
0100
0001
0000
0010
0100
0000
,
0001
0000
0100
0010
0001
0010
0100
0000
,
0010
0000
0100
1000
0000
0001
0010
0000
,
0001
0000
0100
0001
0010
0001
0100
0000
,
0010
0000
0100
1000
0000
0100
0001
0000
,
1000
0010
0000
0000
1010
0000
0000
1000
,
0001
0100
0000
0000
0101
0000
0000
0100
,
0001
0000
0010
0100
1000
0100
0010
0000
,
0001
0000
1000
0010
0000
1000
0001
0000
,
1000
0000
0001
0010
0100
0010
0001
0000
,
1000
0000
0100
0001
0000
0100
0010
0000
,
0001
0000
0100
0010
1000
0100
0010
0000
,
0100
0000
1000
0001
0000
0100
0010
0000
,
1000
0100
0010
0002
,
0000
0000
1003
0000
0100
0010
0100
0000
,
100M
0100
1000
0100
0010
0000
0001
0100
0001
0000
1000
0000
1100
0000
1000
0000
,
0001
0000
0001
0100
0001
0100
0000
0010
1000
0100
1000
0100
0020
0001
0000
0030
,
0001
0000
0021
0000
0130
0000
1000
0010
2000
0000
3100
0000
0000
0000
0220
0000
,
0300
0000
0031
0000
1000
0000
1100
0000
0000
0000
0101
0000
0001
1000
0001
1000
,
0001
0100
0001
0100
0010
0000
1000
0100
0000
0100
1000
0000
0010
0000
0100
0001
,
1000
0100
1000
0100
0010
0000
0001
0010
0000
0100
1000
0000
2020
0000
3030
0000
,
1000
0010
0100
00M1
0001
0010
0100
100M
0110
0000
2001
3M00
0010
1000
0001
M010
,
0001
0010
0100
1000
0010
0100
0001
1000
,
0100
0000
1000
0010
0000
0010
1000
0001
,
0010
0100
1000
0000
1001
0000
1000
0010
,
0100
0000
0001
0010
0000
0010
0001
0100
,
0001
0000
0001
1000
0000
1000
0100
0000
,
0010
0000
0001
1000
0000
0010
1000
0000
,
0001
0010
0100
0000
1100
0000
0011
0000
,
0001
0100
0001
0000
1000
0100
1000
0000
,
0001
0010
0001
0000
1000
0010
1000
0000
,
0001
0100
0001
1000
0020
0000
0000
0000
,
1030
0100
1000
0001
0020
0000
0000
0000
,
0031
1000
0001
0100
0020
0000
0000
0000
,
1030
0001
1000
0100
0020
0000
0000
0030
,
0001
0000
0100
0001
0010
0100
1000
0100
,
0010
0001
1000
0010
0000
1000
0001
0100
,
0000
0000
0001
1000
0010
0100
0001
1000
,
0000
0001
0010
0001
1000
0100
1000
0001
,
0010
0000
0001
0100
0000
0100
0001
1000
,
0100
0010
0001
0000
1001
0000
0001
0100
,
0010
0000
1000
0100
0000
0100
1000
0010
,
1000
0000
1000
0001
0000
0001
0010
0000
,
0100
0000
1000
0001
0000
0100
0001
0000
,
1000
0100
0010
0000
0011
0000
1100
0000
,
2020
0000
0000
3030
0202
0000
0000
0303
,
2200
0000
0000
3300
0022
0000
0000
0033
,
0020
0000
0000
0001
0000
0000
0031
0010
,
0200
0000
0000
1000
0000
0000
1300
0100
,
2000
0000
0000
0010
0000
0000
3010
0100
,
0002
0000
0000
0100
0000
0000
0013
0000
,
0100
1000
0100
1000
0000
0000
0001
0100
,
0001
0100
0000
0000
0110
0000
1001
0000
,
0100
0000
0010
1000
0010
1000
0000
0000
,
0001
0010
0001
1000
0020
0000
0000
0000
,
0130
0001
0100
0001
0000
0000
1000
0100
,
1000
0100
0000
0000
1001
0000
0110
0000
,
0010
0000
1000
0010
1000
0001
0000
0010
,
0000
0001
1000
0010
0100
0001
1000
0100
,
100M
0000
0100
1000
1010
0000
0100
0000
0011
0000
0100
0000
1001
0000
0001
0000
,
0100
0000
0001
0100
1010
0000
0100
0000
0011
0000
0100
0000
0110
0000
0001
0000
,
1000
0000
0010
0100
0101
0000
0010
0000
1100
0000
0010
0000
1001
0000
0100
0000
,
0001
0000
0100
0010
1000
0001
0000
0001
1000
0010
0100
0001
1000
0001
1000
0001
,
M100
0000
0001
0000
0010
0000
0100
1000
0001
0000
0100
0000
0000
0000
1001
0000
0100
0000
1000
0000
0010
0000
0100
0001
1000
0000
0100
0000
0110
0000
0000
0000
,
0100
0000
0010
0000
0001
0000
0100
0001
0010
0000
0100
0000
0000
0000
1002
0000
0103
0000
0010
0000
1000
0000
0100
1000
0010
0000
0000
0100
0001
0000
1000
0000
,
0001
0000
0100
0000
0010
0000
1000
0001
0010
0000
0100
0000
0000
0000
0210
0000
1300
0000
0100
0000
0010
0000
0001
1000
0010
0000
0100
0000
0110
0000
0000
0000
,
0100
0000
0001
0000
0010
0000
1000
0010
0001
0000
0100
0000
0000
0000
2001
0000
3100
0000
1000
0000
0010
0000
0001
0010
1000
0000
0001
0000
0000
0100
0000
0000
,
2002
0000
0000
3003
;
