#TITLE:MTTS;
#SUBTITLE:feat. Reid Stefan;
#ARTIST:Alvaro;
#TITLETRANSLIT:;
#SUBTITLETRANSLIT:;
#ARTISTTRANSLIT:;
#GENRE:;
#CREDIT:;
#BANNER:;
#BACKGROUND:;
#LYRICSPATH:;
#CDTITLE:;
#MUSIC:MTTS.ogg;
#OFFSET:-0.116112;
#SAMPLESTART:58.859997;
#SAMPLELENGTH:12.000000;
#SELECTABLE:YES;
#BPMS:0.000000=128.000000
;
#STOPS:
;
#BGCHANGES:;
#KEYSOUNDS:;
#ATTACKS:;

//---------------dance-single - ----------------
#NOTES:
     dance-single:
     :
     Beginner:
     2:
     0.116223,0.130334,0.009351,0.000000,0.000000,86.000000,1.000000,0.000000,0.000000,0.000000,0.000000,0.116223,0.130334,0.009351,0.000000,0.000000,86.000000,1.000000,0.000000,0.000000,0.000000,0.000000:
0000
0000
0000
0000
,
0000
0000
0000
0000
,
0000
0000
0000
0000
,
0000
0000
0000
0000
,
1000
0000
0000
0000
,
0100
0000
0000
0010
,
0010
0000
0000
0000
,
0001
0000
1000
1000
,
1000
0000
0000
0000
,
0010
0000
0000
0100
,
0100
0000
0000
0000
,
0001
0000
0010
0010
,
0010
0000
0000
0000
,
0100
0000
0000
1000
,
1000
0000
0000
0000
,
0010
0000
0100
0100
,
0100
0000
0000
0000
,
0001
0000
0000
0000
,
0010
0000
0000
0000
,
0100
0000
0000
0000
,
1000
0000
0000
0000
,
0010
0000
0000
0000
,
0100
0000
0000
0000
,
0001
0000
0000
0000
,
1000
0000
0000
0000
,
0100
0000
0000
0000
,
0010
0000
0000
0000
,
0001
0000
0000
0000
,
0100
0000
0100
0000
,
0010
0000
0010
0000
,
1000
0000
1000
0000
,
1001
0000
0000
0000
,
1000
0000
0000
0000
,
0010
0000
0000
0000
,
0100
0000
0000
0000
,
0001
0000
0000
0000
,
0010
0000
0010
0000
,
0100
0000
0100
0000
,
1000
0000
1000
0000
,
0001
0000
0001
0001
,
0000
1000
0000
1000
,
0000
0010
0000
0010
,
0000
0100
0000
0100
,
0000
0001
0000
0001
,
0001
0000
0010
0000
,
0100
0000
0100
0000
,
1000
0000
1000
0000
,
0001
0000
0001
0000
,
1000
0000
1000
0000
,
0010
0000
0010
0000
,
0100
0000
0100
0000
,
0001
0000
0001
0000
,
0010
0000
0010
0000
,
0100
0000
0100
0000
,
1000
0000
1000
0000
,
0001
0000
0001
0001
;

//---------------dance-single - ----------------
#NOTES:
     dance-single:
     :
     Easy:
     4:
     0.296570,0.288020,0.149621,0.224431,0.000000,182.000000,16.000000,24.000000,0.000000,0.000000,0.000000,0.296570,0.288020,0.149621,0.224431,0.000000,182.000000,16.000000,24.000000,0.000000,0.000000,0.000000:
0000
0000
0000
0000
,
0000
0000
0000
0000
,
0000
0000
0000
0000
,
0000
0000
0000
0000
,
1000
1000
0100
0100
,
0010
0010
0001
1001
,
1000
1000
0010
0010
,
0100
0100
0101
0101
,
1000
0100
0010
0001
,
0100
0010
1000
1010
,
1000
0100
0010
0001
,
0100
0010
1001
1001
,
1000
0100
0010
0001
,
0100
0010
1000
0101
,
0001
0010
0100
1000
,
0010
0100
1010
1010
,
2000
0000
0000
3100
,
0200
0000
0000
0310
,
0020
0000
0000
0031
,
0002
0000
0000
0103
,
0200
0000
0000
0310
,
0020
0000
0000
1030
,
2000
0000
0000
3001
,
0002
0000
0000
1003
,
1000
0001
0100
0000
,
0001
1000
0100
0000
,
1000
0001
0010
0000
,
0001
1000
0010
0000
,
1000
0010
0100
0000
,
0001
0010
0100
0000
,
1000
0001
0100
0100
,
2002
0000
0000
3003
,
1000
0100
0010
0010
,
0001
0100
0010
0020
,
1030
0010
0100
0100
,
0001
0010
1100
1200
,
1300
0001
0100
0100
,
0001
1000
0100
0200
,
1300
0001
0010
0010
,
0001
1000
1010
1020
,
1030
0001
1000
1000
,
0001
1000
0001
0002
,
0103
0010
0100
0100
,
0010
0100
0110
0120
,
0130
0001
1000
1000
,
0100
1000
0001
0002
,
0013
0001
1000
1000
,
0001
0010
0002
0000
,
1003
0001
1000
0001
,
0100
0010
0100
0020
,
1030
0100
1000
0100
,
0010
0001
0020
0032
,
1003
0010
1000
0010
,
0100
0001
0100
0002
,
1003
0001
1000
0001
,
0010
0100
0020
0230
,
0300
0000
0000
0000
;

//---------------dance-single - ----------------
#NOTES:
     dance-single:
     :
     Medium:
     6:
     0.371380,0.340007,0.093513,0.224431,0.000000,244.000000,10.000000,24.000000,0.000000,0.000000,0.000000,0.371380,0.340007,0.093513,0.224431,0.000000,244.000000,10.000000,24.000000,0.000000,0.000000,0.000000:
0000
0000
0000
0000
,
0000
0000
0000
0000
,
0000
0000
0000
0000
,
0000
0000
0000
0000
,
1000
0000
0001
0001
0100
0000
0010
0000
,
1000
0000
0000
0000
0100
0000
0100
0000
0010
0000
0000
0000
0012
0000
0000
0003
,
1000
0000
0010
0010
0100
0000
0001
0000
,
0010
0000
0000
0000
0100
0000
0100
0000
1001
0000
0000
0000
2001
0000
0000
3000
,
0100
0000
0010
0001
0100
0000
0010
0000
,
0100
0000
0000
0000
0001
0000
0010
0000
0100
0000
0000
0000
1002
0000
0000
0003
,
1000
0000
0010
0100
0001
0000
0010
0000
,
0100
0000
0000
0000
0010
0000
0001
0000
1100
0000
0000
0000
2100
0000
0000
3000
,
0001
0000
1000
0010
0100
0000
0001
0000
,
0100
0000
0000
0000
0010
0000
1000
0000
0001
0000
0000
0000
2010
0000
0000
3000
,
0001
0000
1000
0100
0010
0000
0001
0000
,
0100
0000
0000
0000
0010
0000
0100
0000
1001
0000
0000
0000
1002
0000
0000
0003
,
0100
0000
0001
0010
0000
0100
1000
0000
,
0001
0000
1000
0010
0000
0100
0001
0000
,
1000
0000
0001
1000
0000
0100
1000
0000
,
0001
0000
0010
0001
0000
1000
0001
0000
,
0100
0000
0001
0010
0000
0100
1000
0000
,
0100
0000
1000
0010
0000
0100
0001
0000
,
1000
0000
0001
0100
0000
0010
1000
0000
,
0001
0000
1000
0100
0000
0010
0001
0000
,
1000
0010
0100
0001
,
0010
0000
0100
0100
1000
0000
1000
0000
,
0001
0100
0010
1000
,
0001
0000
0010
0010
0001
0000
1000
0000
,
0001
0000
0100
0010
0100
0000
0001
0000
,
1000
0000
0100
0010
0100
0000
1000
0000
,
0001
0000
1000
0001
1000
0000
0100
0000
,
1002
0000
1000
1003
,
0001
0000
1000
0000
0100
0010
0100
0000
,
1000
0000
0010
0000
0100
0010
0200
0000
,
0301
0000
1000
0000
0100
1000
0100
0000
,
1000
0000
0000
0000
0001
0000
0000
0000
0200
0000
0000
0300
0200
0000
0000
0000
,
0301
0000
0010
0000
0100
1000
0001
0000
,
1000
0000
0100
0000
0010
0001
2000
0000
,
3001
0000
0100
0000
0010
1000
0001
0000
,
1000
0000
0000
0000
0010
0000
0000
0000
0200
0000
0000
0300
0200
0000
0000
0000
,
0301
0000
0010
0000
0100
1000
0001
0000
,
1000
0000
0010
0000
0100
0001
0020
0000
,
0130
0000
1000
0000
0001
1000
0010
0000
,
0100
0000
0000
0000
0001
0000
0000
0000
2000
0000
0000
3000
2000
0000
0000
0000
,
3001
0000
1000
0000
0010
0100
0010
0000
,
0100
0000
0001
0000
0010
0100
2000
0000
,
3001
0000
1000
0000
0010
0100
0001
0000
,
0010
0000
0100
1000
0002
0000
0000
0000
,
1003
0010
0100
0001
,
0010
0000
0000
0000
0100
0000
0000
0000
1000
0000
0000
0000
0002
0000
0000
0003
,
1000
0010
0100
0001
,
0010
0000
0000
0000
0100
0000
0000
0000
2000
0000
0000
3000
2000
0000
0000
3000
,
0010
0100
0001
0010
,
0100
0000
0000
0000
1000
0000
0000
0000
0010
0000
0000
0000
0200
0000
0000
0300
,
0001
0010
0100
1000
,
0010
0000
0000
0000
0100
0000
0000
0000
0002
0000
0000
0003
0002
0000
0000
0003
;

//---------------dance-single - ----------------
#NOTES:
     dance-single:
     :
     Hard:
     10:
     0.591804,0.575397,0.074810,0.196377,0.439511,414.000000,8.000000,21.000000,0.000000,0.000000,0.000000,0.591804,0.575397,0.074810,0.196377,0.439511,414.000000,8.000000,21.000000,0.000000,0.000000,0.000000:
// measure 0
0000
0000
0000
0000
,  // measure 1
0000
0000
0000
0000
,  // measure 2
0000
0000
0000
0000
,  // measure 3
0000
0000
0000
0000
,  // measure 4
1000
0000
0100
0010
0100
0010
0001
0000
,  // measure 5
0100
0000
0000
0000
0010
0000
0100
0000
0010
0000
0100
0000
0002
0000
1000
0003
,  // measure 6
1000
0000
0100
0010
0100
0010
0001
0000
,  // measure 7
0100
0000
0010
0100
0002
1000
2003
0001
,  // measure 8
3001
0000
1000
0100
0010
0001
0100
0000
,  // measure 9
1000
0000
0000
0000
1000
0000
0100
0000
0010
0001
0000
0000
0001
0100
0000
0000
,  // measure 10
1001
0000
1000
0100
0010
0100
1000
0000
,  // measure 11
0010
0000
0000
0000
0100
0000
0010
0000
1000
0001
0000
0000
0001
0100
0000
0000
,  // measure 12
1001
0000
0000
0001
1000
0000
0010
0000
0100
0000
1000
0000
0100
0001
0000
0000
,  // measure 13
1000
0000
0000
0100
0010
0000
0100
0000
1000
0000
0010
0000
0100
0001
0000
0000
,  // measure 14
1000
0100
0000
0010
0001
0010
0001
0000
1000
0000
0010
0000
0100
0001
0000
0000
,  // measure 15
1000
0100
0000
0010
0100
0010
0100
0000
1000
0000
0010
0000
0100
0001
0100
0001
,  // measure 16
1000
0000
0010
0100
0000
0100
0001
0000
,  // measure 17
0010
0000
0010
0001
0000
0001
1000
1000
,  // measure 18
0100
0000
1000
0010
0000
0010
0100
0000
,  // measure 19
1000
0000
1000
0100
0000
0100
0001
0001
,  // measure 20
0010
0000
0010
0100
0000
0100
1000
0000
,  // measure 21
0001
0000
0001
1000
0000
1000
0010
0010
,  // measure 22
0100
0000
0100
0001
0000
0001
0010
0000
,  // measure 23
0100
0000
0100
1000
0000
1000
0010
0010
,  // measure 24
0100
0000
0000
0001
0010
0000
0100
0000
1000
0000
0010
0000
1000
0001
0000
0000
,  // measure 25
1000
0000
0000
0010
0100
0000
0001
0000
0010
0000
0100
0000
0010
0001
0000
0000
,  // measure 26
0100
0000
0000
0010
1000
0000
0100
0000
0010
0000
0100
0000
1000
0001
0000
0000
,  // measure 27
1000
0000
0000
0010
0100
0000
0001
0000
0010
0000
0100
0000
0010
0001
0000
0000
,  // measure 28
0001
0000
0000
1000
0001
0000
0001
0000
1000
0000
1000
0000
0001
0000
0001
0000
,  // measure 29
0100
0000
0000
0100
0010
0000
0010
0000
0100
0000
0100
0000
0010
0000
0010
0000
,  // measure 30
1000
0000
0000
0100
0010
0000
0010
0000
0001
0000
0001
0000
1000
0000
1000
0000
,  // measure 31
1002
0000
1000
1003
,  // measure 32
1001
0000
0000
0000
0000
0000
0000
0000
0000
0001
0000
0000
0100
0000
0000
0000
0000
0000
0100
0000
0000
0000
0000
0000
0010
0000
0000
0000
0000
0000
0010
0000
0000
0000
0000
0000
1000
0000
0000
0000
0000
0000
0100
0000
0010
0000
0100
0000
,  // measure 33
0010
0001
0000
0010
0001
0000
0001
0000
1000
0000
1000
0010
0200
0000
0000
0000
,  // measure 34
0301
0000
0000
0000
0000
0000
0000
0000
0000
0010
0000
0000
0100
0000
0000
0000
0000
0000
0100
0000
0000
0000
0000
0000
1000
0000
0000
0000
0000
0000
1000
0000
0000
0000
0000
0000
0001
0000
0000
0000
0000
0000
1000
0000
0001
0000
0100
0000
,  // measure 35
0001
0100
0000
0001
1000
0100
1000
0000
1001
0000
0000
0000
0102
0000
0000
0000
,  // measure 36
1003
0000
0000
0001
0000
0001
0100
0000
0001
0000
0010
0000
0200
0000
0000
0300
,  // measure 37
1000
0010
0000
0010
0100
0000
0100
0000
0001
0000
1000
0001
2000
0000
0010
3000
,  // measure 38
0010
0000
0000
0100
0000
0100
0001
0000
0010
0000
0100
0000
0010
0000
0100
0000
,  // measure 39
1000
0001
0000
0001
1000
0000
0010
0000
0100
0001
0100
0001
0100
0001
0100
0001
,  // measure 40
1000
0000
0000
0000
0000
0000
0000
0000
0000
0100
0000
0000
1000
0000
0000
0000
0000
0000
1000
0000
0000
0000
0000
0000
0001
0000
0000
0000
0000
0000
1000
0000
0000
0000
0000
0000
1000
0000
0000
0000
0000
0000
0001
0000
0010
0000
0001
0000
,  // measure 41
0010
0100
0000
0100
1000
0000
0010
0000
0100
0000
0001
1000
0002
0000
0000
0000
,  // measure 42
1003
0000
0000
0000
0000
0000
0000
0000
0000
0010
0000
0000
0100
0000
0000
0000
0000
0000
0100
0000
0000
0000
0000
0000
0001
0000
0000
0000
0000
0000
1000
0000
0000
0000
0000
0000
0001
0000
0000
0000
0000
0000
1000
0000
0010
0000
1000
0000
,  // measure 43
0010
0100
0000
0100
0001
0010
0001
0000
0100
0000
0010
0100
0020
0000
0000
0000
,  // measure 44
1030
0000
0000
0100
0000
0100
0010
0000
0001
0000
0100
0000
0020
0000
0000
0030
,  // measure 45
1000
0100
0000
1000
0001
0000
0100
0000
0010
0000
1000
0001
2000
0000
0001
3000
,  // measure 46
0001
0000
0000
0010
0000
0010
0100
0000
0010
0000
0001
0000
2000
0000
0000
3000
,  // measure 47
0001
0100
0000
0100
0010
0000
1000
0000
0001
1000
0001
1000
0001
1000
0001
1000
,  // measure 48
0100
0000
0010
0001
0010
0000
0100
0000
1000
0000
0010
1000
0010
0000
0100
0000
,  // measure 49
0001
0000
1000
0001
1000
0000
0100
0000
1000
0000
0001
0010
0002
0000
1000
0003
,  // measure 50
0001
0000
0100
0010
0100
0000
0010
0000
1000
0000
0100
0010
0100
0000
0010
0000
,  // measure 51
0001
0000
0100
0001
0100
0000
0010
0000
2000
0000
3100
0010
0200
0000
1300
0000
,  // measure 52
0001
0000
0000
0100
0010
0000
0010
0000
1000
0000
0000
0100
0010
0000
0010
0000
,  // measure 53
0001
0000
0000
0010
0100
0000
0100
0000
1000
0000
0000
0010
0200
0000
0301
0000
,  // measure 54
1000
0000
0000
1000
0100
0000
0010
0000
0001
0000
0000
0001
0100
0000
0010
0000
,  // measure 55
1000
0000
0000
1000
0001
0000
0100
0000
2002
0000
0000
3003
2002
0000
0000
3003
;
