#VERSION:0.83;
#TITLE:Leave It All To Me;
#SUBTITLE:;
#ARTIST:Miranda Cosgrove ft. Drake Bell;
#TITLETRANSLIT:;
#SUBTITLETRANSLIT:;
#ARTISTTRANSLIT:;
#GENRE:;
#ORIGIN:;
#CREDIT:;
#BANNER:Leave It All To Me.png;
#BACKGROUND:Leave It All To Me-bg.png;
#PREVIEWVID:;
#JACKET:Leave It All To Me-jacket.png;
#CDIMAGE:;
#DISCIMAGE:;
#LYRICSPATH:;
#CDTITLE:;
#MUSIC:Leave It All To Me.ogg;
#OFFSET:-0.500000;
#SAMPLESTART:39.316994;
#SAMPLELENGTH:14.999990;
#SELECTABLE:YES;
#BPMS:0.000=210.000,
348.000=170.000,
350.000=140.000,
351.000=125.000;
#STOPS:;
#DELAYS:;
#WARPS:;
#TIMESIGNATURES:0.000=4=4;
#TICKCOUNTS:0.000=4;
#COMBOS:0.000=1;
#SPEEDS:0.000=1.000=0.000=0;
#SCROLLS:0.000=1.000;
#FAKES:;
#LABELS:0.000=Song Start;
#BGCHANGES:;
#KEYSOUNDS:;
#ATTACKS:
;

//---------------dance-single - ----------------
#NOTEDATA:;
#CHARTNAME:;
#STEPSTYPE:dance-single;
#DESCRIPTION:;
#CHARTSTYLE:;
#DIFFICULTY:Hard;
#METER:9;
#RADARVALUES:0.539414,0.722141,0.103837,0.821258,0.339831,400.000000,389.000000,11.000000,87.000000,0.000000,0.000000,0.000000,0.000000,0.000000,0.539414,0.722141,0.103837,0.821258,0.339831,400.000000,389.000000,11.000000,87.000000,0.000000,0.000000,0.000000,0.000000,0.000000;
#CREDIT:;
#NOTES:
0000
0000
0000
0000
,
0000
0000
0000
0000
,
0000
0000
0000
0000
,
0000
0000
0000
0000
,
1100
0010
0101
0010
,
1100
0000
0000
0010
0000
0000
0101
0000
0010
0100
0000
0100
,
0001
0010
1000
0010
,
0001
0100
1000
0100
,
0001
0000
0000
0010
0000
0000
0100
0000
0000
1000
0000
0100
,
0000
0000
0010
0100
0000
0000
1000
0000
0001
1000
0000
0000
,
0001
1000
0010
0001
,
0100
1000
0100
0010
,
0001
0000
0000
0010
0000
0000
0100
0000
0100
0010
0000
0000
,
0001
0000
0000
1000
0000
0000
0001
0000
0001
0100
0000
0000
,
0001
0100
1000
0100
,
0001
0010
1000
0010
,
0001
0000
0000
0100
0000
0000
0010
0000
0000
1000
0000
0010
,
0000
0000
0100
0010
0000
0010
1000
0000
1000
0001
0000
0000
,
1000
0001
0010
1000
,
0100
0001
0010
0100
,
1000
0000
0100
0010
0000
0100
1000
0000
0001
0100
0000
0010
,
0100
0000
0100
0001
0000
0000
1000
0000
0000
0100
0000
0100
,
0020
0001
0032
0100
,
0203
1000
2300
0010
,
3020
0001
0031
0100
,
0010
0100
0001
1000
,
0002
0010
0023
1000
,
2030
0100
3200
0001
,
0302
0010
0023
0100
,
0130
0000
0000
0010
0000
0001
0000
0000
0000
1000
0000
0000
,
0001
0200
0010
1000
,
1000
0010
0302
0000
,
1003
0001
0010
0100
0001
0100
1000
0002
,
1000
0000
0000
1000
0000
0000
1003
0001
1000
0010
0100
0010
,
1000
0000
0000
0100
0000
0010
0000
0000
0100
1000
0000
0010
,
0100
0000
0010
0000
0000
0001
0000
0000
0010
0100
0000
0000
,
0010
0000
0000
1000
0000
0000
0100
0000
0100
0010
0000
0000
,
0200
0000
0000
2300
0000
0000
3002
0000
0000
0103
0000
0010
,
0000
0000
0100
0001
0000
0000
2000
0000
0000
3200
0000
0000
,
0302
0023
0032
0203
,
2300
0001
3002
0103
,
0010
0000
0000
0010
0000
0100
0000
0000
0100
0001
0000
0000
,
2000
3200
0302
0023
,
2030
0000
0000
0100
0000
0000
3200
0000
0000
0310
0000
0100
,
0000
0000
1000
0001
0000
0000
2000
0000
0000
3020
0000
0000
,
0230
1000
0302
0100
,
1003
0100
0010
0100
,
0001
0000
0000
0100
0000
0010
0000
0000
0001
0000
0000
1000
,
0000
0000
0001
0100
0000
0000
0110
0000
0000
0010
0000
0000
,
1010
0000
0000
1000
0000
0000
0001
1000
0010
0100
0010
1000
,
0001
0000
0000
0010
0000
0000
0000
0000
0100
0000
0000
0100
,
0010
0000
0000
0001
0000
0000
0000
0000
1000
0000
0000
1000
,
0001
0000
0000
0100
0000
0000
0000
0000
0010
0000
0000
0010
,
0200
0302
0023
0230
,
0302
0100
0203
1000
,
2300
0010
3020
0130
,
0010
0000
0000
1000
0000
0000
0000
0000
0001
0000
0000
0001
,
1000
0000
1000
0001
0000
0000
0010
0000
0000
0100
0000
0000
,
2000
0000
0000
3020
0000
0000
0230
0000
,
2300
3200
0320
2030
,
3002
0000
0000
0023
0000
0000
0230
0000
,
0302
0203
0320
0032
,
0203
1000
2300
0010
,
3020
0001
0032
0100
,
0203
1000
2300
0010
,
3020
0001
0100
0100
,
0031
0000
0000
0010
0000
0100
0000
0000
0010
0001
0000
0100
,
0010
0000
0100
0000
0000
1000
0000
0000
0100
0010
0000
0000
,
0100
0000
0000
0001
0000
0000
0010
0000
0010
0100
0000
0000
,
0020
0000
0000
0032
0000
0000
2003
0000
0000
3010
0000
0100
,
0000
0000
0010
1000
0000
0000
0002
0000
0000
0023
0000
0000
,
2030
3200
2300
3020
,
0032
1000
2003
3010
,
0100
0000
0000
0100
0000
0010
0000
0000
0010
1000
0000
0000
,
0002
0023
2030
3200
,
0302
0000
0000
0010
0000
0000
0023
0000
0000
0130
0000
0010
,
0000
0000
0001
1000
0000
0000
0002
0000
0000
0203
0000
0000
,
0320
0001
2030
0010
,
3001
0010
0100
0010
,
1000
0000
0000
0010
0000
0100
0000
0000
1000
0000
0000
0001
,
0000
0000
1000
0010
0000
0000
0110
0000
0000
0100
0000
0000
,
0101
0000
0000
0001
0000
0000
1000
0001
0100
0010
0000
0010
,
1000
0100
0001
0100
,
1000
0000
0001
0100
0010
0000
0001
0010
,
1000
0000
0100
0010
1000
0000
0010
0100
,
1000
0000
0010
0100
1000
0000
0100
0010
,
1000
0000
0100
0010
1000
0010
0100
0000
,
1100
1000
1010
0010
,
0220
0000
0000
0000
,
0000
0000
0000
0000
,
0330
0000
0000
0000
;

//---------------dance-single - ----------------
#NOTEDATA:;
#CHARTNAME:;
#STEPSTYPE:dance-single;
#DESCRIPTION:;
#CHARTSTYLE:;
#DIFFICULTY:Medium;
#METER:7;
#RADARVALUES:0.345225,0.552225,0.084958,1.038373,0.089678,256.000000,247.000000,9.000000,110.000000,0.000000,0.000000,0.000000,0.000000,0.000000,0.345225,0.552225,0.084958,1.038373,0.089678,256.000000,247.000000,9.000000,110.000000,0.000000,0.000000,0.000000,0.000000,0.000000;
#CREDIT:;
#NOTES:
0000
0000
0000
0000
,
0000
0000
0000
0000
,
0000
0000
0000
0000
,
0000
0000
0000
0000
,
0100
0010
0100
0010
,
0100
0010
0100
0001
,
1000
0200
0020
0330
,
0000
0200
2000
3300
,
0000
0000
0000
0002
0000
0000
0203
0000
0000
0310
0000
0100
,
0000
0010
1000
0100
,
0010
0100
0001
0100
,
0020
0000
0000
0032
0000
0000
2000
0000
,
0000
0000
0003
0000
,
0010
0000
0100
0000
,
3001
0200
0020
0330
,
0000
0200
0002
0303
,
0000
0000
0000
2000
0000
0000
3200
0000
0000
0310
0000
0100
,
0000
1000
0010
1000
,
0001
0200
0320
0032
,
0023
0000
0000
2030
0000
0000
0200
0000
,
3000
0010
0001
0010
,
1300
0100
1000
0001
,
2000
0000
3020
0000
,
0032
0000
0203
0000
,
2300
0000
0001
0002
,
0000
0000
3003
0000
,
0002
0000
0203
0000
,
2300
0000
3020
0000
,
0032
0000
1000
2000
,
3003
0000
0000
0001
0000
0100
0000
0000
0000
0010
0000
0000
,
0100
0002
0000
0000
,
0000
0000
0020
0033
,
0001
0010
0100
0010
0100
1000
0001
2000
,
0000
0000
0002
3003
,
1000
0000
0000
0000
0010
0000
0000
0000
0000
0100
0000
0000
,
0010
0000
1000
0000
0000
0100
0000
0000
0000
0010
0000
0000
,
0200
0000
2000
3300
,
0002
0000
0000
0203
0000
0000
0320
0000
0000
0001
0000
0130
,
0000
0000
0010
0100
,
0001
1000
0100
0010
,
0002
0000
2000
3003
,
0001
0000
0000
0010
0000
0100
0000
0000
0000
0010
0000
0000
,
0002
2003
3020
0230
,
0320
0000
0000
0000
0000
0000
0001
0000
0000
0000
0000
0100
,
0000
2030
3200
0302
,
0203
0320
0002
0000
,
0033
0001
0100
0010
,
1000
0000
0000
0010
0000
0100
0000
0000
0010
0000
0000
0000
,
1000
0100
0010
0001
,
0010
0100
1000
0001
,
2000
0000
0000
0000
,
0000
0000
3000
0000
,
0000
0000
0000
0000
,
0002
0203
0320
0032
,
0023
0000
2030
0000
,
3200
0000
0010
0020
,
0000
0000
0000
0000
,
0330
0000
0000
0002
,
2003
0000
0000
3200
0000
0000
0320
0000
,
2030
3020
0230
2300
,
3002
0000
0000
0203
0000
0000
0320
0000
,
0032
0023
0230
0000
,
0302
0000
0023
0000
,
2030
0000
3200
0000
,
0302
0000
0023
0000
,
0230
0000
2300
0000
,
3001
0000
0000
0000
0100
0000
0000
0000
0000
0010
0000
0000
,
0100
0000
0001
0000
0000
0010
0000
0000
0000
0100
0000
0000
,
0020
0000
0002
0033
,
2000
0000
0000
3020
0000
0000
0230
0000
0000
1000
0000
0310
,
0000
0000
0100
0010
,
1000
0001
0010
0100
,
2000
0000
0002
3003
,
1000
0000
0000
0100
0000
0010
0000
0000
0000
0100
0000
0000
,
2000
3002
0203
0320
,
0230
0000
0000
0000
0000
0000
1000
0000
0000
0000
0000
0010
,
0000
0302
0023
2030
,
3020
0230
2000
0000
,
3300
1000
0010
0100
,
0001
0000
0000
0100
0000
0010
0000
0000
0100
0000
0000
0000
,
0001
0010
0100
1000
,
0100
0010
0001
1000
,
0001
0100
0010
0100
,
0101
0001
0011
0010
,
0110
0100
1000
0100
,
0110
0010
0011
0001
,
1001
0010
0100
0010
,
2020
3030
2200
3300
,
0220
0000
0000
0000
,
0000
0000
0000
0000
,
0330
0000
0000
0000
;

//---------------dance-single - ----------------
#NOTEDATA:;
#CHARTNAME:;
#STEPSTYPE:dance-single;
#DESCRIPTION:;
#CHARTSTYLE:;
#DIFFICULTY:Easy;
#METER:5;
#RADARVALUES:0.273753,0.467268,0.066078,0.405909,0.000000,203.000000,196.000000,7.000000,43.000000,0.000000,0.000000,0.000000,0.000000,0.000000,0.273753,0.467268,0.066078,0.405909,0.000000,203.000000,196.000000,7.000000,43.000000,0.000000,0.000000,0.000000,0.000000,0.000000;
#CREDIT:;
#NOTES:
0000
0000
0000
0000
,
0000
0000
0000
0000
,
0000
0000
0000
0000
,
0000
0000
0000
0000
,
1000
0000
0100
0000
,
0010
0000
0001
1000
,
0001
0100
0200
0000
,
0300
0010
0020
0000
,
0030
0100
0001
1000
,
0001
0010
0100
0010
,
0001
0100
0001
0100
,
0010
0000
0100
0000
,
0001
0010
0100
0010
,
0200
0000
0320
0000
,
0031
0100
0200
0000
,
0300
0010
0020
0000
,
0030
0100
0001
1000
,
0100
0010
0100
2000
,
0000
3001
0100
0010
,
0100
0000
0001
0000
,
1000
0100
0010
0100
,
1000
0001
0100
0010
,
0200
0000
1000
0000
,
0010
0000
0001
0000
,
0010
0000
0001
0002
,
0000
0000
0303
0000
,
0020
0000
1000
0000
,
0100
0000
0001
0000
,
0100
0000
0001
0002
,
0033
0001
0100
0010
,
0100
0002
0000
0000
,
0000
0000
2000
3003
,
2002
0000
0000
3003
,
0000
0000
2000
0000
,
3200
0000
0000
0000
,
0320
0000
0000
0000
,
2030
0000
0000
0000
,
3010
0100
1000
0001
,
2000
0000
0000
0000
,
3002
0000
0000
0000
,
0203
0000
0000
0000
,
1300
0100
0001
1000
,
0002
0000
0000
0000
,
0023
0000
0000
0000
,
2030
0000
0000
0000
,
3200
0000
0000
0000
,
0301
0010
0001
0010
,
0001
0010
0001
0010
,
0100
1000
0100
0010
,
0100
1000
0001
1000
,
0002
0000
0000
0000
,
0000
0000
0003
0000
,
0000
0000
0000
0000
,
1000
0010
0100
0010
,
0200
0000
0001
0000
,
0010
0000
0001
0002
,
0000
0000
0000
0303
,
0000
0000
0000
0001
,
0020
0000
1000
0000
,
0130
0010
0100
1000
,
0020
0000
0001
0000
,
0130
0010
0100
0001
,
0020
0000
0100
0000
,
0001
0000
0100
0000
,
1000
0000
0100
0000
,
0031
0010
0100
0100
,
0020
0000
0000
0000
,
0230
0000
0000
0000
,
0302
0000
0000
0000
,
0103
0010
0001
1000
,
0002
0000
0000
0000
,
2003
0000
0000
0000
,
3020
0000
0000
0000
,
0031
0010
1000
0001
,
2000
0000
0000
0000
,
3200
0000
0000
0000
,
0302
0000
0000
0000
,
0023
0000
0000
0000
,
1030
0100
1000
0100
,
1000
0100
1000
0100
,
0010
0001
0010
0100
,
0010
0001
1000
0001
,
1000
0100
0010
0100
,
0110
0000
0011
0000
,
0101
0010
0100
0001
,
0011
0000
0110
0000
,
1100
0100
0010
0100
,
1000
0000
0001
0000
,
2000
0000
0000
0000
,
0000
0000
0000
0000
,
3000
0000
0000
0000
;

//---------------dance-single - ----------------
#NOTEDATA:;
#CHARTNAME:;
#STEPSTYPE:dance-single;
#DESCRIPTION:;
#CHARTSTYLE:;
#DIFFICULTY:Beginner;
#METER:3;
#RADARVALUES:0.198235,0.212394,0.000000,0.302072,0.000000,147.000000,147.000000,0.000000,32.000000,0.000000,0.000000,0.000000,0.000000,0.000000,0.198235,0.212394,0.000000,0.302072,0.000000,147.000000,147.000000,0.000000,32.000000,0.000000,0.000000,0.000000,0.000000,0.000000;
#CREDIT:;
#NOTES:
// measure 0
0000
0000
0000
0000
,  // measure 1
0000
0000
0000
0000
,  // measure 2
0000
0000
0000
0000
,  // measure 3
0000
0000
0000
0000
,  // measure 4
1000
0000
0001
0000
,  // measure 5
1000
0000
0001
0000
,  // measure 6
0000
1000
1000
0000
,  // measure 7
0000
0010
0010
0000
,  // measure 8
0000
0100
0100
0000
,  // measure 9
0010
0000
1000
0000
,  // measure 10
0001
0000
1000
0000
,  // measure 11
0100
0000
0010
0000
,  // measure 12
0001
0000
0000
0000
,  // measure 13
0010
0000
0010
0000
,  // measure 14
0000
0001
0001
0000
,  // measure 15
0000
0100
0100
0000
,  // measure 16
0000
0010
0010
0000
,  // measure 17
0100
0000
0001
0000
,  // measure 18
1000
0000
0001
0000
,  // measure 19
0010
0000
0100
0000
,  // measure 20
1000
0000
0100
0000
,  // measure 21
0010
0000
0001
0000
,  // measure 22
2000
0000
0000
0000
,  // measure 23
3020
0000
0000
0000
,  // measure 24
0230
0000
0000
0000
,  // measure 25
0310
0000
0000
0000
,  // measure 26
0200
0000
0000
0000
,  // measure 27
0302
0000
0000
0000
,  // measure 28
2003
0000
0000
0000
,  // measure 29
3001
0000
1000
0000
,  // measure 30
0100
0000
0010
0000
,  // measure 31
0001
0000
0200
0000
,  // measure 32
0310
0000
0000
0000
,  // measure 33
0000
0000
0200
0000
,  // measure 34
0301
0000
0010
0000
,  // measure 35
0100
0000
0100
0000
,  // measure 36
0200
0000
0320
0000
,  // measure 37
0031
0000
1000
0000
,  // measure 38
0010
0000
0100
0000
,  // measure 39
0010
0000
1000
0000
,  // measure 40
0100
0000
0010
0000
,  // measure 41
0100
0000
1000
0000
,  // measure 42
0001
0000
1000
0000
,  // measure 43
0010
0000
0100
0000
,  // measure 44
0010
0000
1000
0000
,  // measure 45
0001
0000
0010
0000
,  // measure 46
0100
0000
0010
0000
,  // measure 47
0001
0000
0100
0000
,  // measure 48
0010
0000
0100
0000
,  // measure 49
0001
0000
1000
0000
,  // measure 50
0002
0000
0000
0000
,  // measure 51
0000
0000
0003
0000
,  // measure 52
0000
0000
0000
0000
,  // measure 53
1000
0000
1000
0000
,  // measure 54
2000
0000
3200
0000
,  // measure 55
0320
0000
0031
0002
,  // measure 56
0000
0000
0000
0000
,  // measure 57
0003
0000
0000
0000
,  // measure 58
2000
0000
3020
0000
,  // measure 59
0230
0000
0010
0000
,  // measure 60
0320
0000
2030
0000
,  // measure 61
3200
0000
0010
0000
,  // measure 62
0320
0000
0032
0000
,  // measure 63
0203
0000
0320
0000
,  // measure 64
2030
0000
3002
0000
,  // measure 65
1003
0000
1000
0000
,  // measure 66
0001
0000
0010
0000
,  // measure 67
0100
0000
0100
0000
,  // measure 68
0200
0000
0320
0000
,  // measure 69
0031
0000
1000
0000
,  // measure 70
0010
0000
0100
0000
,  // measure 71
0010
0000
1000
0000
,  // measure 72
0100
0000
0010
0000
,  // measure 73
0100
0000
1000
0000
,  // measure 74
0001
0000
1000
0000
,  // measure 75
0010
0000
0100
0000
,  // measure 76
0010
0000
1000
0000
,  // measure 77
0001
0000
0010
0000
,  // measure 78
0100
0000
0010
0000
,  // measure 79
0001
0000
0100
0000
,  // measure 80
0010
0000
0100
0000
,  // measure 81
0001
0000
1000
0000
,  // measure 82
0200
0000
0300
0000
,  // measure 83
0010
0000
0010
0000
,  // measure 84
0010
0000
0000
0000
,  // measure 85
0001
0000
0001
0000
,  // measure 86
0001
0000
0000
0000
,  // measure 87
2000
0000
0000
0000
,  // measure 88
3002
0000
0000
0000
,  // measure 89
0000
0000
0000
0000
,  // measure 90
0003
0000
0000
0000
;
