#VERSION:0.83;
#TITLE:History of Rock;
#SUBTITLE:;
#ARTIST:Jared Reddick (as Love Händel);
#TITLETRANSLIT:;
#SUBTITLETRANSLIT:;
#ARTISTTRANSLIT:;
#GENRE:;
#ORIGIN:;
#CREDIT:;
#BANNER:[You Won't See This In DDR V] - History of Rock.png;
#BACKGROUND:[You Won't See This In DDR V] - History of Rock-bg.png;
#PREVIEWVID:;
#JACKET:;
#CDIMAGE:;
#DISCIMAGE:;
#LYRICSPATH:;
#CDTITLE:;
#MUSIC:[You Won't See This In DDR V] - History of Rock.ogg;
#OFFSET:-0.040000;
#SAMPLESTART:61.549999;
#SAMPLELENGTH:20.700001;
#SELECTABLE:YES;
#BPMS:0.000=136.500;
#STOPS:;
#DELAYS:;
#WARPS:;
#TIMESIGNATURES:0.000=4=4;
#TICKCOUNTS:0.000=4;
#COMBOS:0.000=1;
#SPEEDS:0.000=1.000=0.000=0;
#SCROLLS:0.000=1.000,
132.000=0.000,
135.000=1.000;
#FAKES:;
#LABELS:0.000=Song Start;
#BGCHANGES:;
#KEYSOUNDS:;
#ATTACKS:
;

//---------------dance-single - ----------------
#NOTEDATA:;
#CHARTNAME:;
#STEPSTYPE:dance-single;
#DESCRIPTION:;
#CHARTSTYLE:;
#DIFFICULTY:Beginner;
#METER:1;
#RADARVALUES:0.152135,0.224916,0.051117,0.119274,0.000000,125.000000,119.000000,6.000000,14.000000,0.000000,0.000000,0.000000,0.000000,0.000000,0.152135,0.224916,0.051117,0.119274,0.000000,125.000000,119.000000,6.000000,14.000000,0.000000,0.000000,0.000000,0.000000,0.000000;
#CREDIT:;
#NOTES:
0000
0000
0000
0000
,
0000
0000
0000
0000
,
1000
0000
0100
0000
,
0001
0000
0100
0000
,
1000
0000
0010
0000
,
0001
0000
0010
0000
,
0100
0000
0001
0000
,
0010
0000
0001
0000
,
0100
0000
0010
0000
,
1000
0000
0100
0000
,
1000
0000
0001
0000
,
0001
0000
1000
0000
,
1001
0000
0000
0000
,
0000
0000
0000
0000
,
1000
0000
0100
0000
,
1000
0000
0010
0000
,
0100
0000
0001
0000
,
0010
0000
0010
0000
,
0001
0000
0100
0000
,
0010
0000
1000
0000
,
0010
0000
0100
0000
,
0001
0000
1000
0000
,
0100
0000
0010
0000
,
0001
0000
0001
0000
,
1001
0000
0000
0000
,
0000
0000
0000
0000
,
2000
0000
3001
0000
,
0002
0000
1003
0000
,
0200
0000
0310
0000
,
0020
0000
0130
0000
,
2000
0000
3010
0000
,
0200
0000
0301
0000
,
0002
0000
0103
0000
,
0010
0000
0000
0000
,
0000
0000
0000
0000
,
1000
1000
1000
0000
,
0001
0000
0100
0000
,
0001
0001
0001
0000
,
1000
0000
0010
0000
,
1000
0000
0100
0000
,
0010
0000
0001
0000
,
0001
0000
0010
0000
,
0100
0000
1000
0000
,
0010
0010
0010
0000
,
0100
0100
0100
0000
,
0001
0000
1000
0000
,
0200
0000
0300
0000
,
2002
0000
3003
1000
,
1000
1000
1000
0000
,
0220
0000
0330
0010
,
0010
0010
0010
0000
,
1000
0000
0010
0000
,
0100
0000
0001
0000
,
1000
0000
0100
0000
,
0010
0000
0001
0000
,
1000
1000
1000
0000
,
0001
0001
0001
0000
,
0010
0000
0100
0000
,
1000
0000
0001
0000
,
1000
0000
0010
0000
,
0001
0000
0010
0000
,
1000
0000
0000
0000
,
2002
0000
0000
0000
,
0000
0000
0000
0000
,
0000
0000
0000
0000
,
0000
0000
0000
3003
,
1001
0000
0000
0000
;

//---------------dance-single - ----------------
#NOTEDATA:;
#CHARTNAME:;
#STEPSTYPE:dance-single;
#DESCRIPTION:;
#CHARTSTYLE:;
#DIFFICULTY:Easy;
#METER:3;
#RADARVALUES:0.256804,0.309260,0.144832,0.127793,0.000000,211.000000,194.000000,17.000000,15.000000,0.000000,0.000000,0.000000,0.000000,0.000000,0.256804,0.309260,0.144832,0.127793,0.000000,211.000000,194.000000,17.000000,15.000000,0.000000,0.000000,0.000000,0.000000,0.000000;
#CREDIT:;
#NOTES:
0000
0000
0000
0000
,
0000
0000
0000
0000
,
1000
0010
0100
0001
,
0100
0010
1000
1000
,
0001
0010
0100
1000
,
0100
0010
0001
0001
,
1000
0100
0001
0100
,
1000
0010
0100
0000
,
0001
0010
1000
0010
,
0001
0100
0010
0000
,
1000
0100
1000
0001
,
0100
0001
0010
0100
,
1001
0000
0000
0000
,
0000
0000
0000
1001
,
0001
1000
0100
0100
,
1000
0001
0010
0010
,
0100
0010
0001
0001
,
0010
0100
1000
1000
,
0001
0100
1000
0100
,
0001
0001
1000
0000
,
1000
0010
0001
0010
,
1000
1000
0001
0000
,
0001
0100
0010
1000
,
0100
0010
0001
1000
,
1001
0000
0000
0000
,
0000
0000
0000
0000
,
0002
0000
0103
0000
,
0020
0000
1030
0000
,
2000
0000
3100
0000
,
0020
0000
0031
0000
,
0002
0000
1003
0000
,
0020
0000
0130
0000
,
0002
0000
1003
1000
,
1001
0000
0000
0000
,
1000
0001
1000
0000
,
0011
1001
1100
0000
,
1000
1000
0002
0003
,
1010
1001
0101
0000
,
0001
0001
2000
3000
,
0001
0010
0100
1000
,
0001
0001
1000
0000
,
1000
0010
0100
0001
,
1000
1000
0100
0000
,
0010
0001
1000
0010
,
0100
0001
1000
0100
,
0010
0010
0100
0100
,
2000
0000
3000
1001
,
0001
0001
1000
1000
,
0100
1000
0010
0110
,
1000
1000
0001
0001
,
0100
0001
0010
0110
,
0010
0001
0100
0100
,
1000
0100
0010
0010
,
1000
0100
0020
0000
,
0031
0100
0002
0000
,
0103
0001
0010
0100
,
1000
0100
0010
0001
,
1000
0010
0100
0100
,
0001
0001
2000
0000
,
3001
0010
0010
0100
,
0100
0000
1000
0000
0001
0000
0000
0110
,
0000
1001
0000
0000
0000
0000
0000
0000
,
0220
0000
0000
0000
,
0000
0000
0000
0000
,
0000
0000
0000
0000
,
0000
0000
0000
0330
,
1001
0000
0000
0000
;

//---------------dance-single - ----------------
#NOTEDATA:;
#CHARTNAME:;
#STEPSTYPE:dance-single;
#DESCRIPTION:;
#CHARTSTYLE:;
#DIFFICULTY:Hard;
#METER:8;
#RADARVALUES:0.575679,0.730978,0.323743,0.238548,0.647486,473.000000,435.000000,38.000000,28.000000,12.000000,0.000000,2.000000,0.000000,0.000000,0.575679,0.730978,0.323743,0.238548,0.647486,473.000000,435.000000,38.000000,28.000000,12.000000,0.000000,2.000000,0.000000,0.000000;
#CREDIT:;
#NOTES:
0000
0000
0000
0000
,
0000
0000
0000
0000
0000
0000
0000
0000
0000
0000
0000
0100
,
0001
0000
0010
0100
0000
1000
0000
0000
1000
0100
0000
0001
,
0000
0000
0001
0100
0000
0010
0000
0000
0001
0100
0000
0100
,
0001
0000
0100
0010
0000
1000
0000
0000
0001
1000
0000
0100
,
1000
0000
0001
0010
0000
0100
0000
0000
0000
0000
0000
1000
,
0010
0100
0001
1000
0000
0001
0000
0000
1000
0100
0000
0010
,
0001
0100
0000
1000
0100
0010
0000
0000
0000
1000
0000
0100
,
0010
0000
0001
0100
0000
0010
0000
0000
0100
0001
1000
0000
,
0001
0010
0000
0100
1000
0001
0000
0000
0000
0000
0000
1000
,
0010
0000
0100
0001
0000
1000
0000
0000
0001
0010
0000
0100
,
0000
1000
0001
0100
0010
1000
0000
0000
0000
0001
0000
0001
,
0010
0000
0010
0100
0000
0100
1000
0000
1000
0001
0000
0001
,
1000
0000
1000
0010
0000
0010
0100
0000
0001
0001
0000
1000
,
1000
0000
0100
1000
0000
0001
0100
0010
1000
0001
0000
0100
,
0001
0000
1000
0100
0000
0010
0000
0000
0001
0010
0000
0100
,
1000
0001
1000
0001
0000
0001
0100
0000
0100
1000
0000
0100
,
0010
0000
1000
0001
0000
0010
0000
0000
0100
1000
0000
1000
,
0001
0000
0001
0100
0000
0100
1000
0000
0100
0000
0010
0100
,
0010
0100
0000
0001
0000
1000
0010
0000
0000
0000
0000
0100
,
0001
0000
1000
0010
0000
0010
1000
0000
1000
0100
0000
0100
,
0001
0000
0010
1000
0100
0010
0000
0000
0000
0000
0000
0001
,
0100
0000
0010
1000
0000
0100
1000
0000
0001
0010
0000
0001
,
1000
0010
0000
0100
0010
0100
0000
0000
0001
0010
0000
0010
,
0100
1000
0010
0100
0000
0100
0001
0000
0001
0100
0000
0100
,
0001
0010
0100
1000
0000
1000
0000
0100
1000
0010
0000
0100
,
0002
0000
1003
0100
0120
0000
0031
0010
,
0200
0000
1000
0000
0310
0000
0100
0000
2100
0000
0000
0001
0000
0000
3010
0000
,
2010
0000
3001
0100
0120
0000
1030
0001
,
0200
1000
0000
0010
0302
0000
0013
0100
,
1200
0000
0310
0001
2001
0000
3010
0100
,
0020
1030
0100
0010
0002
0000
0013
0100
,
1000
0000
0001
0100
0010
1000
0001
0000
,
1001
0000
0000
0000
,
1000
0100
0000
0001
0000
0100
0000
1000
0000
0010
0000
0000
MMMM
0000
0000
0000
,
1010
0000
0000
0000
0210
0000
0000
0301
0000
0010
0000
0000
0001
0000
0100
0000
,
1000
0100
0001
0000
0010
0100
0000
0020
0000
0000
0000
0000
0000
0000
0031
0000
,
1000
0001
1000
0000
0010
0000
0100
0001
0000
0001
0000
0000
1000
0100
1000
0000
,
0010
0000
0100
0000
0001
0100
0000
0001
0000
0000
2002
0000
3000
0000
0103
0000
,
0001
0000
0100
1000
0000
0200
0000
0000
0301
0000
0001
0000
0001
0000
0100
0001
,
0010
0000
0100
0000
1000
0100
0000
0010
0001
0010
0001
0010
0100
1000
0100
1000
,
0002
0000
0100
0000
2000
0003
3100
0010
0000
0001
0100
0001
0010
0000
0100
1000
,
0000
1000
0010
0100
1000
0000
0100
0001
0000
0000
1000
0000
0100
0000
0001
0100
,
0010
0000
0010
0000
0010
0000
0100
1000
0000
0000
1001
0000
1001
0000
0001
0100
,
0010
0000
0010
0000
0010
0100
0001
1000
0000
0000
0100
0000
1000
0000
0001
0000
,
0011
0000
0000
0000
1010
0000
0000
1000
0010
1000
0010
0000
0000
0000
0200
0000
,
0301
0010
0000
1000
0000
0010
0000
0001
0000
0000
0000
0000
MMMM
0000
0000
0000
,
0101
0001
1100
1000
0101
0001
1100
1000
,
0011
0001
1010
1000
1001
0110
1001
0000
,
0011
0001
1010
1000
0011
0001
1010
1000
,
0101
0001
1100
1000
0110
1001
0110
0000
,
0001
0010
0100
0100
1000
0010
0100
0100
,
0001
0100
0010
0020
0000
0000
1030
0100
,
1000
0100
1000
0000
0010
0000
0100
0000
0001
0000
0002
0000
0000
0000
0013
0000
,
0001
0100
0001
0000
0010
0000
0100
0000
2000
0000
0000
0000
0000
0000
3010
0000
,
1000
0010
0100
0001
0000
1000
0001
0100
,
0001
0010
0100
1000
0000
0001
1000
0000
,
0010
0010
1000
1000
0001
0001
0100
0100
,
0001
0000
0010
0000
0100
0000
2000
0000
0000
0000
3000
0000
0010
1000
0001
0100
,
0001
0100
1000
0100
0001
1000
0001
0012
,
0000
0000
0103
2010
0000
0000
3100
1100
,
0000
2002
0000
0000
0000
0000
3003
0000
,
4004
0000
0000
0000
,
0000
0000
0000
0000
,
0000
0000
3003
0000
,
0000
MMMM
0000
0000
,
1001
0000
0000
0000
;

//---------------dance-single - ----------------
#NOTEDATA:;
#CHARTNAME:;
#STEPSTYPE:dance-single;
#DESCRIPTION:;
#CHARTSTYLE:;
#DIFFICULTY:Medium;
#METER:6;
#RADARVALUES:0.432063,0.477947,0.187430,0.187430,0.306704,355.000000,333.000000,22.000000,22.000000,12.000000,0.000000,2.000000,0.000000,0.000000,0.432063,0.477947,0.187430,0.187430,0.306704,355.000000,333.000000,22.000000,22.000000,12.000000,0.000000,2.000000,0.000000,0.000000;
#CREDIT:;
#NOTES:
// measure 0
0000
0000
0000
0000
,  // measure 1
0000
0000
0000
0000
,  // measure 2
0001
0000
0001
0100
0000
0000
1000
0000
1000
0100
0000
0000
,  // measure 3
0001
0000
0001
1000
0000
0010
0000
0000
0100
0010
0000
0000
,  // measure 4
1000
0000
1000
0100
0000
0000
0001
0000
0001
0100
0000
0000
,  // measure 5
0010
0000
0001
1000
0000
0010
0000
0000
0010
0100
0000
0100
,  // measure 6
0001
0000
1000
0100
0000
0000
1000
0000
0001
0100
0000
0000
,  // measure 7
0010
0000
1000
0001
0000
0010
0000
0000
0000
0001
0000
0100
,  // measure 8
0010
0000
0010
0100
0000
0100
0000
0000
1000
0100
0000
0000
,  // measure 9
0010
0000
0010
0100
0000
0100
0000
0000
0001
0010
0000
0000
,  // measure 10
0100
0000
1000
0100
0000
1000
0000
0000
0001
0100
0000
0001
,  // measure 11
0000
0000
1000
0001
0000
0010
0000
0000
0000
0100
0000
0100
,  // measure 12
1000
0000
1000
0010
0000
0010
0001
0000
0001
0010
0000
0010
,  // measure 13
1000
0000
1000
0001
0000
0001
0100
0000
0000
1001
0000
0000
,  // measure 14
0001
0000
0100
0010
0000
0000
1000
0000
0100
0010
0000
0000
,  // measure 15
0001
0000
0001
1000
0000
0010
0000
0000
1000
0100
0000
0000
,  // measure 16
1000
0000
0010
0100
0000
0000
0001
0000
0010
0100
0000
0000
,  // measure 17
1000
0000
1000
0001
0000
0100
0000
0000
0000
0001
0000
1000
,  // measure 18
0010
0000
1000
0001
0000
0100
0010
0000
0100
0000
0000
0001
,  // measure 19
0010
0000
0000
0100
0000
1000
0001
0000
0000
0000
0000
1000
,  // measure 20
0010
0000
0100
0001
0000
0001
0010
0000
0100
1000
0000
1000
,  // measure 21
0010
0000
0100
0010
0000
0010
0000
0000
0000
0000
0000
1000
,  // measure 22
0100
0000
0010
0001
0000
0001
0100
0000
0010
1000
0000
1000
,  // measure 23
0100
0000
0010
0001
0000
1000
0000
0000
0000
0001
0000
0001
,  // measure 24
1000
0000
1000
0100
0000
0100
0010
0000
0010
0001
0000
0001
,  // measure 25
0100
0000
0001
0010
0000
0100
0000
0000
1000
0001
0000
0000
,  // measure 26
2000
0000
0000
3100
0210
0000
0000
0310
,  // measure 27
0012
0000
0000
1003
1020
0000
0130
0000
,  // measure 28
0102
0000
0000
0013
0120
0000
0000
0130
,  // measure 29
1200
0000
0000
1300
2010
0000
0001
3000
,  // measure 30
0002
0000
0100
0000
0010
0000
0000
1000
,  // measure 31
2003
0000
0000
0100
0010
0000
0000
3001
,  // measure 32
0001
0100
0010
1000
,  // measure 33
1001
0000
0000
0000
,  // measure 34
0001
0100
0001
1000
0100
0000
MMMM
0000
,  // measure 35
0001
0000
0011
0000
0010
0100
1000
0000
,  // measure 36
0001
0100
1000
0100
0002
0000
1003
0000
,  // measure 37
1000
0000
1010
0000
0100
0010
0001
0000
,  // measure 38
1000
0100
0001
0010
0100
0000
0000
1000
,  // measure 39
0100
0100
1000
0000
0001
0001
0100
0000
,  // measure 40
0010
0010
1000
0000
0001
1000
0001
1000
,  // measure 41
0001
0001
0010
0000
0100
0100
1000
0000
,  // measure 42
0010
0010
0100
0000
1000
0000
0000
0100
,  // measure 43
0001
0000
0011
0000
0000
0110
1001
0000
,  // measure 44
1000
0000
1010
0000
0010
0100
0001
1000
,  // measure 45
0200
0320
0032
2003
,  // measure 46
3010
0100
0010
0100
0010
0000
MMMM
0000
,  // measure 47
0001
0100
0001
0000
1000
0100
1000
0000
,  // measure 48
0001
0010
0001
0000
1000
0000
0110
0000
,  // measure 49
1000
0010
1000
0000
0001
0010
0001
0000
,  // measure 50
1000
0100
1000
0000
0001
0000
0110
0000
,  // measure 51
1000
0100
0010
0000
0001
0100
0010
0000
,  // measure 52
1000
0010
0100
0000
0001
0010
0100
0000
,  // measure 53
1000
0100
1000
0100
1000
0000
1001
0000
,  // measure 54
0001
0100
0001
0100
0001
0000
1001
0000
,  // measure 55
0010
1000
0001
0010
0000
0100
1000
0001
,  // measure 56
0100
0000
0010
0100
0000
0001
1000
0000
,  // measure 57
0002
0023
0230
2300
,  // measure 58
3001
0100
0010
2000
0000
0000
3001
0000
,  // measure 59
0001
0100
0001
0000
1000
0010
1000
0000
,  // measure 60
0001
0010
0001
1000
0000
0000
0100
0010
,  // measure 61
0000
2002
0000
0000
0000
0000
3003
0000
,  // measure 62
4004
0000
0000
0000
,  // measure 63
0000
0000
0000
0000
,  // measure 64
0000
0000
3003
0000
,  // measure 65
0000
MMMM
0000
0000
,  // measure 66
1001
0000
0000
0000
;
