#TITLE:FUK UR MGMT;
#SUBTITLE:;
#ARTIST:Kill The Noise;
#TITLETRANSLIT:;
#SUBTITLETRANSLIT:;
#ARTISTTRANSLIT:;
#GENRE:BASS HOUSE;
#CREDIT:;
#BANNER:[You Won't See This In DDR V] - FUK UR MGMT.png;
#BACKGROUND:[You Won't See This In DDR V] - FUK UR MGMT-bg.png;
#LYRICSPATH:;
#CDTITLE:cdtitle.png;
#MUSIC:[You Won't See This In DDR V] - FUK UR MGMT.ogg;
#OFFSET:-0.020000;
#SAMPLESTART:30.002995;
#SAMPLELENGTH:15.058590;
#SELECTABLE:YES;
#DISPLAYBPM:128.000000;
#BPMS:0.000000=128.000000
,192.000000=192.000000
,192.750000=64.000000
,193.000000=128.000000
,194.000000=192.000000
,194.750000=64.000000
,195.000000=128.000000
,196.000000=192.000000
,197.000000=128.000000
,198.000000=192.000000
,198.750000=64.000000
,199.000000=192.000000
,199.750000=64.000000
,200.000000=192.000000
,200.750000=64.000000
,201.000000=192.000000
,204.000000=128.000000
,208.000000=192.000000
,208.750000=64.000000
,209.000000=128.000000
,210.000000=192.000000
,210.750000=64.000000
,211.000000=128.000000
,212.000000=192.000000
,213.000000=128.000000
,214.000000=192.000000
,214.750000=64.000000
,215.000000=192.000000
,215.750000=64.000000
,216.000000=192.000000
,216.750000=64.000000
,217.000000=192.000000
,220.000000=128.000000
,224.000000=196.000000
,224.750000=64.000000
,225.000000=128.000000
,226.000000=192.000000
,226.750000=64.000000
,227.000000=128.000000
,230.000000=192.000000
,230.750000=64.000000
,231.000000=128.000000
,232.000000=192.000000
,232.750000=64.000000
,233.000000=128.000000
,242.000000=196.000000
,242.750000=64.000000
,243.000000=128.000000
,246.000000=192.000000
,246.750000=64.000000
,247.000000=128.000000
;
#STOPS:196.000000=0.039000,
196.250000=0.039000,
196.500000=0.039000,
196.750000=0.039000,
201.000000=0.039000,
201.250000=0.039000,
201.500000=0.039000,
201.750000=0.039000,
202.000000=0.039000,
202.250000=0.039000,
202.500000=0.039000,
202.750000=0.039000,
203.000000=0.039000,
203.250000=0.039000,
203.500000=0.039000,
203.750000=0.039000,
212.000000=0.039000,
212.250000=0.039000,
212.500000=0.039000,
212.750000=0.039000,
217.000000=0.039000,
217.250000=0.039000,
217.500000=0.039000,
217.750000=0.039000,
218.000000=0.039000,
218.250000=0.039000,
218.500000=0.039000,
218.750000=0.039000,
219.000000=0.039000,
219.250000=0.039000,
219.500000=0.039000,
219.750000=0.039000
;
#BGCHANGES:;
#KEYSOUNDS:;
#ATTACKS:;

//---------------dance-single - ----------------
#NOTES:
     dance-single:
     :
     Challenge:
     9:
     0.579272,0.847647,0.149020,0.360784,0.482353,517.000000,498.000000,19.000000,46.000000,28.000000,0.000000,0.579272,0.847647,0.149020,0.360784,0.482353,517.000000,498.000000,19.000000,46.000000,28.000000,0.000000:
// measure 0
0000
0000
0000
0000
,  // measure 1
0000
0000
0000
0000
,  // measure 2
0000
0000
0000
0000
,  // measure 3
0000
0000
0000
0000
,  // measure 4
1000
0100
0010
0100
1000
0001
0100
0001
,  // measure 5
1000
0100
0010
0001
0100
0010
1000
0001
,  // measure 6
0010
0000
0100
0000
0010
0000
0001
0000
1000
0000
0000
0010
1000
0000
0100
0000
,  // measure 7
0010
0000
0000
0001
0100
0000
0001
0000
0010
0000
0100
0000
1000
0000
0000
0000
,  // measure 8
2M02
0000
0000
3003
0000
0000
0000
0000
0000
0001
0000
0000
1000
0000
0010
0000
0000
1000
0000
0000
0000
0100
0000
0000
,  // measure 9
0010
0000
0100
0000
0000
0010
0000
0000
0000
0001
0000
0000
0100
0000
0001
0000
0000
1000
0000
0000
0000
0100
0000
0000
,  // measure 10
0010
0000
0001
0000
0000
1000
0000
0000
0000
0010
0000
0000
0100
0000
0010
0000
0000
0100
0000
0000
0000
0001
0000
0000
,  // measure 11
0010
0000
0100
0000
0000
1000
0000
0000
0000
0010
0000
0000
0100
0000
0001
0000
0000
0010
0000
0000
0000
0100
0000
0000
,  // measure 12
1000
0010
0001
0010
1000
0010
0001
0010
,  // measure 13
1000
0100
0001
0100
1000
0100
0001
0100
,  // measure 14
4000
0004
0000
0000
0000
0000
0000
0000
0000
0000
0000
0000
0000
0000
0000
0003
,  // measure 15
3000
0000
0010
0000
0000
0100
0000
0000
0000
0001
0000
0000
0010
0000
0000
0000
0000
0000
0001
0000
0000
1000
0000
0000
,  // measure 16
20M2
0000
0000
3003
0000
0000
0001
0000
0000
0100
0000
0000
0010
0000
0000
0100
0000
0000
1000
0000
0000
0100
0010
0100
,  // measure 17
0010
0000
0000
0000
0000
1000
0100
0000
0000
0010
0000
0000
0001
0000
0100
0000
0000
0000
0001
0000
0000
1000
0000
0000
,  // measure 18
220M
3300
0100
0010
0100
0001
0100
0010
,  // measure 19
0001
0000
0000
0000
0000
0100
0010
0000
1000
0000
0000
0000
0001
0000
0000
0100
0000
0000
1000
0000
0000
0100
0000
0000
,  // measure 20
0002
0000
0000
0003
0000
0000
1000
0000
0000
0100
0000
0000
0010
0000
0000
0100
0000
0000
0001
0000
0000
0100
0010
0100
,  // measure 21
0010
0000
0000
0000
0000
0001
0100
0000
0000
0010
0000
0000
1000
0000
0100
0000
0000
0000
1000
0000
0000
0001
0000
0000
,  // measure 22
1000
0000
0001
0000
0000
0100
0000
0000
0000
0001
0000
0000
1000
0000
0100
0000
0000
0010
0000
0000
0000
0001
0000
0000
,  // measure 23
0100
0000
0010
0000
0000
1000
0000
0000
0000
0001
0000
0000
1000
0000
0000
0100
0000
0000
1000
0000
0001
1000
0000
0001
,  // measure 24
20M0
0000
30M1
0100
1000
0100
0010
1000
,  // measure 25
0100
0000
0000
0000
0000
1000
0010
0000
1000
0000
0000
0100
0010
0000
0000
0001
0000
0000
1000
0000
0000
0001
0000
0000
,  // measure 26
0200
0000
0000
0300
0000
0000
0001
0000
0000
0010
0000
0000
1000
0000
0000
0010
0000
0000
0001
0000
0000
0100
0000
0010
,  // measure 27
0000
1000
0001
0000
1000
0100
0001
0100
,  // measure 28
2000
3000
0001
0100
0010
1000
0100
0010
,  // measure 29
0001
0000
0000
0000
0000
1000
0010
0000
1000
0000
0000
0001
1000
0000
0000
0100
0000
0000
0220
0000
0000
0330
0000
0000
,  // measure 30
0010
0000
0001
1000
0010
0100
0010
1000
,  // measure 31
2002
3003
0001
0022
0033
1000
2020
3030
,  // measure 32
0001
0000
0000
0010
0000
0000
0100
0000
0000
1000
0000
0001
1000
0000
0000
0010
0000
0000
0100
0000
0000
0001
0000
1000
,  // measure 33
0001
0000
0000
1000
0000
0000
0100
0000
0000
1000
0000
0001
1000
0000
0000
0001
0000
0000
0100
0000
0000
0001
0000
1000
,  // measure 34
0001
0000
0000
1000
0000
0000
0010
0000
0000
1000
0000
0001
1000
0000
0000
0001
0000
0000
0010
0000
0000
0001
0000
1000
,  // measure 35
0001
0000
0000
0100
0000
0000
0010
0000
0000
1000
0000
0001
1000
0000
0000
0100
0000
0000
0010
0000
0000
0001
0000
1000
,  // measure 36
0001
0000
0000
0100
0000
0000
0010
0000
0000
1000
0000
0100
1000
0000
0000
0010
0000
0000
0100
0000
0000
0001
0000
0010
,  // measure 37
0001
0000
0000
1000
0000
0000
0010
0000
0000
0100
0000
0010
0100
0000
0000
0001
0000
0000
0010
0000
0000
0100
0000
0010
,  // measure 38
0100
0000
0000
1000
0000
0000
0010
0000
0000
0100
0000
0001
0100
0000
0000
0001
0000
0000
0010
0000
0000
0100
0000
1000
,  // measure 39
0100
0000
0000
1000
0000
0000
0010
0000
0000
1000
0000
0001
2000
0000
0000
0000
0000
0000
0002
0000
0000
3003
0000
0000
,  // measure 40
1000
0000
0000
0100
0000
0000
1000
0000
0000
0010
0000
0000
1000
0000
0000
0100
0000
0000
0010
0000
0000
0001
0000
1000
,  // measure 41
0001
0000
0000
0100
0000
0000
0001
0000
0000
0010
0000
0000
0001
0000
0000
0100
0000
0000
0010
0000
0000
1000
0000
0001
,  // measure 42
1000
0000
0000
0100
0000
0000
0010
0000
0000
0100
0000
0000
1000
0000
0000
0010
0000
0000
0100
0000
0000
0001
0000
1000
,  // measure 43
0001
0000
0000
0010
0000
0000
0100
0000
0000
0010
0000
0000
0001
0000
0000
0100
0000
0000
0010
0000
0000
1000
0000
0001
,  // measure 44
1000
0100
1000
0100
1000
0100
1000
0100
0010
0001
0010
0001
0010
0001
0010
0001
,  // measure 45
1000
0010
1000
0010
1000
0010
1000
0010
0100
0001
0100
0001
0100
0001
0100
0001
,  // measure 46
4000
0004
0000
0000
0000
0000
0000
0000
0000
0000
0000
0000
0000
0000
0000
0003
,  // measure 47
3MM0
0000
0000
M00M
,  // measure 48
2M02
3003
0001
0001
M022
0033
0010
0100
,  // measure 49
1000
0010
1000
0010
0100
0000
0100
0000
01M2
0000
0000
0000
2M03
0000
0000
0000
,  // measure 50
320M
0000
0000
0000
1300
0010
1000
0001
0010
0001
1000
0100
0010
0001
0010
0100
,  // measure 51
100M
0000
0000
0000
0000
0000
0000
0000
1M01
0000
0001
1000
0000
0000
0010
0000
,  // measure 52
M220
0330
0100
0001
0M22
0033
0010
0100
,  // measure 53
1000
0001
1000
0001
0100
0000
0010
0000
2M10
0000
0000
0000
30M2
0000
0000
0000
,  // measure 54
M023
0000
0000
0000
0031
0100
0001
1000
0100
1000
0001
0010
0100
1000
0100
0010
,  // measure 55
0001
1000
0000
0010
0000
0100
0000
0010
1000
0000
0100
M010
0000
0000
0001
0000
,  // measure 56
2M02
3003
1000
0010
M002
0000
0013
0100
,  // measure 57
0001
0010
0100
1000
0001
0000
1000
0000
002M
0000
0000
0000
0130
0000
0001
0000
,  // measure 58
20M0
0000
0000
0000
0000
0000
0000
0000
0000
0000
0000
0000
3100
0000
0000
0010
0000
0000
0100
0000
0010
0000
0100
0000
0020
0000
0000
0000
0000
0000
0030
0000
0000
0000
0000
0000
0001
0000
0000
0000
0000
0000
1000
0000
0010
0000
1000
0000
,  // measure 59
0010
0100
0010
0100
0001
0010
0100
1000
0001
0100
0001
0100
0010
1000
0010
1000
,  // measure 60
0002
0003
1000
0100
M002
0000
0103
0010
,  // measure 61
0001
0100
0010
0100
0001
1000
0100
0000
002M
0000
0000
0000
0230
0000
0300
0000
,  // measure 62
1001
0000
0001
0101
0000
1000
1100
0000
,  // measure 63
0001
0000
1000
0010
1000
0000
0001
0010
0001
0000
1000
0100
1000
0000
0001
0000
,  // measure 64
2002
0000
0000
0000
,  // measure 65
0000
0000
3003
0000
;

//---------------dance-single - ----------------
#NOTES:
     dance-single:
     :
     Hard:
     8:
     0.436975,0.462353,0.078431,0.313726,0.074510,390.000000,380.000000,10.000000,40.000000,0.000000,0.000000,0.436975,0.462353,0.078431,0.313726,0.074510,390.000000,380.000000,10.000000,40.000000,0.000000,0.000000:
0000
0000
0000
0000
,
0000
0000
0000
0000
,
0000
0000
0000
0000
,
0000
0000
0000
0000
,
1000
0100
0010
0000
0010
0100
1000
0000
,
0010
0100
0001
0000
0001
1000
0100
0000
,
0010
0001
1000
0000
1000
0010
0100
0000
,
0001
0010
0100
0000
0100
0010
0001
0000
,
2002
3003
1000
0000
0010
0000
1000
0000
,
0001
0010
0001
1000
,
1001
0001
0100
0001
,
1000
0100
1000
0001
,
1000
0010
1000
0010
0001
0010
0001
0010
,
1000
0100
1000
0100
0001
0100
0001
0100
,
1000
0010
0100
0001
1000
0100
0010
0001
,
1000
0000
0000
1000
0000
0000
0000
0000
0001
0000
0000
0000
1000
0000
0001
0000
,
2002
3003
1000
0010
0100
0010
1000
0100
,
0010
0001
0000
0001
0100
0000
0010
0000
1000
0000
0000
0000
0001
0000
0010
0000
,
0220
0330
0100
1000
0010
1000
0001
0010
,
0001
1000
0000
1000
0010
0000
0000
0000
2200
0000
3300
0000
0202
0000
0303
0000
,
2000
3000
0001
0100
0010
0100
0001
0010
,
0100
1000
0000
1000
0010
0000
0100
0000
0001
0000
0000
0000
1000
0000
0100
0000
,
1000
0010
0001
0000
0001
0010
1000
0000
,
0001
0000
0010
0000
0100
0000
0000
0000
0100
0000
0010
0000
0001
1000
0001
1000
,
0002
0000
1003
0100
0010
0100
0001
0100
,
0010
0000
0000
0001
1000
0000
0000
0000
0010
0000
0100
0000
0001
0000
0000
0000
,
0020
0030
0001
0100
0010
0100
1000
0100
,
0010
1000
0001
0000
2200
3300
0202
0303
,
1000
0100
0010
0100
1000
0010
0100
0001
,
0010
0100
0000
0100
1000
0000
0000
0000
0001
0000
0100
0000
0020
0000
0030
0000
,
2000
3000
0100
0010
0100
1000
0001
0100
,
0001
0000
0001
1000
0000
1000
0001
0000
,
1000
0100
0010
0000
0010
0100
1000
0000
,
1000
0010
0001
0000
0001
0010
1000
0000
,
1000
0100
0001
0000
0001
0100
1000
0000
,
1000
0010
0100
0000
0100
0010
1000
0000
,
0001
0010
0100
0000
0100
0010
0001
0000
,
0001
0100
1000
0000
1000
0100
0001
0000
,
0001
0010
1000
0000
1000
0010
0001
0000
,
0001
0100
0010
0000
0020
0000
0200
0330
,
0001
1000
0001
1000
0001
1000
0001
1000
,
0100
0010
0100
0010
0100
0010
0100
0010
,
0001
0100
0001
0100
0001
0100
0001
0100
,
0010
1000
0010
1000
0010
1000
0010
1000
,
0001
0010
0100
1000
0001
0100
0010
1000
,
0001
0010
0100
1000
0001
0100
0010
1000
,
0004
4000
0000
0000
0000
0000
0000
0000
0000
0000
0000
0000
0000
0000
0000
3000
,
0003
0000
0000
0000
,
2002
3003
1000
1000
0010
0000
0100
0001
,
0010
0100
0010
0100
2000
0000
3002
0000
,
2003
0000
3010
0010
0100
0100
0001
0001
,
0020
0000
0000
0000
0000
0000
0000
0000
0130
0000
0000
1000
0000
0000
0001
0000
,
2000
0000
3100
0010
0001
0000
0100
0010
,
1000
0001
1000
0001
0020
0000
0230
0000
,
2300
0000
3001
0001
0100
0100
0010
0010
,
1000
0100
0000
1000
0000
0010
0000
1000
0001
0000
0010
0001
0000
0000
1000
0000
,
0002
0000
0103
0010
2000
0000
3100
0010
,
0001
0100
1000
0100
0002
0000
1003
0100
,
0020
0000
0130
1000
0001
0000
1000
0010
,
0100
0100
0001
0001
0010
0100
0010
0100
,
1000
0000
0001
1000
0200
0000
0310
0001
,
1000
0010
0001
0010
2000
0000
3002
0003
,
1000
0000
1000
0001
0000
0001
1000
0000
,
1000
0010
1000
0001
0010
0001
1000
0001
,
2002
0000
0000
0000
,
0000
0000
3003
0000
;

//---------------dance-single - ----------------
#NOTES:
     dance-single:
     :
     Medium:
     6:
     0.348459,0.376471,0.086275,0.266667,0.003922,311.000000,300.000000,11.000000,34.000000,0.000000,0.000000,0.348459,0.376471,0.086275,0.266667,0.003922,311.000000,300.000000,11.000000,34.000000,0.000000,0.000000:
0000
0000
0000
0000
,
0000
0000
0000
0000
,
0000
0000
0000
0000
,
0000
0000
0000
0000
,
1000
0100
0010
0001
,
1000
0010
0100
0001
,
1000
0001
0010
0100
,
1000
0001
0100
0010
,
2002
3003
1000
0000
0001
0000
0001
0000
,
0010
0010
0100
0100
,
1001
1000
0001
0001
,
0100
0100
0010
0010
,
1000
0100
1000
0000
0001
0100
0001
0000
,
1000
0010
1000
0000
0001
0010
0001
0000
,
1000
0100
0010
0000
0001
0100
0010
0000
,
1000
0000
0000
1000
0000
0000
0000
0000
0010
0000
0000
0000
1000
0000
0001
0000
,
2000
3000
0001
0100
0001
0100
0010
1000
,
0100
0000
0010
0001
1000
0000
1001
0000
,
0002
0003
1000
0010
1000
0010
0100
0001
,
0010
0000
0100
1000
0002
0000
0203
0000
,
0320
0030
1000
0100
1000
0100
0010
0000
,
0001
0100
0010
0000
1000
0000
1001
0000
,
0001
0100
0001
0000
1000
0100
1000
0000
,
0001
0010
0001
0000
1000
0010
2000
0000
,
3002
0000
1003
0100
0010
0100
1000
0000
,
0010
0100
0010
0000
1000
0000
0001
0000
,
2000
0000
3001
0100
0010
0100
0001
0000
,
0010
0100
0010
0000
0002
0000
2003
0000
,
3200
0000
1300
0001
0010
0001
1000
0001
,
0100
0000
0010
0000
0100
0001
2000
3000
,
0001
0000
0010
0100
0010
0100
1000
0000
,
0001
0000
0001
1000
0000
1000
0001
0000
,
1000
0010
0100
0010
,
1000
0100
0010
0001
,
1000
0010
0100
0001
,
1000
0100
0010
0100
,
1000
0010
0001
0010
,
1000
0001
0010
0001
,
1000
0001
0100
0001
,
1000
0100
0020
0032
,
1003
0100
0000
0100
0000
0100
0000
0100
,
0010
0001
0000
0001
0000
0001
0000
0001
,
0100
0010
0000
0010
0000
0010
0000
0010
,
1000
0100
0000
0100
0000
0100
0000
0100
,
1000
0001
1000
0000
0010
0100
0010
0000
,
1000
0001
1000
0000
0100
0010
0100
0000
,
1000
0001
1000
0001
1000
0001
1000
0001
,
1000
0000
0000
0000
,
0002
0003
1001
0000
,
2000
3000
1010
0011
,
0002
0000
1003
0100
0010
0100
1000
0001
,
2000
0000
0000
0000
3001
0000
0100
0001
,
0020
0030
0110
0000
,
0200
0300
1010
0011
,
2000
0000
3001
0100
0010
0100
0001
1000
,
0001
0000
0000
0000
1001
0000
0000
1000
,
0020
0000
1030
0001
2000
0000
3100
0010
,
0002
0000
0203
0000
0302
0000
0013
0100
,
2000
0000
3010
0100
0010
0000
1000
0001
,
1000
0100
1000
0001
0100
0001
1000
0001
,
2000
0000
3010
0100
0002
0000
0013
0100
,
2000
0000
3020
0000
0230
0000
0301
1000
,
0001
0000
0001
1000
0000
1000
0001
0000
,
0001
0010
0001
0010
0100
0000
1000
0001
,
1000
0000
0000
0000
;

//---------------dance-single - ----------------
#NOTES:
     dance-single:
     :
     Easy:
     4:
     0.228571,0.276078,0.031373,0.196078,0.000000,204.000000,200.000000,4.000000,25.000000,0.000000,0.000000,0.228571,0.276078,0.031373,0.196078,0.000000,204.000000,200.000000,4.000000,25.000000,0.000000,0.000000:
0000
0000
0000
0000
,
0000
0000
0000
0000
,
0000
0000
0000
0000
,
0000
0000
0000
0000
,
1000
0001
1000
0001
,
0010
0100
0010
0100
,
1000
0001
1000
0001
,
0100
0010
0100
0010
,
1000
0000
0000
0000
,
0001
0000
0000
0000
,
0010
0000
0000
0000
,
0100
0000
0000
0000
,
1000
0010
0100
0010
,
1000
0100
0010
0001
,
1000
0010
0100
0001
,
1000
0000
0001
1000
,
2002
3003
0001
0000
0100
0000
0001
0000
,
1000
0100
0010
0001
,
2002
3003
1000
0000
0010
0000
1000
0000
,
0001
0010
0100
1000
,
0001
1000
0010
0100
,
0010
1000
0001
1001
,
1000
0100
0010
0001
,
0100
0010
0100
0002
,
2003
3001
0010
0100
,
1000
0010
0100
0001
,
1000
0100
0010
0100
,
1000
0001
0200
0320
,
1030
0100
0010
0001
,
0100
0010
1000
0001
,
0010
0100
0010
0001
,
2000
0000
0000
3020
0000
0000
0230
0000
,
0301
0010
0000
0010
,
0000
0100
0000
0100
,
0000
1000
0000
1000
,
0000
0001
0000
0001
,
1000
0010
0000
0010
,
0000
0100
0000
0100
,
0000
0001
0000
0001
,
1000
0001
2000
0000
,
3001
1000
0100
0010
,
0001
1000
0010
0100
,
0001
0010
0100
1000
,
0001
0100
0010
1000
,
0001
0001
1000
1000
,
0100
0100
0010
0010
,
0002
0000
0000
0000
,
0003
0000
0000
0000
,
2000
3000
0001
0000
,
0100
0010
0200
0302
,
2003
3100
0010
0001
,
2000
0000
3001
0100
,
0002
0003
1000
0000
,
0100
0010
0200
2300
,
3002
0103
0010
1000
,
0001
1000
0001
0000
,
1000
0010
1000
0010
,
0100
0001
0010
0100
,
1000
0001
0100
0010
,
1000
0100
0010
0001
,
1000
0010
1000
0001
,
0010
0001
0100
0010
,
2000
0000
0000
3200
0000
0000
0320
0000
,
0031
0001
1000
1000
,
1001
0000
0000
0000
;

//---------------dance-single - ----------------
#NOTES:
     dance-single:
     :
     Beginner:
     2:
     0.114286,0.150588,0.023529,0.007843,0.000000,102.000000,99.000000,3.000000,1.000000,0.000000,0.000000,0.114286,0.150588,0.023529,0.007843,0.000000,102.000000,99.000000,3.000000,1.000000,0.000000,0.000000:
0000
0000
0000
0000
,
0000
0000
0000
0000
,
0000
0000
0000
0000
,
0000
0000
0000
0000
,
1000
0000
0000
0000
,
0001
0000
0000
0000
,
1000
0000
0000
0000
,
0001
0000
0000
0000
,
1001
0000
0000
0000
,
0000
0000
0000
0000
,
1001
0000
0000
0000
,
0000
0000
0000
0000
,
0010
0000
0010
0000
,
0010
0000
0010
0000
,
0100
0000
0100
0000
,
0100
0000
0001
0000
,
1000
0000
1000
0000
,
0010
0000
0010
0000
,
0100
0000
0100
0000
,
0001
0000
0001
0000
,
1000
0000
1000
0000
,
0100
0000
0100
0000
,
0010
0000
0010
0000
,
0001
0000
0001
0000
,
1000
0000
0000
0000
,
0001
0000
0001
0000
,
0100
0000
0100
0000
,
0010
0000
0010
0000
,
1000
0000
1000
0000
,
0001
0000
0001
0000
,
0010
0000
0010
0000
,
0100
0000
0100
0000
,
1000
0000
0000
0000
,
0010
0000
0000
0000
,
0100
0000
0000
0000
,
0001
0000
0000
0000
,
1000
0000
0000
0000
,
0100
0000
0000
0000
,
0010
0000
0000
0000
,
0001
0000
1000
0000
,
0001
0000
0001
0000
,
0001
0000
0001
0000
,
0100
0000
0100
0000
,
0100
0000
0100
0000
,
0010
0000
0010
0000
,
0010
0000
0010
0000
,
2000
0000
0000
0000
,
3000
0000
0000
0000
,
0000
0000
0001
0000
,
1000
0000
0010
0000
,
0100
0000
0001
0000
,
1000
0000
0100
0000
,
0010
0000
0001
0000
,
1000
0000
0001
0000
,
0100
0000
0010
0000
,
1000
0000
0001
0000
,
1000
0000
1000
0000
,
0001
0000
0001
0000
,
0010
0000
0010
0000
,
0100
0000
0100
0000
,
1000
0000
1000
0000
,
0001
0000
0001
0000
,
0100
0000
0100
0000
,
0010
0000
0010
0000
,
1001
0000
0000
0000
;
