#TITLE:똥싸야돼;
#SUBTITLE:;
#ARTIST:BgA;
#TITLETRANSLIT:Dong Saya Dae;
#SUBTITLETRANSLIT:;
#ARTISTTRANSLIT:;
#GENRE:;
#CREDIT:;
#BANNER:[You Won't See This In DDR V] - Dong Saya Dae.png;
#BACKGROUND:[You Won't See This In DDR V] - Dong Saya Dae-bg.png;
#LYRICSPATH:;
#CDTITLE:cdtitle.png;
#MUSIC:[You Won't See This In DDR V] - Dong Saya Dae.ogg;
#OFFSET:1.746000;
#SAMPLESTART:14.855000;
#SAMPLELENGTH:14.769232;
#LASTBEATHINT:1.615859;
#SELECTABLE:YES;
#DISPLAYBPM:130.000000;
#BPMS:0.000000=130.000000
,172.000000=113.800003
,173.000000=106.000000
,173.500000=113.000000
,174.500000=118.000000
,176.000000=116.500000
,179.500000=102.000000
,180.000000=117.000000
,188.000000=112.000000
,190.000000=108.000000
,192.000000=100.000000
,194.000000=117.000000
,196.000000=112.000000
,198.000000=105.000000
,200.000000=90.000000
,202.000000=87.000000
,204.000000=74.000000
;
#STOPS:
;
#BGCHANGES:0.000=[You Won't See This In DDR V] - Dong Saya Dae.avi=1.000=0=0=0=StretchNoLoop==CrossFade_Faster=#000000=,
3.500=[You Won't See This In DDR V] - Dong Saya Dae.avi=1.000=1=0=0=StretchNoLoop==CrossFade==,
99999=-nosongbg-=1.000=0=0=0 // don't automatically add -songbackground-
;
#KEYSOUNDS:;
#ATTACKS:;

//---------------dance-single - ----------------
#NOTES:
     dance-single:
     9646_BEG:
     Beginner:
     1:
     0.059926,0.098345,0.027966,0.046609,0.000000,45.000000,42.000000,3.000000,5.000000,0.000000,0.000000,0.059926,0.098345,0.027966,0.046609,0.000000,45.000000,42.000000,3.000000,5.000000,0.000000,0.000000:
// measure 0
0000
0000
0000
0000
,  // measure 1
0000
0000
0000
0000
,  // measure 2
0000
0000
0000
0000
,  // measure 3
0000
0000
0000
0000
,  // measure 4
0000
0000
0000
0000
,  // measure 5
0000
0000
0000
0000
,  // measure 6
0000
0000
0000
0000
,  // measure 7
0000
0000
0000
0000
,  // measure 8
0000
0000
0000
0000
,  // measure 9
0010
0000
0010
0000
,  // measure 10
0010
0000
0000
0000
,  // measure 11
0100
0000
0100
0000
,  // measure 12
0100
0000
0000
0000
,  // measure 13
1000
0000
0000
0000
,  // measure 14
0001
0000
0000
0000
,  // measure 15
1000
0000
0000
0000
,  // measure 16
0001
0000
0000
0000
,  // measure 17
1000
0000
1000
0000
,  // measure 18
1000
0000
0000
0000
,  // measure 19
0001
0000
0001
0000
,  // measure 20
0001
0000
0000
0000
,  // measure 21
0100
0000
0000
0000
,  // measure 22
0010
0000
0000
0000
,  // measure 23
0100
0000
0000
0000
,  // measure 24
0020
0000
0000
0000
,  // measure 25
0030
0000
0000
0000
,  // measure 26
0000
0000
0000
0000
,  // measure 27
1001
0000
0000
0000
,  // measure 28
0100
0000
0000
0000
,  // measure 29
0100
0000
0000
0000
,  // measure 30
0010
0000
0000
0000
,  // measure 31
1000
0000
0000
0000
,  // measure 32
0001
0000
0000
0000
,  // measure 33
0010
0000
0000
0000
,  // measure 34
0100
0000
0000
0000
,  // measure 35
1001
0000
0000
0000
,  // measure 36
0100
0000
0000
0000
,  // measure 37
0100
0000
0000
0000
,  // measure 38
0010
0000
0000
0000
,  // measure 39
0001
0000
0000
0000
,  // measure 40
1000
0000
0000
0000
,  // measure 41
0010
0000
0000
0000
,  // measure 42
0100
0000
0000
0000
,  // measure 43
1001
0000
0000
0000
,  // measure 44
0001
0000
0000
0000
,  // measure 45
2000
0000
0000
0000
,  // measure 46
3000
0000
0000
0000
,  // measure 47
0200
0000
0000
0000
,  // measure 48
0300
0000
0000
0000
,  // measure 49
0020
0000
0000
0000
,  // measure 50
0030
0000
0000
0000
,  // measure 51
0000
0000
0002
0000
,  // measure 52
0000
0000
0000
0003
;

//---------------dance-single - ----------------
#NOTES:
     dance-single:
     9646_CSP:
     Challenge:
     7:
     0.359557,0.491727,0.261011,0.288977,0.032626,270.000000,242.000000,28.000000,31.000000,52.000000,0.000000,0.359557,0.491727,0.261011,0.288977,0.032626,270.000000,242.000000,28.000000,31.000000,52.000000,0.000000:
0000
0000
0000
0000
,
0000
0000
0000
0000
,
0000
0000
0000
0000
,
0000
0000
0000
0000
,
0000
0000
0000
0000
,
1000
0010
1000
0000
0001
0100
0001
0000
,
1000
0100
1000
0000
0001
0010
0001
0000
,
1000
0010
1000
0010
0001
0010
0001
0010
,
0100
0010
0100
0010
0100
0100
0010
MMMM
,
1001
0100
0010
0000
0001
1000
0100
1000
,
0010
0000
MMMM
0001
0000
0001
0000
0001
,
1000
0010
0100
0000
0001
1000
0010
1000
,
0100
0000
MMMM
0001
0000
0001
0100
0001
,
1000
0100
0001
0100
1000
0001
MMMM
0000
,
0001
0100
1000
0100
0001
1000
MMMM
0000
,
1000
0100
0001
0000
1100
0000
0001
0100
,
1000
0000
MMMM
0000
MMMM
0000
0010
0001
,
0100
0000
1010
1000
0100
0000
0110
0000
,
2001
0000
3010
0100
0001
0000
MMMM
0000
,
0100
0000
0011
0001
0100
0000
0110
0000
,
2001
0000
3100
0010
0001
0000
0010
0100
,
1000
0000
1001
0000
MMMM
0000
1000
0010
,
0001
0000
0110
0000
MMMM
0000
0100
0010
,
1000
0000
1001
0000
MMMM
0000
1000
0200
,
0001
0000
1000
0000
0001
0000
1300
0001
,
1000
0010
1000
0010
0100
0001
0010
0100
,
2000
0000
0000
0000
0000
0000
3000
MMMM
,
1002
0000
1003
0010
0010
0100
0101
0000
,
0001
0000
1100
0000
1000
0000
0101
0001
,
0020
0000
0130
1000
0001
0010
0011
0000
,
1000
0000
1010
1000
0200
0000
0310
0001
,
2000
0000
3001
0010
0010
0100
1100
0000
,
1000
0000
0101
0000
0001
1000
1100
1000
,
0020
0000
0130
0001
1000
0010
1010
0000
,
0001
0000
0011
0001
0200
0000
0310
1000
,
1001
0000
1000
0100
0001
0100
1000
0001
,
2000
0000
3001
1000
0010
0001
0010
1000
,
0002
0000
1003
0100
0110
0000
0001
0100
,
0110
0000
1000
0001
0010
1000
0010
0001
,
1000
0000
0100
0010
0011
0000
0100
0010
,
1010
0000
1000
0100
0010
0001
1000
0100
,
0010
0100
0010
0100
1000
0001
1000
0001
,
0100
0000
0010
0000
0100
0000
0010
0000
0100
0000
0010
0000
0100
0000
0010
0000
0100
0000
0010
0000
0000
MMMM
0000
0000
,
1001
0000
0000
0000
0000
0000
0000
0002
,
2003
0000
0000
3020
0000
0230
0000
0302
,
2000
0000
0000
0000
,
3003
0000
0000
0000
0000
0000
0002
0000
0023
0000
0000
0230
0000
0000
2300
0000
,
3020
0000
0000
0032
0000
0000
0000
2003
,
0000
0000
3000
0200
,
0302
0000
0000
2000
0000
0000
0000
3003
,
0000
0000
0000
0002
0000
0000
0020
0000
,
0000
0003
0000
0000
0200
0000
0000
0000
,
0000
0000
0000
0330
;

//---------------dance-single - ----------------
#NOTES:
     dance-single:
     9646_ESP:
     Hard:
     7:
     0.432800,0.516313,0.223724,0.410161,0.083897,325.000000,301.000000,24.000000,44.000000,0.000000,0.000000,0.432800,0.516313,0.223724,0.410161,0.083897,325.000000,301.000000,24.000000,44.000000,0.000000,0.000000:
0000
0000
0000
0000
,
0000
0000
0000
0000
,
0000
0000
0000
0000
,
0000
0000
0000
0000
,
0000
0000
0000
0000
,
1000
0010
1000
0010
0001
0010
0001
0010
,
1000
0100
1000
0100
0001
0100
0001
0100
,
1000
0010
0001
0010
1000
0100
0001
0100
,
1000
0010
0001
0010
1000
1000
0001
0001
,
1001
0001
0100
0010
1000
0100
0001
0100
,
2000
0000
3001
1000
1000
0001
0100
0001
,
1000
0001
0010
0100
1000
0010
0001
0010
,
2000
0000
0000
0000
3001
0000
1000
0000
1000
0000
0001
0000
1000
0100
1000
0000
,
0001
1000
0001
0010
1000
0010
0001
0000
,
1000
0001
1000
0010
0001
0010
1000
0000
,
0001
0010
1000
0001
1000
0010
0001
1000
,
0020
0000
0001
0000
1000
0000
0031
0010
,
1000
0000
1001
0100
0010
0000
1001
0000
,
1020
0000
0130
0002
0010
0000
1003
0000
,
0001
0000
1001
0100
0010
0000
1001
0000
,
0021
0000
0130
2000
0010
0000
3001
0010
,
1000
0000
1010
0000
0001
0000
1000
0010
,
0001
0000
0011
0000
1000
0000
0001
0100
,
1000
0000
1100
0000
0001
0000
1000
0200
,
0001
0000
0000
0000
1000
0000
0000
0000
0001
0000
0000
0000
1300
0001
1000
0001
,
1000
0000
0010
0100
0010
0000
1000
0000
0001
0000
1000
0000
0100
0010
0100
0010
,
0200
0000
0000
0300
,
1002
0000
0000
0000
1003
0000
0010
0000
0001
0000
0010
1000
0002
0000
1000
0000
,
1003
0000
1100
0000
1000
0010
0100
0010
,
2000
0000
0000
0000
3001
0000
0010
0000
0100
0000
1000
0001
2000
0000
0001
0000
,
3001
0000
1001
0001
0010
0100
1000
0001
,
1002
0000
0000
0000
1003
0000
0100
0000
0001
0000
0100
1000
0002
0000
1000
0000
,
1003
0000
0000
0000
1010
0000
0000
0000
1000
0000
0100
0000
0010
0000
0010
0100
,
2000
0000
0000
0000
3001
0000
0100
0000
0010
0000
1000
0001
2000
0000
0001
0000
,
3001
0000
1001
0001
0100
0010
1000
0001
,
1001
0000
1000
0001
0010
1000
1000
0010
,
0002
1000
1003
0100
0001
0100
1000
0001
,
1001
0001
1000
0010
0110
0001
0010
0100
,
0110
1000
0001
1000
0010
0001
0010
1000
,
1001
1000
0001
0010
1100
1000
0001
0100
,
1010
0001
1000
0001
0010
1000
0010
0001
,
1000
0100
1000
0100
0010
0001
0010
0001
,
1000
0000
0100
0000
0010
0000
0001
0000
0100
0000
0010
0000
1000
0000
0100
0000
0010
0000
0001
0000
0000
1000
0000
0000
,
1001
0000
0000
0000
0000
0000
0000
2000
,
3002
2003
3020
0230
0000
0001
0000
0302
,
2003
0000
3200
0320
0000
0001
0000
0032
,
2003
0000
3200
0000
0320
0000
0032
0000
0203
0000
0000
0010
0000
0000
0320
0000
,
2030
0000
0100
0002
0000
0000
3000
0000
,
0200
0000
0000
0303
0002
0000
2003
0000
,
3200
0000
0000
0020
0000
0000
0000
0330
,
0000
0000
0000
0200
0000
0000
2000
0000
,
0000
0300
0000
0000
0002
0000
0000
0000
,
0000
0000
0000
3003
;

//---------------dance-single - ----------------
#NOTES:
     dance-single:
     9646_BSP:
     Easy:
     3:
     0.182442,0.245863,0.139828,0.149149,0.000000,137.000000,122.000000,15.000000,16.000000,0.000000,0.000000,0.182442,0.245863,0.139828,0.149149,0.000000,137.000000,122.000000,15.000000,16.000000,0.000000,0.000000:
0000
0000
0000
0000
,
0000
0000
0000
0000
,
0000
0000
0000
0000
,
0000
0000
0000
0000
,
0000
0000
0000
0000
,
0001
0000
0001
0000
,
1000
0000
1000
0000
,
0010
0010
0010
0000
,
0010
0010
0010
0000
,
1000
0100
0001
0100
,
0010
0000
0001
0001
,
1000
0010
0001
0010
,
0100
0000
0001
0001
,
1000
0100
0001
0000
,
1000
0010
0001
0000
,
1000
0100
0001
0010
,
1000
0000
0000
0001
,
1001
1000
0010
0100
,
0002
0000
1003
0000
,
1001
0001
0010
0100
,
2000
0000
3001
1000
,
0100
0110
0000
0001
,
0100
0110
0000
1000
,
0001
0110
0000
0001
,
2000
0000
0000
0000
,
3001
0001
1000
1000
,
0002
0000
0000
0003
,
1001
0000
0100
0000
,
1000
1000
0001
1000
,
0002
0000
1003
0000
,
0010
0100
0001
1000
,
0002
0000
0013
0000
,
0001
0001
1000
0001
,
2000
0000
3001
0000
,
0100
0010
1000
0001
,
1001
0000
0001
0100
,
0110
0000
0100
0001
,
1001
0000
0110
0000
,
1001
0000
1000
0100
,
0110
0000
1001
0000
,
0110
0000
0100
0010
,
0100
0100
0100
0100
,
0010
0010
0010
0010
,
1001
0000
0000
0000
,
2000
0000
3020
0000
,
0230
0000
0000
0000
,
0300
0000
0002
0000
,
0023
0000
0000
0000
,
0230
0000
0300
0000
,
2000
0000
0000
0000
,
3000
0000
0000
0002
0000
0000
0000
0000
,
0000
0000
2000
0000
,
0000
0000
0000
3003
;

//---------------dance-single - ----------------
#NOTES:
     dance-single:
     9646_DSP:
     Medium:
     5:
     0.288977,0.368795,0.279655,0.214402,0.000000,217.000000,187.000000,30.000000,23.000000,0.000000,0.000000,0.288977,0.368795,0.279655,0.214402,0.000000,217.000000,187.000000,30.000000,23.000000,0.000000,0.000000:
0000
0000
0000
0000
,
0000
0000
0000
0000
,
0000
0000
0000
0000
,
0000
0000
0000
0000
,
0000
0000
0000
0000
,
0010
0010
0010
0010
,
0100
0100
0100
0100
,
0010
0010
0010
0010
,
0010
0010
0010
0100
,
1001
0000
0001
0000
1000
0010
0001
0000
,
0020
1000
0001
1000
,
0130
0000
0001
0000
1000
0100
0001
0000
,
0200
1000
0001
1000
,
0310
0001
0100
0000
1010
0000
0000
0000
,
0010
1000
0100
0000
0011
0000
0000
0000
,
0001
0100
0010
0000
1001
0000
1000
0100
,
0020
0100
0100
0130
,
1001
0000
0001
0100
1000
0000
0100
0000
,
0002
0000
1003
0000
,
1001
0000
1000
0100
0001
0000
0100
0000
,
2000
0000
0000
0000
3001
0000
1000
0010
,
0100
0000
0110
0000
0000
0000
0001
0010
,
0100
0000
0110
0000
0000
0000
1000
0001
,
1000
0000
0110
0000
0000
0000
0001
2000
,
0001
0010
0100
0001
,
3010
0100
0010
0000
1000
0001
1000
0001
,
2000
0000
0000
3000
,
1001
0000
0001
0100
0010
0000
1010
0000
,
1000
1001
0001
0011
,
0100
0000
1000
0001
1000
0000
1100
0000
,
1000
1001
0001
0100
,
1001
0000
1000
0100
0010
0000
0011
0000
,
0001
0000
1001
0000
1000
0000
1010
0010
,
0100
0000
0001
1000
0001
0000
0101
0000
,
0001
1001
1000
0100
,
1001
0000
0001
0100
1000
0000
0100
0000
,
0110
0000
0001
0010
1000
0000
0010
0000
,
0110
0001
0011
1000
,
1010
0000
0100
0001
1000
0000
0001
0000
,
0110
1000
1100
0001
,
0101
0000
0010
1000
0001
0000
1000
0000
,
0001
0010
0001
0000
1000
0100
1000
0000
,
0010
0100
0010
0100
0010
0100
0010
0000
,
1001
0000
0000
0000
0000
0000
0000
0002
,
2003
0000
0000
3200
0000
0320
0000
0032
,
0000
0000
0000
0000
,
0003
0000
0000
0002
2003
0000
3020
0000
,
0230
0000
0000
0302
0000
0000
0000
0023
,
0000
0000
0030
0200
,
2300
0000
0000
0002
0000
0000
0000
0000
,
3003
0000
0000
0200
0000
0000
0000
0000
,
0000
0000
0020
0000
,
0000
0000
0000
0330
;
