#TITLE:Columns;
#SUBTITLE:(Blue Square Mix);
#ARTIST:Rayza;
#TITLETRANSLIT:;
#SUBTITLETRANSLIT:;
#ARTISTTRANSLIT:;
#GENRE:;
#CREDIT:;
#BANNER:banner.png;
#BACKGROUND:Columns (Blue Square Mix)-bg.png;
#LYRICSPATH:;
#CDTITLE:;
#MUSIC:Columns (Blue Square Mix).ogg;
#OFFSET:-0.465997;
#SAMPLESTART:62.276112;
#SAMPLELENGTH:12.000000;
#SELECTABLE:YES;
#BPMS:0.000000=128.000000
,64.000000=64.000000
,80.000000=128.000000
;
#STOPS:
;
#BGCHANGES:;
#KEYSOUNDS:;
#ATTACKS:;

//---------------dance-single - ----------------
#NOTES:
     dance-single:
     :
     Beginner:
     1:
     0.099275,0.096821,0.007808,0.000000,0.000000,88.000000,1.000000,0.000000,0.000000,0.000000,0.000000,0.099275,0.096821,0.007808,0.000000,0.000000,88.000000,1.000000,0.000000,0.000000,0.000000,0.000000:
0000
0000
0000
0000
,
0000
0000
0000
0000
,
0000
0000
0000
0000
,
0000
0000
0000
0000
,
1000
0000
0000
0000
,
0001
0000
0000
0000
,
0100
0000
0000
0000
,
0010
0000
0000
0000
,
1000
0000
1000
0000
,
0100
0000
0100
0000
,
0010
0000
0010
0000
,
0001
0000
0001
0000
,
1000
0000
1000
0000
,
0010
0000
0010
0000
,
0100
0000
0100
0000
,
0001
0000
0000
1000
,
1000
0000
0100
0000
,
0010
0000
0001
0000
,
1000
0000
0010
0000
,
0100
0000
0001
0000
,
1000
0000
1000
0000
,
0001
0000
0001
0000
,
0100
0000
0100
0000
,
0010
0000
0010
0000
,
1000
0000
1000
0000
,
0100
0000
0100
0000
,
0010
0000
0010
0000
,
0001
0000
0001
0000
,
1000
0000
0000
0000
,
1000
0000
0000
0000
,
0010
0000
0000
0000
,
0100
0000
0000
0000
,
0001
0000
0000
0000
,
0010
0000
0000
0000
,
0100
0000
0000
0000
,
1000
0000
0000
0000
,
0001
0000
0000
0000
,
1000
0000
1000
0000
,
0010
0000
0010
0000
,
0100
0000
0100
0000
,
0001
0000
0001
0000
,
0010
0000
0010
0000
,
0100
0000
0100
0000
,
1000
0000
1000
0000
,
0001
0000
0001
0000
,
1000
0000
0000
0000
,
0010
0000
0000
0000
,
0100
0000
0000
0000
,
0001
0000
0000
0000
,
0010
0000
0000
0000
,
0100
0000
0000
0000
,
1000
0000
0000
0000
,
0001
0000
0000
0000
,
1000
0000
0000
0001
,
0001
0000
0000
0000
,
0100
0000
0000
0000
,
0010
0000
0000
0000
,
1000
0000
0000
0000
,
0100
0000
0000
0000
,
0010
0000
0000
0000
,
0001
0000
0000
0000
,
0100
0000
0000
0000
,
1001
0000
0000
0000
;

//---------------dance-single - ----------------
#NOTES:
     dance-single:
     :
     Easy:
     3:
     0.226435,0.220481,0.078081,0.015616,0.000000,191.000000,10.000000,2.000000,0.000000,0.000000,0.000000,0.226435,0.220481,0.078081,0.015616,0.000000,191.000000,10.000000,2.000000,0.000000,0.000000,0.000000:
0000
0000
0000
0000
,
0000
0000
0000
0000
,
0000
0000
0000
0000
,
0000
0000
0000
0000
,
1000
1000
1000
0000
,
0001
0001
0001
0000
,
0100
0100
0100
0000
,
0010
0000
0000
0010
,
1001
1000
0100
0000
,
0001
0001
0100
0000
,
1000
0010
0100
0000
,
0001
0010
0100
0000
,
1000
1000
0001
0000
,
0001
0001
1000
0000
,
0010
0010
0100
0000
,
1001
0000
0000
1000
,
1100
0001
0100
0010
,
1000
0100
0010
0001
,
0100
0010
0100
0001
,
0010
0000
0100
0000
1000
0000
0010
0010
,
1010
1000
0100
0010
,
0001
0100
0010
0100
,
0001
0010
0100
1000
,
0100
0010
0001
0000
,
1000
0010
0100
0001
,
0010
0100
1000
0001
,
0100
0010
0100
0001
,
1000
0100
0010
0000
,
0100
0000
0000
0000
,
1001
1000
0010
0000
,
0001
0001
0010
0000
,
1000
1000
0100
0000
,
0001
0001
0100
0000
,
1000
0010
0100
0000
,
0001
0010
0100
0000
,
1000
1000
0001
0001
,
0100
0100
0010
0000
,
1000
0100
0010
0010
,
0010
0100
1000
0001
,
0100
0010
1000
0100
,
0010
0100
1000
0000
,
0001
0100
0010
1000
,
0010
0100
0001
0001
,
1000
0100
0010
0010
,
0001
0100
0010
0000
,
1001
1000
0000
0100
,
0000
0010
0000
0001
,
0100
0010
0000
1000
,
0001
0001
0001
1000
,
0010
0100
0000
0001
,
0000
0010
0000
0100
,
0010
0001
0000
1000
,
0000
0001
0000
0100
,
0010
0000
0000
0010
,
1001
1000
0001
1000
,
0001
0100
0001
0100
,
0010
1000
0010
1000
,
0001
0010
0001
0000
,
1100
1000
0010
0100
,
0100
0001
0010
0100
,
1000
0001
0100
0100
,
0001
0000
0000
1001
,
2002
0000
0000
3003
;

//---------------dance-single - ----------------
#NOTES:
     dance-single:
     :
     Medium:
     6:
     0.311209,0.391967,0.031232,0.031232,0.000000,271.000000,4.000000,4.000000,0.000000,0.000000,0.000000,0.311209,0.391967,0.031232,0.031232,0.000000,271.000000,4.000000,4.000000,0.000000,0.000000,0.000000:
0000
0000
0000
0000
,
0000
0000
0000
0000
,
0000
0000
0000
0000
,
0000
0000
0000
0000
,
1000
0000
0000
0001
0000
0000
0100
0000
,
0010
0000
0000
0100
0000
0000
0001
0000
,
1000
0000
0000
0100
0000
0000
0010
0000
,
0001
0000
0000
1000
0000
0000
0001
0000
,
1001
0000
1000
0000
0010
0000
0100
0001
,
0000
0001
0010
0000
0100
0000
1000
0000
,
0010
0000
0100
0000
0010
0000
1000
0001
,
0000
0001
1000
0000
0200
0000
0000
0000
,
0300
0000
0010
0000
0100
0000
1000
0010
,
0000
0010
0100
0000
0010
0000
1000
0000
,
0100
0010
0100
1000
,
1001
0000
0000
1000
,
1000
0001
0010
0100
1000
0100
0010
0001
,
1000
0010
0100
0001
0100
0010
1000
0001
,
0010
0100
1000
0100
0010
0001
0100
0010
,
1000
0010
0100
0001
0010
0100
1000
1000
,
1000
0000
0001
0000
0100
0010
0100
0000
,
0001
0000
1000
0000
0100
0010
0100
0000
,
1000
0000
0001
0000
0010
0001
0010
0000
,
0001
0000
1000
0000
0010
1000
0010
0000
,
1000
0000
0100
0000
0010
0001
0100
0000
,
0001
0000
0100
0000
0010
1000
0100
0000
,
1000
0000
0001
0000
0100
0001
1000
0000
,
0100
0000
1000
0000
0001
0010
0001
0000
,
1001
0000
0000
0000
,
1000
0000
0010
0100
0001
0000
0010
0000
,
0100
0010
0001
1000
,
0001
0000
0100
0010
1000
0000
0010
0000
,
0100
0000
0001
0000
1000
0100
1000
0100
,
1000
0000
0001
0100
0010
0000
0100
0000
,
0001
0010
0100
1000
,
0001
1000
0010
0100
,
0001
1000
0010
0100
,
0001
0000
0010
0010
,
0010
0000
0100
0000
1000
0010
1000
0000
,
0001
0000
0100
0000
0010
0100
0001
0000
,
0010
0000
0100
0000
0010
0100
0010
0000
,
0100
0000
1000
0000
0001
1000
0001
0000
,
1000
0000
0010
0000
0100
0001
0100
0000
,
0001
0000
0010
0000
0100
1000
0100
0000
,
1000
0000
0010
0000
0100
0010
0100
0000
,
0001
0000
1000
0000
0100
0010
0000
0010
,
0001
0000
0100
0000
0010
0100
0000
0100
,
0001
0000
1000
0000
0100
1000
0000
1000
,
0010
0000
0100
0000
0010
1000
0000
1000
,
0001
0000
0010
0000
0100
0010
0000
0010
,
0001
0000
0100
0000
0010
0100
0000
0100
,
0001
0000
1000
0000
0100
0010
0000
0010
,
0100
0000
1000
0000
0010
1000
0000
1000
,
0001
0100
0010
1000
,
1000
0000
0100
0000
0010
0001
0000
0100
,
0010
0000
0100
0000
0001
0010
0000
0100
,
1000
0000
0010
0000
0100
0010
0000
1000
,
0001
0010
0200
0300
,
1000
0000
0010
0000
0100
0001
0000
0010
,
0100
0000
0010
0000
0001
0100
0000
0010
,
0100
0000
0001
0000
1000
0100
0000
0010
,
0001
0000
0000
0010
,
2002
0000
0000
3003
;

//---------------dance-single - ----------------
#NOTES:
     dance-single:
     :
     Hard:
     8:
     0.501950,0.808432,0.195203,0.171778,0.175682,403.000000,25.000000,22.000000,0.000000,0.000000,0.000000,0.501950,0.808432,0.195203,0.171778,0.175682,403.000000,25.000000,22.000000,0.000000,0.000000,0.000000:
// measure 0
0000
0000
0000
0000
,  // measure 1
0000
0000
0000
0000
,  // measure 2
0000
0000
0000
0000
,  // measure 3
0000
0000
0000
0000
,  // measure 4
1000
0000
0000
1000
0000
0000
1000
0000
0000
0000
0100
0000
0010
0000
0001
0000
,  // measure 5
0100
0000
0000
0100
0000
0000
0100
0000
0000
0000
0010
0000
0100
0000
0001
0000
,  // measure 6
0010
0000
0000
0010
0000
0000
0010
0000
0000
0000
0100
0000
1000
0000
0010
0000
,  // measure 7
0100
0000
0000
0100
0000
0000
0100
0000
0010
0000
0000
0000
1001
0000
0000
0000
,  // measure 8
0101
0000
0001
0000
0010
0100
1000
0100
,  // measure 9
0001
0100
1000
0000
0001
0000
1000
0010
,  // measure 10
0100
0000
0100
0000
0001
0100
0001
0010
,  // measure 11
0100
0010
0100
0000
2200
0000
0000
0000
,  // measure 12
3300
0000
0001
0000
1000
0010
0100
0010
,  // measure 13
0100
0001
1000
0000
0100
0000
0010
0100
,  // measure 14
1000
0000
0001
0000
1000
0010
0100
0010
,  // measure 15
2020
0000
3030
0101
,  // measure 16
1001
0001
0010
0100
1000
0001
0010
0100
1000
0001
0100
0010
1000
0001
0100
0010
,  // measure 17
1000
0100
0010
0001
1000
0100
0010
0001
1000
0001
1000
0001
0100
0010
0100
0000
,  // measure 18
0010
1000
0010
1000
0001
0100
0001
0100
0001
0010
0001
0010
0100
1000
0100
1000
,  // measure 19
0001
1000
0001
1000
0010
0100
0010
0100
0101
0001
0010
0100
1100
0000
1010
0000
,  // measure 20
1001
0001
0100
0010
1000
0001
0100
0010
,  // measure 21
1000
0100
0010
0001
1000
0100
0010
0001
,  // measure 22
1000
0010
0100
0001
1000
0010
0100
0001
,  // measure 23
1000
0000
0100
0000
0001
0000
0100
0000
1000
0000
0001
0000
1000
0010
0000
0010
,  // measure 24
0100
0001
0010
0100
1000
0001
0010
0100
,  // measure 25
1000
0010
0100
0001
1000
0010
0100
0001
,  // measure 26
1000
0100
0001
0100
1000
0010
0001
0010
,  // measure 27
1000
0100
0010
0001
0100
0010
1000
0001
,  // measure 28
2002
0000
0000
3003
,  // measure 29
1001
0000
0001
0010
0100
0000
0100
0000
,  // measure 30
2000
0000
0000
3000
0020
0000
0000
0030
0200
0000
0000
0300
0002
0000
0000
0003
,  // measure 31
1000
0000
0001
0010
0100
0000
1000
0000
,  // measure 32
0002
0000
0000
0003
0200
0000
0000
0300
0010
0000
1000
0000
0100
0000
0010
0000
,  // measure 33
0001
0000
1000
0100
0010
0000
0100
0000
,  // measure 34
2000
0000
0000
3000
0020
0000
0000
0030
0200
0000
0000
0300
0002
0000
0000
0003
,  // measure 35
1000
0100
0010
0100
1000
0010
0100
0010
,  // measure 36
1000
0000
0010
0000
0001
0000
0010
0000
0100
0000
0001
0000
0010
0100
0000
0100
,  // measure 37
1000
1000
0001
0001
1001
0000
1001
0000
,  // measure 38
1100
0001
0100
0010
1000
0001
0010
0100
,  // measure 39
1000
0100
0010
0001
1000
0100
0010
0001
,  // measure 40
1000
0010
0100
0001
1000
0010
0100
0001
,  // measure 41
1000
0100
0010
0100
1000
0010
0100
0010
,  // measure 42
1000
0010
0100
0001
1000
0010
0100
0001
,  // measure 43
0010
0100
0010
0001
0100
0010
0100
0001
,  // measure 44
0010
0100
1000
0001
0010
0100
1000
0001
,  // measure 45
1001
0000
0000
0000
1000
0000
0000
0000
0010
0000
0000
0100
0000
0000
0001
0000
,  // measure 46
1000
0000
0000
0000
1000
0000
0000
0000
0001
0000
0000
0010
0000
0000
0100
0000
,  // measure 47
1000
0000
0000
0000
0001
0000
0000
0000
1000
0000
0000
0010
0000
0000
0100
0000
,  // measure 48
1001
0000
0000
0000
1000
0000
0000
0000
0001
0000
0000
0010
0000
0000
0100
0000
,  // measure 49
1010
0000
0000
0000
0010
0000
0000
0000
0001
0000
0000
0010
0000
0000
1000
0000
,  // measure 50
0001
0000
0000
0000
0010
0000
0000
0000
1000
0000
0000
0010
0000
0000
0001
0000
,  // measure 51
1000
0000
0000
0000
0100
0000
0000
0000
0001
0000
0000
0100
0000
0000
1000
0000
,  // measure 52
0001
0000
0000
0000
0100
0000
0000
0000
1000
0000
0000
0100
0000
0000
0001
0000
,  // measure 53
1000
0010
0100
0001
0100
0010
0101
0000
,  // measure 54
0011
0010
0100
1000
0001
0010
0100
1000
,  // measure 55
0001
0100
0010
1000
0001
0100
0010
1000
,  // measure 56
0001
1000
0100
0010
0001
1000
0100
0010
,  // measure 57
0001
0001
1000
1000
2002
0000
3003
1000
,  // measure 58
1010
0010
0100
0001
1000
0010
0100
0001
,  // measure 59
1000
0100
0010
0001
1000
0100
0010
0001
,  // measure 60
1000
0001
0010
0100
1000
0001
0010
0100
,  // measure 61
2002
0000
3003
0110
,  // measure 62
2002
0000
0000
3003
;
