#TITLE:Bits of Paper;
#SUBTITLE:;
#ARTIST:Eduplus;
#TITLETRANSLIT:;
#SUBTITLETRANSLIT:;
#ARTISTTRANSLIT:;
#CREDIT:;
#BANNER:;
#BACKGROUND:;
#LYRICSPATH:;
#CDTITLE:;
#MUSIC:Bits of Paper.ogg;
#OFFSET:-0.160;
#SAMPLESTART:0.000;
#SAMPLELENGTH:12.000;
#SELECTABLE:YES;
#BPMS:0.000=142.900,10.000=146.980,11.000=120.260,65.000=150.000,65.500=142.900,73.500=90.361,74.000=120.260,128.000=160.000,128.500=142.900;
#STOPS:;
#BGCHANGES:;

//---------------dance-single - ----------------
#NOTES:
     dance-single:
     :
     Hard:
     8:
     0.589,0.616,0.458,0.014,0.408:
1000
0000
1000
0000
0100
0100
0000
0110
,
0000
0010
0001
0100
0001
0000
0020
0030
,
0100
0010
0100
0000
0000
0000
0000
0100
0010
0000
0000
0000
0010
0001
0000
0000
,
0001
0100
0000
0000
0100
0010
0000
0000
0010
1000
0000
0000
1000
0100
0000
0000
,
0100
0010
0000
0000
0010
0001
0000
0000
0001
0100
0000
0100
0001
0000
0100
0000
,
1000
0100
0001
0000
1001
0000
0001
0010
,
1000
0010
0001
0000
1001
0000
0001
1000
,
0001
0100
0010
0000
0110
0000
1000
0001
,
1000
0100
0010
0000
0110
0000
1001
0000
,
0001
0100
0110
0000
0000
0000
1001
0000
,
1000
0000
0100
0000
0110
0000
0000
0000
0000
0000
0000
0000
0001
0100
0000
0000
,
0100
0010
0000
0000
0010
1000
0000
0000
1000
0100
0000
0000
0100
0010
0000
0000
,
0010
0001
0000
0000
0001
0100
0000
0000
0100
0001
0000
0001
0100
0000
0001
0000
,
0010
0001
0100
0000
0110
0000
0010
1000
,
0100
1000
0010
0000
1010
1000
1001
0000
,
0011
0000
1001
0000
0000
0001
1001
0000
,
1010
0000
0000
0000
1001
0000
0001
0000
1000
0000
0100
1000
0100
0000
0010
0000
,
0001
0000
0100
0010
0100
0000
1000
0000
0100
0000
0001
0010
0100
0000
1000
0000
,
0010
0000
0100
0001
1000
0000
0100
0000
0010
0001
0000
0000
0001
0100
0000
0000
,
0100
0010
0000
0000
0010
1000
0000
0000
1000
0100
0000
0000
0100
0010
0000
0000
,
0010
0001
0000
0000
0001
1000
0000
0000
1000
0000
0100
0000
0001
0000
1000
0000
,
0001
0000
1001
0000
0001
1000
0001
0100
,
1000
0000
1001
0000
1000
0010
0100
0001
,
0001
0000
0101
0000
0001
0010
0100
1000
,
1000
0000
0000
0000
1100
0000
0000
0000
1000
0001
0000
0000
0100
0000
0100
0000
,
0001
1000
0000
0000
0000
0000
0000
0000
0001
1000
0000
0000
0010
0000
0010
0000
,
1000
0001
0000
0000
0000
0000
0000
0000
0001
0100
0000
0000
0100
0010
0000
0000
,
0010
1000
0000
0000
1001
0000
0000
0000
1000
0100
0000
0000
0100
0010
0000
0000
,
0010
0001
0000
0000
1001
0000
0000
0000
0001
0100
0001
0000
1000
0000
0100
0000
,
1000
0100
1000
0000
1001
0000
0000
0000
1000
0010
1000
0000
0001
0000
0010
0000
,
0001
0010
0001
0000
1001
0000
0001
0000
0101
0000
0000
0000
1001
0000
0000
0000
,
1100
0000
0000
1000
1100
0000
1001
0000
,
0101
0000
0000
0000
0100
0000
0001
0000
1000
0001
0100
0001
1000
0000
0100
0000
,
0001
0000
0100
0000
0010
0000
0100
0000
1000
0010
0100
0001
0010
0000
0001
0000
,
0100
0000
0010
0000
1000
0100
0010
0000
0001
0010
0001
0010
0100
0000
1000
0010
,
1000
0100
1000
0000
0010
0000
0100
0000
0001
0010
0100
1000
0001
0000
1001
0000
;

//---------------dance-single - ----------------
#NOTES:
     dance-single:
     :
     Medium:
     5:
     0.439,0.436,0.401,0.272,0.000:
1000
0000
0001
0000
2000
0000
0000
3010
,
0000
0100
0001
1000
,
0001
1000
1001
2100
,
3001
0012
1003
2100
,
3001
0012
1003
1000
,
0001
1000
0010
0000
1001
0000
0001
0000
,
1000
0001
0010
0000
1001
0000
1000
0000
,
0100
0010
0002
0000
1003
0000
0001
0000
,
0100
0010
2000
0000
3001
0000
1001
0000
,
1000
0100
0010
0000
0000
0000
1001
0000
,
0001
0100
0010
0000
0000
0000
2000
0000
,
3200
0320
0031
0002
,
0203
0320
1030
1010
,
1000
0010
0100
0000
0001
0000
0011
0000
,
0001
0010
0100
0000
1000
0001
1000
0000
,
0010
0000
0100
0000
0000
0100
0001
0000
,
0010
0000
0100
0000
1000
0000
0001
0100
,
0010
1000
0001
0000
1000
0000
0100
0010
,
0001
1000
0001
0000
2010
0000
3001
0000
,
0012
1003
2100
3001
,
0102
0000
1003
0000
1001
0000
1000
0100
,
0010
0000
0001
0000
1001
0000
0001
0100
,
0010
0000
1000
0000
1001
0000
1000
0010
,
0100
0000
0001
0000
1001
0000
0001
0010
,
0100
0000
1000
0000
1001
0000
1000
0100
,
0001
0000
0000
0000
1001
0000
0001
0100
,
1000
0000
2001
0100
,
3010
1000
1002
0100
,
0013
0000
0001
0000
0100
0000
0010
0100
,
1000
0000
0100
0000
0001
0000
0010
0100
,
0001
0000
0100
1000
0001
0000
1000
0000
,
1001
0000
0000
0001
1000
0000
0001
0000
,
1001
0000
0000
1000
0100
0000
0100
1000
,
0001
0010
0000
1000
0001
0000
0100
0010
,
1000
0001
0000
0101
0000
1100
1000
0001
,
0000
1001
0000
0001
0100
0010
1000
0001
;

//---------------dance-single - ----------------
#NOTES:
     dance-single:
     :
     Easy:
     3:
     0.292,0.308,0.286,0.043,0.000:
1000
0000
1000
0000
0002
0000
0000
0013
,
0000
0001
1000
0000
,
1000
1000
0002
0103
,
0001
0010
0001
0100
,
0001
0010
0001
1000
,
0100
0010
0000
0001
,
0100
0010
0000
1000
,
0001
0010
0100
1000
,
0001
0010
0100
1000
,
0100
1100
0000
0001
,
0100
0101
0000
0100
,
0010
1001
0000
0100
,
0010
1001
0000
1000
,
0001
0101
0101
0001
,
1000
1100
1100
1000
,
0001
0110
0000
0001
,
1000
0110
0100
0000
,
0000
0000
0000
0001
0000
1000
0000
1000
,
0000
0000
0100
1000
,
0010
1000
0100
1000
,
0010
1000
0001
0100
,
0010
0000
1000
0100
,
0010
0000
0001
0100
,
0010
0100
0001
0100
,
0010
0100
0101
0001
,
1000
0000
1100
1000
,
0001
0000
0001
1000
,
1010
0000
1000
0001
,
0011
0000
0001
1000
,
1010
1010
1000
0001
,
0011
0011
0110
1000
,
0001
0000
0110
0001
,
1000
0000
0000
0000
0100
0000
0000
1000
,
0000
0010
0000
0000
0010
0000
0000
0100
,
0000
0001
0000
0002
0000
0000
0000
0003
,
0000
1000
0000
0000
0001
0000
1000
0001
;

//---------------dance-single - ----------------
#NOTES:
     dance-single:
     :
     Beginner:
     1:
     0.131,0.160,0.000,0.000,0.000:
0000
0000
0000
0000
,
0000
0000
0000
0000
,
0000
0000
0000
1000
,
0000
0010
0000
0001
,
0000
0010
0000
1000
,
0000
0001
0000
1000
,
0000
0001
0000
1000
,
0000
0100
0000
0001
,
0000
0100
0000
1000
,
0000
1000
0000
0001
,
0000
0001
0000
0010
,
0010
0010
0000
0010
,
0010
0010
0000
0001
,
0000
0100
0000
0010
,
0000
0100
0000
1000
,
0000
0100
0000
0010
,
0000
0100
0000
0000
,
0000
0000
0000
0000
,
0000
0000
0001
0000
,
0010
0000
1000
0000
,
0010
0000
0001
0001
,
0001
0000
1000
1000
,
1000
0000
0001
0000
,
0100
0000
1000
0000
,
0100
0000
0001
0001
,
0001
0000
1000
1000
,
1000
0000
0100
0000
,
0010
0000
0100
0000
,
0010
0000
0001
0000
,
1000
0000
0001
0000
,
1000
0000
0100
0100
,
0100
0000
0100
0100
,
0100
0000
0000
0000
;

//---------------dance-double - ----------------
#NOTES:
     dance-double:
     :
     Easy:
     4:
     0.286,0.257,0.129,0.014,0.000:
00010000
00000000
00001000
00000000
00020000
00000000
00000000
00030010
,
00000000
00000010
00010000
01000000
,
10000000
00000000
10010000
10000000
,
01000000
00010000
01000000
10000000
,
01000000
00010000
01000000
00100000
,
00001000
00000010
00000000
00000010
,
00010000
00100000
00000000
10000000
,
01000000
00010000
00001000
00000001
,
00000100
00001000
00010000
01000000
,
10000000
01000000
00000000
00000100
,
00000001
00000100
00000000
01000000
,
00010000
00100000
00011000
00000100
,
00001000
00000010
00011000
01000000
,
00100000
10000000
01000000
00000100
,
00000010
00001000
00000001
00000100
,
00010000
01000000
00000000
01000000
,
00001000
00000000
00000100
00000000
00000010
00000000
00000000
00001000
,
00000000
00000001
00000000
00000100
00000000
00001000
00000000
00010000
,
00000000
01000000
00000000
00000000
10000000
00000000
00100000
00000000
,
00010000
00100000
10000000
00100000
,
00010000
00100000
10000000
00010000
,
00001000
00000000
00000001
00001000
,
00010000
00000000
01000000
00100000
,
00000100
00000010
00000010
00000100
,
01000000
00100000
10000000
00010000
,
00011000
00000000
00000001
00001000
,
00011000
00000000
01000000
00010000
,
00100000
00011000
00000100
00001000
,
00000010
00011000
01000000
00100000
,
10000000
10000000
00000100
00000010
,
00000001
00000001
00000100
00001000
,
00011000
00000000
01000000
00010000
,
00011000
00000000
00000000
00000000
00010000
00000000
00000000
00000100
,
00000000
00000010
00000000
00000000
00001000
00000000
00000000
01000000
,
00000000
00100000
00000000
00100000
00000000
10000000
00000000
01000000
,
00000000
00010000
00000000
00001000
00010000
00000000
00001000
00010000
;

//---------------dance-double - ----------------
#NOTES:
     dance-double:
     :
     Medium:
     5:
     0.411,0.436,0.343,0.229,0.000:
00010000
00000000
00001000
00000000
00010000
00001000
00000000
00000010
,
00000000
00000001
00001000
01000000
,
10000000
00010000
10010000
20100000
,
30010000
01020000
00030100
00000012
,
00001003
00002100
01003000
10010000
,
10000000
01000000
00200000
00000000
00300000
00000000
00001001
00000000
,
00000100
00001000
00000020
00000000
00000030
00000000
00000100
00000000
,
00001000
00010000
01000000
00000000
01000000
00000000
01000000
00000000
,
00010000
00001000
00000100
00000000
00000100
00000000
00000001
00000000
,
00000001
00000100
00002000
00000000
00003000
00000000
10000000
00000000
,
10000000
01000000
00020000
00000000
00030000
00000000
00021000
00000000
,
00000100
00000010
00030000
00012000
,
01000000
00100000
00003000
01000000
,
00001000
00010000
00000100
00000000
00000100
00000000
00000100
00000000
,
00010000
00001000
01000000
00000000
01000000
00000000
01000000
00000000
,
00010000
00000000
10010000
00000000
00000000
10000000
00001000
00000000
,
00000001
00001001
00000000
00000000
,
00000001
00000000
00000000
00000100
00000000
00011000
00000000
00000000
,
00010000
00000000
00000000
00001000
01020000
00000000
10030000
00000000
,
20100000
30001000
00021000
00030100
,
00000012
00000000
00010003
00000000
00010000
00001000
00000100
00001000
,
00010000
00000000
00011000
00000000
00001000
00010000
01000000
00010000
,
00001000
00000000
00011000
00000000
00010000
00000000
00001000
01000000
,
00100000
00000000
00100000
00000000
00010000
00000000
00001000
00000100
,
00000010
00000000
00001000
00000000
00000001
00000000
00000001
00000100
,
00001000
00000000
00000000
00000000
10000000
00000000
10000000
01000000
,
00010000
00000000
00002100
00000001
,
00003010
00011000
01020000
10000000
,
00130000
00000000
00011000
00000000
00000100
00000000
00001000
00000010
,
00000100
00000000
00001000
00000000
00010000
00000000
00100000
01000000
,
00010000
00000000
10000000
01000000
00100000
00000000
01000000
00000000
,
10000000
00000000
00000000
00010000
00001000
00000000
00000100
00000000
,
00000001
00000000
00000000
00000000
00000100
00000000
00010000
00001000
,
00100000
00010000
10000000
00000000
00010000
00000000
10000000
00100000
,
01000000
00001000
00010000
00000100
00000010
00000001
00001000
00001001
,
00000000
00000001
00000100
00001000
00010000
01000000
10000000
10010000
;

//---------------dance-double - ----------------
#NOTES:
     dance-double:
     :
     Hard:
     8:
     0.578,0.616,0.458,0.100,0.336: // measure 1
00010000
00000000
00010000
00000000
00001000
00010000
00000000
00000010
,  // measure 2
00000000
00001000
00000100
00000001
00000100
00000000
00010000
00000000
,  // measure 3
00001000
00010000
00001000
00000000
00000000
00000000
00000000
00010000
00001000
00000000
00000000
00000000
00001000
00000100
00000000
00000000
,  // measure 4
00000100
00000001
00000000
00000000
00000001
00000010
00000000
00000000
00000010
00001000
00000000
00000000
00001000
00010000
00000000
00000000
,  // measure 5
00010000
01000000
00000000
00000000
01000000
10000000
00000000
00000000
10000000
00100000
00000000
00000000
00100000
00000000
00010000
00000000
,  // measure 6
00001000
00000100
00001000
00000000
00011000
00000000
01000000
00010000
,  // measure 7
00001000
00000010
00001000
00000000
00011000
00000000
00010000
00000010
,  // measure 8
00010000
00000200
00000000
00000301
00000000
00000000
00001000
00100000
,  // measure 9
00001000
00010000
02000000
00000000
13000000
00000000
11000000
00000000
,  // measure 10
01000000
00010000
00002000
00000000
00003100
00000000
00001100
00000000
,  // measure 11
00000100
00000000
00001000
00000000
00020000
00000000
00000000
00000000
01030000
00000000
00000000
00000000
10000000
01000000
00000000
00000000
,  // measure 12
01000000
00100000
00000000
00000000
00100000
00001000
00000000
00000000
00011000
00000000
00000000
00000000
00001000
00000100
00000000
00000000
,  // measure 13
00000100
00000010
00000000
00000000
00000010
00000001
00000000
00000000
00000011
00000000
00000000
00000000
00000001
00000000
00000010
00000000
,  // measure 14
00001000
00000100
00001000
00000000
00011000
00000000
10000000
00100000
,  // measure 15
00010000
01000000
00010000
00000000
00011000
00010000
00010010
00000000
,  // measure 16
00000110
00000000
00001001
00000000
00000000
00001000
00011000
00000000
,  // measure 17
01100000
00000000
00000000
00000000
10010000
00000000
10000000
00000000
01000000
00100000
01000000
00000000
10000000
00000000
01000000
00000000
,  // measure 18
00010000
00001000
00010000
00000000
00001000
00000000
00000100
00000000
00000001
00001000
00000001
00000000
00000010
00000000
00000100
00000000
,  // measure 19
00010000
00001000
00010000
00000000
02000000
00000000
00000000
03000000
10000000
00100000
00000000
00000000
00100000
00010000
00000000
00000000
,  // measure 20
00010000
00001000
00000000
00000000
00001000
00000100
00000000
00000000
00000100
00000001
00000000
00000000
00000001
00000010
00000000
00000000
,  // measure 21
00000010
00001000
00000000
00000000
00001000
00010000
00000000
00000000
00010000
00000000
00001000
00000000
00100000
00000000
00010000
00000000
,  // measure 22
10000000
00000000
00011000
00000000
00001000
00010000
00000010
00001000
,  // measure 23
00000001
00000000
00011000
00000000
00001000
00010000
01000000
10000000
,  // measure 24
00020000
00000000
00031000
00000000
00010000
00001000
00000100
00000001
,  // measure 25
00002000
00000000
00000000
00000000
00013000
00000000
00000000
00000000
00001000
00010000
00000000
00000000
01000000
00000000
01000000
00000000
,  // measure 26
00010000
00001000
00000000
00000000
00011000
00000000
00000000
00000000
00010000
00001000
00000000
00000000
00000100
00000000
00000100
00000000
,  // measure 27
00001000
00010000
00000000
00000000
00000000
00000000
00000000
00000000
00011000
00000000
00000000
00000000
01100000
00000000
00000000
00000000
,  // measure 28
10010000
00000000
00011000
00000110
,  // measure 29
00001001
00000000
00000000
00000000
00000000
00000000
00000000
00000000
00000001
00000100
00000010
00000000
00010000
00000000
00001000
00000000
,  // measure 30
01000000
00100000
10000000
00000000
10010000
00000000
00000000
00000000
10000000
01000000
00100000
00000000
00001000
00000000
00010000
00000000
,  // measure 31
00000100
00000010
00000001
00000000
00001001
00000000
00000001
00000000
00000011
00000000
00000000
00000000
00001100
00000000
00000000
00000000
,  // measure 32
00011000
00000000
00000000
10000000
10100000
00000000
01010000
00000000
,  // measure 33
00011000
00000000
00000000
00000000
00010000
00000000
00000100
00000000
00000010
00000001
00000100
00000010
00001000
00000000
00000100
00000000
,  // measure 34
00010000
00000000
00001000
00000000
00100000
00000000
00010000
00000000
01000000
00100000
10000000
01000000
00010000
00000000
00001000
00000000
,  // measure 35
00010000
00000000
00000010
00000000
00000100
00000001
00001000
00000000
00000100
00001000
00000001
00000100
00000010
00000000
00010000
00001000
,  // measure 36
00100000
00010000
01000000
00000000
00100000
00000000
10000000
00000000
01000000
00010000
00001000
00000100
00001000
00000000
00011000
00000000
;
