#VERSION:0.83;
#TITLE:illuminate;
#SUBTITLE:;
#ARTIST:Sota Fujimori;
#TITLETRANSLIT:;
#SUBTITLETRANSLIT:;
#ARTISTTRANSLIT:;
#GENRE:;
#ORIGIN:;
#CREDIT:;
#BANNER:[Voiceless Week] - illuminate.png;
#BACKGROUND:[Voiceless Week] - illuminate-bg.png;
#PREVIEWVID:;
#JACKET:[Voiceless Week] - illuminate-jacket.png;
#CDIMAGE:;
#DISCIMAGE:;
#LYRICSPATH:;
#CDTITLE:;
#MUSIC:[Voiceless Week] - illuminate.ogg;
#OFFSET:-0.010000;
#SAMPLESTART:26.311001;
#SAMPLELENGTH:13.156000;
#SELECTABLE:YES;
#DISPLAYBPM:73.000000:146.000000;
#BPMS:0.000=146.000,
56.000=73.000,
59.500=146.000,
150.000=292.000,
152.000=146.000,
156.000=73.000,
172.000=146.000,
222.000=292.000,
223.500=146.000;
#STOPS:59.500=0.206,
150.000=0.068,
150.333=0.068,
150.667=0.068,
151.000=0.068,
151.333=0.068,
151.667=0.068,
222.000=0.154,
222.750=0.154;
#DELAYS:;
#WARPS:;
#TIMESIGNATURES:0.000=4=4;
#TICKCOUNTS:0.000=4;
#COMBOS:0.000=1;
#SPEEDS:0.000=1.000=0.000=0,
28.000=1.500=3.000=0,
31.000=1.000=1.000=0,
56.000=2.000=2.000=0,
59.500=1.000=0.000=0,
142.000=1.330=1.000=0,
143.000=1.000=1.000=0,
235.000=1.500=0.250=0,
235.250=1.000=0.750=0;
#SCROLLS:0.000=1.000,
126.500=2.000,
127.000=1.000,
127.500=2.000,
128.000=1.000,
134.500=2.000,
135.000=1.000,
135.500=2.000,
136.000=1.000,
156.000=2.000,
156.500=1.925,
157.000=1.850,
157.500=1.775,
158.000=1.600,
158.500=1.525,
159.000=1.450,
159.500=1.325,
160.000=1.200,
160.500=1.150,
161.000=1.100,
161.500=1.050,
162.000=1.000,
171.500=2.000,
172.000=1.000,
252.000=2.000,
253.000=1.000;
#FAKES:;
#LABELS:0.000=Song Start;
#LASTSECONDHINT:118.500000;
#BGCHANGES:;
#KEYSOUNDS:;
#ATTACKS:
;

//---------------dance-single - ----------------
#NOTEDATA:;
#CHARTNAME:;
#STEPSTYPE:dance-single;
#DESCRIPTION:;
#CHARTSTYLE:;
#DIFFICULTY:Hard;
#METER:11;
#RADARVALUES:0.745876,0.858493,0.124116,0.041372,0.777792,631.000000,616.000000,15.000000,5.000000,18.000000,0.000000,0.000000,0.000000,0.000000,0.745876,0.858493,0.124116,0.041372,0.777792,631.000000,616.000000,15.000000,5.000000,18.000000,0.000000,0.000000,0.000000,0.000000;
#CREDIT:;
#DISPLAYBPM:73.000000:146.000000;
#NOTES:
0000
0000
0000
0000
,
0000
0000
0000
0000
,
0000
0000
0000
0000
,
0000
0000
0000
0000
,
0010
0000
0100
0000
1000
0000
0001
0000
0000
0001
0010
0100
1000
0000
0001
0000
,
0100
0000
0010
1000
0000
0000
0001
0000
0000
0001
1000
0010
0100
0000
0010
0000
,
0010
0000
0100
0000
0001
0000
0010
0000
0000
0001
0010
0100
1000
0000
0010
0000
,
100M
0000
0100
0010
0000
0001
0010
0100
1000
0001
1000
0000
M110
0000
0000
0000
,
0001
0000
0100
0000
0010
0000
0100
0000
0001
0010
0000
0010
0001
0000
1000
0000
,
0100
0000
0010
1000
0000
0010
0001
0000
1000
0001
1000
0001
1000
0000
0010
0000
,
1000
0000
0100
0000
0010
0000
0100
0000
1000
0010
0000
0010
1000
0000
0001
0000
,
0101
0000
0000
1100
0000
0000
0110
0000
0000
0000
0001
0100
0010
0000
1000
0000
,
0001
0000
0100
0000
1000
0000
0100
0000
0001
0010
0000
0010
0001
0000
0100
0000
,
0001
0000
0010
0100
0000
1000
0001
0000
0100
0010
0100
0010
0100
0000
0001
0000
,
20M0
0000
0000
0000
0000
0000
0000
0000
3100
0010
0001
1000
0001
0100
001M
0000
,
1000
0000
0100
0000
0001
0000
0100
0000
1000
0001
1000
0001
1000
0000
0010
0000
,
0100
0000
0001
1000
0000
0100
1000
0000
0010
0100
0010
0100
0002
0000
0013
0000
,
0001
0000
0100
0000
1000
0000
0100
0000
0001
1000
0001
1000
0001
0000
0010
0000
,
0100
0000
0010
0001
0000
1000
0001
0000
0100
0000
0010
1000
0001
0010
0100
1000
,
0001
0000
0010
0000
1000
0000
0010
0000
0001
1000
0001
1000
0001
0000
1000
0000
,
0100
0000
0010
0001
0000
0100
1000
0000
0100
0000
0010
0100
0010
0100
0010
0000
,
1000
0000
0010
0000
0001
0000
0010
0000
1000
0001
1000
0001
0010
0000
0100
0000
,
1000
0000
0100
0001
0000
0100
2000
0000
0000
0000
0000
0000
3001
0000
0000
0000
,
1000
0000
0100
0010
0001
0000
0100
0010
0000
0100
0010
1000
0100
0000
1000
0000
,
0001
0000
0001
0100
1000
0000
1000
0100
0001
0000
0010
0000
0100
0010
0100
0000
,
0100
0000
0010
0001
0100
0000
0010
1000
0000
1000
0010
0100
0001
0000
1000
0000
,
0100
0010
0001
0100
0000
0010
1000
0100
1000
0000
0001
0000
0010
0100
0010
0000
,
0001
0000
0100
0001
1000
0000
0100
1000
0000
0010
0100
0001
1000
0000
0100
0000
,
1000
0010
1000
0000
0001
0010
0001
0000
1000
0100
1000
0000
0001
0100
0001
0000
,
0010
0000
0001
1000
0100
0000
1000
0010
0000
1000
0001
0010
0100
0000
1000
0000
,
0001
0010
0001
0010
0000
0100
0000
1000
0100
0010
0100
0010
0100
0000
1000
0000
,
0001
0000
0010
0000
1000
0000
0010
0000
0001
0100
M010
0000
1000
0100
001M
0000
,
0001
0100
1000
0100
0001
0010
1000
0010
,
0010
0000
0100
0000
1000
0000
0001
0000
1000
0010
010M
0000
0001
0010
M100
0000
,
1000
0000
1000
0000
0001
0000
0001
0000
0100
0000
0001
1000
0010
0000
0010
0000
,
1000
0000
0001
0000
0010
0000
0100
0000
100M
0010
1000
0010
M100
0000
0001
0000
,
0010
0100
0000
1000
0000
0100
0000
1000
0001
0100
0010
1000
0001
0000
0100
0000
,
0010
0000
0000
1000
0000
0000
0001
0000
0000
0010
0000
0000
010M
0000
1000
0000
0100
0000
0010
0000
0001
0000
0010
0000
,
M001
0000
0001
0000
1000
0100
1000
0100
0010
0001
0000
0000
1000
0000
1000
0001
,
1000
0000
0010
0000
0100
0000
0001
0000
1000
0000
0000
1000
0000
0000
0001
0000
1000
0000
0100
0000
1000
0000
0010
0100
0000
0000
0001
0000
1000
0000
0001
0000
,
1000
0000
0100
0000
0010
0000
0001
0000
0100
0000
0000
0100
0000
0000
0010
0000
0100
0000
0001
0000
0010
0000
0100
1000
0000
0000
0001
0000
0100
0000
0010
0000
,
1000
0000
1000
0000
0100
0000
0100
0000
0010
0000
0000
0001
0000
0000
0010
0000
0001
0000
0100
0000
1000
0000
0100
0001
0000
0000
1000
0000
0100
0000
0010
0000
,
0001
0000
0001
0000
0010
0000
0010
0000
0100
0000
0000
1000
0000
0000
0100
0000
1000
0000
0010
0000
0001
0000
0010
1000
0000
0000
0002
0000
M013
0000
0000
0000
,
0100
0000
1000
0000
0010
0000
0100
0000
0001
0000
0000
0001
0100
0000
0010
0000
,
1000
0100
0010
0001
0001
0010
0100
1000
,
0001
0000
0100
0000
1000
0000
0100
0000
0010
0000
0000
0010
1000
0000
0001
0000
,
0010
0000
0100
0000
1000
0000
0001
1000
0000
0001
1000
0100
0010
0000
0001
0000
,
1000
0100
1000
0000
0001
0010
0001
0000
1000
0000
0000
1000
0100
0000
0010
0000
,
0001
0100
1000
0100
0001
0010
1000
0010
,
0001
0100
0001
0000
0010
0000
0001
0000
0100
0000
0000
0100
0001
0000
1001
0000
,
0000
0000
0010
0000
1000
0000
0100
0010
0000
0001
1000
0001
1000
0000
0000
0000
,
0100
0000
1000
0000
0001
0000
0010
0000
0001
0000
0000
0100
0010
0000
0100
0000
,
0001
0100
0010
1000
1000
0010
0100
0001
,
1000
0000
0010
0000
0001
0000
0010
0000
0100
0000
0000
0100
0001
0000
0010
0000
,
0100
0000
1000
0000
0010
0000
1000
0001
0000
1000
0001
0010
0100
0000
0010
0000
,
0001
0100
0001
0000
1000
0010
1000
0000
1M01
0000
0000
011M
0000
0000
10M1
0000
,
0000
0000
1000
0000
0100
0000
0010
0001
0000
1000
0001
1000
0001
0000
0010
0000
,
1000
0000
0010
0000
0001
0000
0100
0000
0001
0000
0000
0001
1000
0000
0110
0000
,
0000
0000
0001
0000
1000
0000
1000
0100
0000
0100
0010
0001
1M00
0000
0000
0000
,
1001
0000
1000
0000
0100
0000
0010
0000
0001
0000
0010
0001
0000
0000
0001
0000
,
1000
0000
0010
1000
0000
0000
1000
0000
0100
0000
1000
0000
0001
0000
0020
0000
,
0031
0000
0000
0001
0100
0000
0010
0000
1000
0010
1000
0010
0100
0000
0001
0000
,
1000
0000
0001
0010
0000
0000
0100
0000
1000
0000
1000
0000
0001
0000
0001
0000
,
M110
0000
0000
0000
1001
0000
0001
0000
1000
0000
0100
0010
0000
0000
0010
0000
,
0001
0000
0100
0010
0000
0000
0010
0000
1000
0000
0001
1000
0010
0100
0001
0010
,
0100
0000
0000
1000
0010
0000
1000
0000
0001
0000
0010
0001
0000
0000
0001
0000
,
0011
0000
0000
1001
0000
0000
1100
0000
0000
0100
0010
0000
0001
1000
0001
1000
;

//---------------dance-single - ----------------
#NOTEDATA:;
#CHARTNAME:;
#STEPSTYPE:dance-single;
#DESCRIPTION:;
#CHARTSTYLE:;
#DIFFICULTY:Beginner;
#METER:3;
#RADARVALUES:0.174944,0.303773,0.066195,0.041372,0.004137,148.000000,140.000000,8.000000,5.000000,18.000000,0.000000,0.000000,0.000000,0.000000,0.174944,0.303773,0.066195,0.041372,0.004137,148.000000,140.000000,8.000000,5.000000,18.000000,0.000000,0.000000,0.000000,0.000000;
#CREDIT:;
#DISPLAYBPM:73.000000:146.000000;
#NOTES:
0000
0000
0000
0000
,
0000
0000
0000
0000
,
0000
0000
0000
0000
,
0000
0000
0000
0000
,
1000
0000
0100
0000
,
0010
0000
0001
0000
,
0001
0000
0100
0000
,
M020
0000
0000
003M
,
1000
0000
0100
0000
,
1000
0000
0001
0000
,
0001
0000
0010
0000
,
0001
0000
1000
0000
,
0010
0000
0100
0000
,
0001
0000
1000
0000
,
020M
0000
0000
0000
0310
0000
0000
1M01
,
0000
0000
0100
0000
,
0010
0000
1000
0000
,
1000
0000
0100
0000
,
0010
0000
0001
0000
,
1000
0000
0001
0000
,
0010
0000
0100
0000
,
1000
0000
0100
0000
,
0110
0000
0000
0001
,
1000
0000
0010
0000
,
0010
0000
1000
0000
,
0001
0000
0010
0000
,
0010
0000
0001
0000
,
1000
0000
0100
0000
,
0100
0000
1000
0000
,
0001
0000
0100
0000
,
0100
0000
0001
0000
,
1000
0000
0000
0000
0001
0M00
0000
0M00
,
0001
0000
0010
0000
,
0100
0000
0000
0000
1000
00M0
0000
00M0
,
1000
0000
0010
0000
,
1000
0000
M110
0000
,
0001
0000
1000
0000
,
0100
0000
011M
0000
,
M010
0000
0001
0000
,
2001
0001
0001
3001
,
1002
1000
1000
1003
,
1000
0010
0100
0001
,
0010
0000
0100
0000
1000
0000
0001
00M0
,
1000
1000
1000
0000
,
0100
0000
0010
0000
,
0001
0001
0001
0000
,
0010
0000
0100
0000
,
0010
0010
0010
0000
,
0001
0000
1000
0000
,
0100
0100
0100
0000
,
1000
0000
0001
0000
,
1000
1000
1000
0000
,
0100
0000
0010
0000
,
0001
0001
0001
0000
,
0010
0000
0100
0000
,
1000
0000
0000
0000
0000
0000
0000
0000
M110
0000
0000
000M
0000
0000
M000
0000
,
0000
0000
0001
0000
,
0010
0010
0010
0000
,
0100
0000
1001
00M0
,
1000
0000
0100
0000
,
1000
0000
0001
0000
,
0001
0000
0100
0000
,
0001
0000
1000
0000
,
0M20
003M
0100
0000
,
0010
0000
0010
0000
,
1000
0000
0001
0000
,
0010
0000
0100
0100
;

//---------------dance-single - ----------------
#NOTEDATA:;
#CHARTNAME:;
#STEPSTYPE:dance-single;
#DESCRIPTION:;
#CHARTSTYLE:;
#DIFFICULTY:Easy;
#METER:5;
#RADARVALUES:0.340432,0.497083,0.273054,0.049646,0.004137,288.000000,255.000000,33.000000,6.000000,18.000000,0.000000,0.000000,0.000000,0.000000,0.340432,0.497083,0.273054,0.049646,0.004137,288.000000,255.000000,33.000000,6.000000,18.000000,0.000000,0.000000,0.000000,0.000000;
#CREDIT:;
#DISPLAYBPM:73.000000:146.000000;
#NOTES:
0000
0000
0000
0000
,
0000
0000
0000
0000
,
0000
0000
0000
0000
,
0000
0000
0000
0000
,
1000
0100
1000
1000
,
0001
0010
0001
1001
,
0001
0100
0001
0001
,
20M0
0000
3000
M110
,
0001
1000
0100
0100
,
1000
0001
0010
0010
,
0001
0100
0010
0010
,
1000
0000
0000
0110
0000
0000
0001
0000
,
0010
0001
1000
0010
,
0100
0001
1000
0100
,
200M
0000
0000
0000
3001
0100
0010
100M
,
1001
0001
0100
0100
,
0001
0010
0100
0100
,
1001
1000
0100
0100
,
1000
0010
0100
0100
,
0110
0001
1000
1000
,
0001
0010
0100
0100
,
0110
1000
0001
0001
,
0010
0000
0000
1001
0000
0000
0100
0000
,
0010
1000
0010
1000
,
0001
0010
0001
0010
,
0100
1000
0100
1000
,
0001
0100
0001
0100
,
0001
1000
0001
1000
,
0100
0010
0100
0010
,
0001
0100
1000
0100
,
0001
0010
1000
0010
,
0100
0000
0100
0000
0011
0M00
1010
0M00
,
1000
0010
0100
0001
,
0100
0000
0100
0000
1010
0M00
0011
0M00
,
0001
0100
0010
1000
,
0010
0010
12M0
0001
,
1300
0010
0100
0001
,
0010
0000
0000
0010
0000
0000
2M02
0000
0000
0000
0000
0003
,
3M10
1000
0100
0010
,
0001
0100
0001
0100
0001
0001
0001
0000
,
1000
0010
1000
0010
1000
1000
1000
0000
,
0001
0100
1010
0000
1000
0100
0011
0000
,
0001
0010
1100
0000
1000
0010
0100
M001
,
0011
1100
1000
0100
,
0010
0001
1000
0001
,
1010
0101
0001
0100
,
0010
1000
0010
0100
,
1001
0110
0010
0100
,
0001
0010
0100
1000
,
0110
0000
1001
0000
0100
0000
0000
0010
,
0000
0100
0110
1001
,
0001
0010
0100
0100
,
1000
0100
0010
0010
,
1000
0010
0001
0010
,
0100
0100
0100
1001
,
1000
0000
0000
0000
0010
0000
0000
0000
M110
0000
0000
000M
0000
0000
1M01
0000
,
0000
1000
0100
0010
,
0001
0000
0010
0000
0100
0000
0000
0010
,
0000
0001
1000
10M1
,
0100
0100
0010
0010
,
1000
0010
0100
0001
,
0010
0010
0100
0100
,
0001
0100
1000
0010
,
020M
M310
0010
0100
,
0001
0010
1000
0010
,
0001
0100
0010
1000
,
0001
0000
0000
0110
0000
0000
1001
0000
;

//---------------dance-single - ----------------
#NOTEDATA:;
#CHARTNAME:;
#STEPSTYPE:dance-single;
#DESCRIPTION:;
#CHARTSTYLE:;
#DIFFICULTY:Medium;
#METER:8;
#RADARVALUES:0.568568,0.802356,0.372347,0.049646,0.124116,481.000000,436.000000,45.000000,6.000000,18.000000,0.000000,0.000000,0.000000,0.000000,0.568568,0.802356,0.372347,0.049646,0.124116,481.000000,436.000000,45.000000,6.000000,18.000000,0.000000,0.000000,0.000000,0.000000;
#CREDIT:;
#DISPLAYBPM:73.000000:146.000000;
#NOTES:
// measure 0
0000
0000
0000
0000
,  // measure 1
0000
0000
0000
0000
,  // measure 2
0000
0000
0000
0000
,  // measure 3
0000
0000
0000
0000
,  // measure 4
1000
0100
0000
1100
0000
1000
0010
0100
,  // measure 5
0001
1000
0001
1000
0000
1000
0110
0000
,  // measure 6
0001
0100
0000
0101
0000
0001
0010
0100
,  // measure 7
200M
0000
0000
30M1
,  // measure 8
0100
0001
0100
0001
1000
0100
0010
0001
,  // measure 9
1000
0010
0001
0010
1000
1000
1001
0000
,  // measure 10
0100
1000
0100
1000
0001
0100
0010
1000
,  // measure 11
0001
0000
0000
0100
0000
0000
0110
0000
0000
0000
0010
0000
1000
0000
0000
0000
,  // measure 12
0001
0010
0001
0010
0100
1000
0001
0100
,  // measure 13
0010
1000
0001
0010
0001
0001
2001
0000
,  // measure 14
32M0
0000
0000
0000
0000
0000
0000
0000
1300
0001
0100
0010
1000
0001
M010
0000
,  // measure 15
0100
1000
0010
0100
0001
0100
0010
0100
,  // measure 16
0001
1000
0001
1000
0100
0010
0110
0000
,  // measure 17
0010
0100
1000
0010
0100
0010
1000
0010
,  // measure 18
0100
0001
1000
0001
0010
0100
1001
0000
,  // measure 19
0100
1000
0001
0100
0010
1000
0001
0010
,  // measure 20
0100
0010
0100
0010
0001
0100
0110
0000
,  // measure 21
1000
0010
0100
1000
0001
0010
0100
0001
,  // measure 22
0010
0000
0000
0100
0000
0000
1001
0000
0000
0000
0100
0000
0010
0000
0000
0000
,  // measure 23
1000
0100
0010
0001
0010
0100
1000
0000
,  // measure 24
0001
0100
1000
0100
0001
0100
1010
0000
,  // measure 25
0001
0010
0100
1000
0100
0010
0001
0000
,  // measure 26
1010
0011
1100
0101
,  // measure 27
0001
0100
0010
1000
0010
0100
0001
0000
,  // measure 28
1000
0010
0001
0010
1000
0010
0101
0000
,  // measure 29
1000
0010
0100
0001
0010
0100
1000
0001
,  // measure 30
0101
1010
1100
0011
,  // measure 31
0001
0100
0010
1000
1001
0M00
0110
M000
,  // measure 32
1001
0001
0100
0001
1000
0100
1000
0000
,  // measure 33
1000
0010
0100
0001
0120
M030
1002
0M03
,  // measure 34
0110
0010
0001
0001
0100
0100
1000
0000
,  // measure 35
1000
0100
0001
0100
102M
0000
0001
0000
,  // measure 36
1030
0000
0100
0000
0010
0001
0010
0000
,  // measure 37
0001
0000
0000
0100
0000
0000
0010
0000
0000
1000
0000
0000
00M1
0000
1000
0000
0001
0000
1000
0000
0001
0000
1000
0000
,  // measure 38
0M01
0010
0100
0100
1000
1000
0001
0000
,  // measure 39
1000
0010
0100
0001
1000
0000
1000
0000
0100
0010
0001
1000
0000
1000
0001
0000
,  // measure 40
0001
0010
0100
1000
0001
0000
0001
0000
0100
0010
1000
0001
0010
0000
0110
0000
,  // measure 41
0100
0000
1000
0100
0010
0001
0010
0100
0000
1000
0001
0100
0010
0000
1001
0000
,  // measure 42
0110
0000
0001
0100
0010
1000
0010
0100
0000
0001
1000
0100
0010
0000
M110
0000
,  // measure 43
0001
0100
0010
1000
0001
0000
0001
0000
,  // measure 44
1000
0100
0001
0100
1000
0010
0001
0000
,  // measure 45
0010
0010
1000
1000
0001
0000
0100
0010
,  // measure 46
0000
0001
0010
0100
0001
0000
1001
0000
,  // measure 47
1000
0010
0100
0001
1000
0000
1000
0000
,  // measure 48
0001
0010
1000
0010
0001
0100
1000
0000
,  // measure 49
0100
0100
0001
0001
1000
0000
0010
0100
,  // measure 50
0000
1000
0100
0010
1000
0000
1001
0000
,  // measure 51
1000
0010
0001
0010
1000
0001
0010
1000
,  // measure 52
0010
0001
1000
0001
1000
0001
0110
0000
,  // measure 53
0001
0100
1000
0100
0001
1000
0100
0001
,  // measure 54
0100
1000
0010
0100
0010
0100
1001
0000
,  // measure 55
1000
0000
0001
0000
0100
0000
0010
0000
101M
0000
0000
M110
0000
0000
01M1
0000
,  // measure 56
0000
0001
0010
0100
1000
0001
0010
0000
,  // measure 57
0001
0001
1000
1000
0010
0010
0100
0100
,  // measure 58
0000
0001
0010
0100
1000
0000
10M1
0000
,  // measure 59
1000
0000
1000
0100
1000
0010
0100
0000
,  // measure 60
0001
0100
0001
0010
0100
0000
0110
0000
,  // measure 61
0001
0000
0001
0010
0001
0100
0010
0000
,  // measure 62
1000
0010
1000
0100
0010
0000
0001
0100
,  // measure 63
M010
0000
1M01
0000
1000
0010
0100
0000
,  // measure 64
0001
1000
0001
0100
0010
0000
0110
0000
,  // measure 65
0010
0000
0010
1000
0001
0010
0100
0000
,  // measure 66
1100
0000
0000
0110
0000
0000
0011
0000
0000
0000
0001
0000
1000
0000
0010
0000
;
