#TITLE:envidia;
#SUBTITLE:;
#ARTIST:猫叉劇団;
#TITLETRANSLIT:;
#SUBTITLETRANSLIT:;
#ARTISTTRANSLIT:;
#CREDIT:;
#BANNER:;
#BACKGROUND:;
#LYRICSPATH:;
#CDTITLE:;
#MUSIC:envidia.mp3;
#OFFSET:-7.850;
#SAMPLESTART:15.020;
#SAMPLELENGTH:14.320;
#SELECTABLE:YES;
#BPMS:0.000=134.000;
#STOPS:;
#BGCHANGES:;

//---------------dance-single - ----------------
#NOTES:
     dance-single:
     :
     Hard:
     9:
     0.648,0.618,0.183,0.225,0.675: // measure 1
0001
0000
0000
0000
0100
0000
0000
0000
0001
0000
0000
0001
1000
0000
0100
0000
,  // measure 2
1000
0000
0000
0000
0100
0000
0000
0000
1000
0000
0000
1000
0001
0000
0100
0000
,  // measure 3
0001
0000
0000
0000
0101
0000
0000
0000
0100
0000
0000
0010
1000
0000
0100
0000
,  // measure 4
1000
0000
0001
1000
0000
0100
0000
0220
0000
0000
0000
0000
0330
0000
0000
0000
,  // measure 5
1001
0000
0000
1000
0100
0000
1000
0000
0100
0000
0000
0010
0001
0000
0000
0100
,  // measure 6
0001
0000
0000
0100
0010
0000
1000
0000
0001
0000
0000
0010
0001
0000
0000
1000
,  // measure 7
0100
0000
0010
0001
0010
0000
0001
0000
1000
0000
0010
0000
1000
0000
0100
0000
,  // measure 8
1000
0000
0100
1000
0000
0001
0000
0100
0001
0000
0000
0000
1000
0100
1000
0100
,  // measure 9
1000
0000
0001
0100
0001
0000
1000
0000
0100
0000
0000
0010
0001
0000
0000
0001
,  // measure 10
1000
0000
0001
0100
0001
0000
1000
0000
0010
0000
0000
1000
0100
0000
1000
0000
,  // measure 11
0001
0000
0100
0010
1000
0000
0100
0000
0010
0000
0001
0000
1000
0000
0100
0000
,  // measure 12
1000
0000
0001
0100
0000
0001
0000
2000
0000
0000
0000
0000
3010
0000
0000
0000
,  // measure 13
2002
0000
0000
0000
0000
0003
0000
3000
0001
0000
0000
0000
1000
0000
0000
0000
,  // measure 14
0001
0000
0100
0010
0000
0010
0000
0010
1000
0000
0000
1000
0100
0000
0010
0000
,  // measure 15
0001
1000
0001
1000
0000
0000
0000
0001
0100
0000
0010
0000
0100
0000
0001
0000
,  // measure 16
1000
0000
1000
0100
0000
0010
0000
0100
0000
0010
0000
0000
0001
0000
1000
0000
,  // measure 17
0001
0100
0001
0200
0000
0000
0000
0000
0310
0000
0100
0000
0010
0000
1000
0000
,  // measure 18
0100
0000
1000
0001
0000
1000
0000
0001
0010
0000
0001
0000
1000
0000
0100
0000
,  // measure 19
0010
0000
0000
0000
0000
0000
0001
0000
0000
1000
0000
0000
0000
0000
0000
0001
0000
0000
0000
0000
0000
0100
0000
0000
0010
0000
0000
0000
0000
0000
0000
0000
0000
0000
0000
0000
1000
0000
0000
0000
0001
0000
0000
0000
1000
0000
0000
0000
,  // measure 20
0001
0000
0000
0002
1000
0000
0000
0000
0103
0000
0010
0000
1000
0000
0001
0000
,  // measure 21
1000
0000
0100
0010
0000
0100
0000
1000
0001
0000
0000
0000
1000
0000
0010
0000
,  // measure 22
1000
0000
0001
0100
0000
0010
0000
0120
0000
0000
0000
0000
0130
0000
0010
0000
,  // measure 23
1000
0100
0010
0002
0000
0000
0003
1000
0100
0000
1000
0000
0010
0000
0100
0000
,  // measure 24
0001
0000
1000
0010
0000
0100
0000
0001
0000
0201
0000
0000
0301
0000
1000
0000
,  // measure 25
0100
0010
0001
0200
0000
0010
0000
0010
0000
0000
0310
0000
1000
0000
0100
0000
,  // measure 26
1000
0000
0001
0100
0000
0001
0000
1000
0000
0000
1002
0000
0000
0000
0103
0000
,  // measure 27
0001
0000
0000
0100
0000
0000
0010
0000
0000
1000
0000
0000
0000
0000
0000
0001
0000
0000
0000
0000
0000
1000
0000
0000
0100
0000
0000
0000
0000
0000
0010
0000
0000
0000
0000
0000
0001
0000
0000
0000
0100
0000
0000
0000
0010
0000
0000
0000
,  // measure 28
1000
0000
0000
0100
0000
0000
1000
0000
0001
0000
0000
0100
0000
0000
0001
0000
,  // measure 29
1000
0100
0010
0001
0000
0110
0000
2002
0000
0000
0000
0000
3003
0000
0000
0000
,  // measure 30
1001
0000
0000
0001
0000
0000
0100
0000
0010
0000
0000
1000
0000
0000
0100
0000
,  // measure 31
0020
0001
0000
0130
,  // measure 32
0001
0000
0000
0100
0000
0000
0010
0000
1000
0000
0000
0100
0000
0000
0010
0000
,  // measure 33
0002
0010
1000
1003
,  // measure 34
0001
0000
0000
1000
0100
0000
0000
0000
1000
0000
0000
0001
0100
0000
0000
0001
,  // measure 35
1000
0000
0000
0001
0010
0000
0000
0010
0001
0000
0000
1000
0010
0000
0000
0000
,  // measure 36
0120
1000
0100
1030
,  // measure 37
1001
0000
0000
0011
0000
0110
0000
1100
0000
0000
2002
0000
0000
0000
3003
0000
,  // measure 38
1000
0100
1000
0000
0001
0000
0100
0001
0100
0000
0001
0000
1000
0000
0100
0000
,  // measure 39
0020
0000
0031
0100
0020
0000
0130
0010
,  // measure 40
1000
0000
0001
0100
0010
0000
1000
0000
0001
0000
1000
0100
0010
0000
0001
0000
,  // measure 41
1000
0000
0001
0100
0001
0000
1000
0100
1000
0000
0000
0000
0110
0000
0000
0000
,  // measure 42
0001
0010
0100
0000
0010
0000
0001
0100
0010
0000
0100
0000
0001
1000
0100
1000
,  // measure 43
0001
1000
0100
0010
0002
0000
0103
0001
,  // measure 44
1000
0000
0100
0010
0001
0000
1000
0000
0001
0000
0100
0000
0010
0000
0100
0000
,  // measure 45
0001
0000
1000
0000
0100
1000
0000
1001
0000
0000
0000
0100
0001
0000
0100
0000
,  // measure 46
0001
0010
0001
0010
0001
0000
1000
0010
1000
0010
1000
0000
0001
1000
0001
1000
,  // measure 47
0200
0000
0310
0001
0200
0000
0310
1000
,  // measure 48
0001
0000
0100
0010
1000
0000
0100
0000
0010
0000
0100
0010
0001
0000
0100
0000
,  // measure 49
0010
1000
0010
1000
0010
0000
0100
0000
0010
0000
1000
0000
0100
0000
0010
0000
,  // measure 50
1001
0000
0000
0000
0000
0000
0000
0000
0000
0110
0000
0000
0000
0000
0000
0000
0000
0000
1000
0000
0001
0000
1000
0000
,  // measure 51
0001
0100
0010
1000
1002
0000
0013
0001
,  // measure 52
1000
0100
0010
0100
1000
0000
0001
0000
0100
0000
0010
0000
1000
0000
0100
0000
,  // measure 53
0010
0000
0001
0000
1000
0010
0100
0001
0010
0000
0001
0000
1000
0000
0001
0000
,  // measure 54
1001
0000
0000
1000
0100
0000
0000
0100
0010
0000
0000
0010
0001
0000
0000
0010
,  // measure 55
0001
0000
0000
0001
0100
0001
0000
1000
0100
0000
0000
0010
0100
0000
1000
0001
,  // measure 56
1000
0000
0000
0001
0100
0000
0000
0001
0100
0000
0010
0000
1000
0001
1000
0001
,  // measure 57
1000
0000
0100
0010
0000
0100
0010
0000
0001
0000
0100
0010
0000
0100
0010
0100
,  // measure 58
0010
1000
0000
1000
0001
0000
0000
0001
0100
0000
0000
0010
1000
0000
0200
0000
,  // measure 59
0310
0000
0000
0010
0100
0000
0000
0010
0001
1000
0000
1000
0001
0000
0100
0000
,  // measure 60
0001
0100
0001
0100
0001
0000
1000
0010
1000
0010
1000
0000
0001
0010
0001
0010
,  // measure 61
0100
0010
0100
0010
0001
0000
1000
0001
1000
0001
0100
0000
0010
0100
0010
1000
,  // measure 62
0002
0000
0000
0000
0000
0000
0100
0103
;

//---------------dance-single - ----------------
#NOTES:
     dance-single:
     :
     Medium:
     6:
     0.386,0.360,0.100,0.133,0.008: // measure 1
2000
0100
0000
0001
,  // measure 2
3020
0100
0000
1000
,  // measure 3
0230
0010
0000
0301
,  // measure 4
2002
0000
0000
0000
3003
0000
0010
0100
,  // measure 5
0010
0000
1000
0010
1000
0000
0001
0000
,  // measure 6
0100
0000
0001
0010
0100
0000
0010
0001
,  // measure 7
1000
0000
0001
0100
0001
0000
1000
0000
,  // measure 8
0100
0000
1000
0001
1000
0000
0010
0000
,  // measure 9
0100
0000
0010
1000
0001
0000
0010
0000
,  // measure 10
0100
0000
0010
0001
1000
0000
0001
0100
,  // measure 11
0010
0000
1000
0010
0100
0000
0001
0000
,  // measure 12
1000
0100
0010
0001
1000
0000
0001
0000
,  // measure 13
0220
0030
0010
0010
,  // measure 14
0310
0000
1000
0000
0001
0010
0001
1000
,  // measure 15
0100
0000
0010
0000
0100
0000
0010
0001
,  // measure 16
1000
0000
0001
0000
0100
0000
0010
1000
,  // measure 17
0001
0000
0100
0000
0001
0000
1000
0100
,  // measure 18
0010
0000
0100
0010
0001
0000
1000
0000
,  // measure 19
0001
0000
0100
0010
0100
0001
1000
0000
,  // measure 20
0100
1000
0100
0000
1000
0000
0001
0000
,  // measure 21
0010
0000
1000
0001
0200
0000
0300
0000
,  // measure 22
1001
0000
1000
0000
0010
0100
0001
1000
,  // measure 23
0001
0000
1000
0000
0100
0000
1000
0001
,  // measure 24
0100
0000
0010
0000
1000
0001
0010
0100
,  // measure 25
0010
0000
0001
0000
1000
0000
0100
1000
,  // measure 26
0100
0000
1000
0000
0001
0000
0100
0010
,  // measure 27
0100
0000
0001
0010
0100
0000
0010
0001
,  // measure 28
1000
0000
0000
1000
0000
0000
1000
0000
0001
0000
0000
0001
0000
0000
0001
0000
,  // measure 29
0200
0000
0000
0300
,  // measure 30
1010
1000
0001
0010
,  // measure 31
0200
0000
0001
0000
,  // measure 32
0310
0001
0100
0010
,  // measure 33
2000
0000
0010
0010
,  // measure 34
3010
1000
0100
0010
,  // measure 35
0001
0100
0001
1000
,  // measure 36
1002
0100
1000
0103
,  // measure 37
0100
0010
0220
0330
,  // measure 38
0010
1000
0010
0000
0100
0001
0100
0000
,  // measure 39
0001
0000
1000
0001
1000
0000
0001
0000
,  // measure 40
1000
0100
0010
0000
0001
0100
0010
0000
,  // measure 41
1000
0001
1000
0001
1000
0000
0100
0000
,  // measure 42
1000
0100
0010
0000
0001
0100
0010
0000
,  // measure 43
1000
0000
0001
0100
0010
0000
0100
0000
,  // measure 44
0010
0100
0001
0000
0010
0001
1000
0000
,  // measure 45
0001
0000
1000
0010
1000
0000
0100
0000
,  // measure 46
0010
0010
0010
0000
0100
0100
0100
0000
,  // measure 47
0010
0001
1000
0001
0100
0000
0010
0000
,  // measure 48
1000
0100
0010
0000
1000
0000
0001
0000
,  // measure 49
0100
0010
0100
0001
1000
0000
0001
0000
,  // measure 50
0101
0000
0000
1100
0000
0000
1001
0000
,  // measure 51
1100
0000
0010
0001
0100
0000
0010
0000
,  // measure 52
1000
0010
1000
0000
0001
0100
0001
0000
,  // measure 53
1000
0100
0010
0001
1000
0000
0001
0000
,  // measure 54
0100
0000
0001
0000
0100
0000
0001
1000
,  // measure 55
0100
0000
1000
0100
0010
0000
0100
0000
,  // measure 56
1000
0000
0001
0000
0100
0000
0010
1000
,  // measure 57
0001
0000
0010
0100
0010
0000
0001
0000
,  // measure 58
1001
0000
0100
0000
0010
0000
1000
0100
,  // measure 59
0010
0000
0100
0000
1000
0001
0100
0001
,  // measure 60
1000
0000
0010
0000
0100
0000
0001
0010
,  // measure 61
0001
1000
0100
1000
,  // measure 62
2002
0000
0000
3003
;

//---------------dance-single - ----------------
#NOTES:
     dance-single:
     :
     Easy:
     4:
     0.263,0.309,0.125,0.125,0.000: // measure 1
0001
0100
0000
0001
,  // measure 2
0000
1000
0000
0100
,  // measure 3
1000
0001
0000
0100
,  // measure 4
0010
0100
0220
0330
,  // measure 5
1001
0001
0100
0000
,  // measure 6
0001
1000
0100
0000
,  // measure 7
1000
0100
0010
0001
,  // measure 8
0100
0010
1000
0000
,  // measure 9
0001
0100
0001
0000
,  // measure 10
1000
0100
1000
0000
,  // measure 11
0001
0100
0001
0010
,  // measure 12
0100
0010
0100
0010
,  // measure 13
2002
0000
3003
0000
,  // measure 14
1000
0000
0100
1000
,  // measure 15
0001
0000
0100
0000
,  // measure 16
0001
0100
0010
0100
,  // measure 17
0001
0000
1000
0000
,  // measure 18
0001
1000
0001
0000
,  // measure 19
1000
0100
1000
0000
,  // measure 20
0001
0010
0100
0010
,  // measure 21
0001
0001
0001
0000
,  // measure 22
1000
0001
0100
0010
,  // measure 23
1000
0000
0010
0100
,  // measure 24
0010
1000
0100
0010
,  // measure 25
0001
0000
1000
0001
,  // measure 26
0100
0100
0100
0000
,  // measure 27
0010
0010
0010
0000
,  // measure 28
1000
0001
0100
0010
,  // measure 29
2002
0000
3003
0000
,  // measure 30
0110
0000
0010
0000
,  // measure 31
2002
0000
3003
0000
,  // measure 32
1001
0000
0100
0000
,  // measure 33
0220
0000
0330
0000
,  // measure 34
0010
1000
0100
0010
,  // measure 35
0001
0100
0010
1000
,  // measure 36
0002
0000
0000
0003
,  // measure 37
0100
0010
2002
3003
,  // measure 38
1000
0100
1000
0001
,  // measure 39
0100
0100
0100
0000
,  // measure 40
0001
1000
0100
0010
,  // measure 41
0001
0100
0010
0000
,  // measure 42
1000
0010
1000
0010
,  // measure 43
0100
0100
0100
0000
,  // measure 44
0001
0010
0100
0010
,  // measure 45
0001
1000
0100
0010
,  // measure 46
0001
1000
0001
0100
,  // measure 47
0010
0010
0010
0000
,  // measure 48
0100
0001
0010
0100
,  // measure 49
0010
0001
1000
0100
,  // measure 50
1001
0000
0000
1001
0000
0000
1001
0000
,  // measure 51
1001
0001
0100
0000
,  // measure 52
0001
0100
0010
0100
,  // measure 53
0001
0010
0001
1000
,  // measure 54
1001
0000
0001
0100
,  // measure 55
0010
0000
0100
0010
,  // measure 56
1000
0000
0001
0010
,  // measure 57
0001
1000
0100
0010
,  // measure 58
0001
0000
1000
0100
,  // measure 59
1000
0000
0001
0100
,  // measure 60
0001
0000
1000
0100
,  // measure 61
0010
0001
1000
0001
,  // measure 62
2002
0000
0000
3003
;

//---------------dance-single - ----------------
#NOTES:
     dance-single:
     :
     Beginner:
     2:
     0.142,0.178,0.108,0.000,0.000: // measure 1
1001
0000
0000
0000
,  // measure 2
0001
0000
0000
0000
,  // measure 3
0100
0000
0000
0000
,  // measure 4
0110
0000
0000
0000
,  // measure 5
0001
0000
0001
0000
,  // measure 6
1000
0000
1000
0000
,  // measure 7
0001
0000
0100
0000
,  // measure 8
0010
0000
0000
0000
,  // measure 9
0100
0000
0010
0000
,  // measure 10
0100
0000
0010
0000
,  // measure 11
1000
0000
1000
0000
,  // measure 12
0001
0000
0000
0000
,  // measure 13
1001
0000
0000
0000
,  // measure 14
1000
0000
0100
0000
,  // measure 15
1000
0000
0000
0000
,  // measure 16
0001
0000
0100
0000
,  // measure 17
0001
0000
0000
0000
,  // measure 18
1000
0000
0100
0000
,  // measure 19
0010
0000
0001
0000
,  // measure 20
0100
0000
0010
0000
,  // measure 21
0100
0000
0000
0000
,  // measure 22
0010
0000
0100
0000
,  // measure 23
0010
0000
0000
0000
,  // measure 24
1000
0000
0001
0000
,  // measure 25
1000
0000
0000
0000
,  // measure 26
0001
0000
0100
0000
,  // measure 27
0001
0000
1000
0000
,  // measure 28
0100
0000
0010
0000
,  // measure 29
0001
0000
0000
0000
,  // measure 30
1000
0000
0100
0000
,  // measure 31
1000
0000
0000
0000
,  // measure 32
0001
0000
0100
0000
,  // measure 33
0001
0000
0000
0000
,  // measure 34
1000
0000
0100
0000
,  // measure 35
0010
0000
0001
0000
,  // measure 36
1001
0000
0000
0000
,  // measure 37
0110
0000
0000
0000
,  // measure 38
1001
0000
1001
0000
,  // measure 39
0100
0100
0100
0000
,  // measure 40
0001
0000
0100
0000
,  // measure 41
0010
0000
1000
0000
,  // measure 42
0110
0000
0110
0000
,  // measure 43
1000
1000
1000
0000
,  // measure 44
0001
0000
0010
0000
,  // measure 45
0100
0000
0010
0000
,  // measure 46
1001
0000
1001
0000
,  // measure 47
0010
0010
0010
0000
,  // measure 48
0100
0000
0001
0000
,  // measure 49
1000
0000
0100
0000
,  // measure 50
0110
0000
0000
0000
,  // measure 51
0001
0001
0001
0000
,  // measure 52
1000
0000
0100
0000
,  // measure 53
1000
0000
0001
0000
,  // measure 54
0100
0000
0000
0000
,  // measure 55
0001
0000
0100
0000
,  // measure 56
0001
0000
0000
0000
,  // measure 57
1000
0000
0100
0000
,  // measure 58
0010
0000
0000
0000
,  // measure 59
0100
0000
0010
0000
,  // measure 60
0001
0000
1000
0000
,  // measure 61
0001
0000
1000
0000
,  // measure 62
1001
0000
0000
0000
;
