#TITLE:Wicked Fate;
#ARTIST:M2U;
#CREDIT:Lisek;
#BANNER:[Voiceless Week] - Wicked Fate.png;
#BACKGROUND:[Voiceless Week] - Wicked Fate-bg.png;
#CDTITLE:cdtitle.png;
#MUSIC:[Voiceless Week] - Wicked Fate.mp3;
#OFFSET:-3.463380;
#SAMPLESTART:60.000000;
#SAMPLELENGTH:13.80;
#SELECTABLE:YES;
#BPMS:0.000000=140.000000
,32.000000=70.000000
,44.000000=140.000000
,64.000000=70.000000
,72.000000=140.000000
,80.000000=70.000000
,96.000000=140.000000
;
#STOPS:
;
#BGCHANGES:;
#KEYSOUNDS:;
#ATTACKS:TIME=5.180000:LEN=0.430000:MODS=-100% Dizzy:TIME=6.030000:LEN=0.430000:MODS=Dizzy:TIME=8.610000:LEN=0.430000:MODS=-100% Dizzy:TIME=9.460000:LEN=0.430000:MODS=Dizzy:TIME=12.030000:LEN=0.430000:MODS=-100% Dizzy:TIME=12.890000:LEN=0.430000:MODS=Dizzy:TIME=89.180000:LEN=0.430000:MODS=-100% Dizzy:TIME=90.029999:LEN=0.430000:MODS=Dizzy:TIME=92.610001:LEN=0.430000:MODS=-100% Dizzy:TIME=93.459999:LEN=0.430000:MODS=Dizzy:TIME=96.029999:LEN=0.430000:MODS=-100% Dizzy:TIME=96.889999:LEN=0.430000:MODS=Dizzy;

//---------------dance-single - ----------------
#NOTES:
     dance-single:
     Lisek:
     Hard:
     7:
     0.380995,0.457798,0.253550,0.507099,0.046954,284.000000,257.000000,27.000000,54.000000,0.000000,0.000000,0.380995,0.457798,0.253550,0.507099,0.046954,284.000000,257.000000,27.000000,54.000000,0.000000,0.000000:
1000
0100
0010
0001
,
1000
0100
0010
0001
,
1000
0010
0100
0001
,
1000
0010
0100
0001
,
1000
0001
0100
0001
,
1000
0001
0100
0001
,
1000
0000
0010
0000
0100
0001
1000
0000
,
0001
1000
0001
0000
2000
0000
3001
0000
,
2000
3020
0230
0000
0302
0203
0320
0000
,
2030
3200
0302
0203
2300
3002
2003
0000
,
3002
0203
2300
3200
0302
2003
3020
0230
,
0302
2003
3002
1003
,
1001
0001
0010
0100
0000
1000
0010
0100
,
0001
0010
0100
1000
0001
0000
1000
0000
,
1001
1000
0010
0100
0000
0001
0010
0100
,
1000
0010
0100
0001
1000
0000
1001
0000
,
0000
0001
0010
0100
0000
1000
0100
0010
0001
0000
1000
0000
0001
0000
0000
0000
,
0000
1000
0010
0100
0000
0001
0100
0010
1000
0000
0001
0000
1000
0000
0001
0000
,
0100
0010
0100
0010
,
0100
0000
0010
0000
1000
0001
1000
0001
,
0200
0320
2030
0000
3002
0023
0230
0000
,
2300
3200
0302
0203
2300
3002
2003
0000
,
3002
0203
2300
3200
0302
0023
2030
3020
,
0032
2003
3020
0230
0302
2003
3002
0003
,
1001
0000
0000
1010
0000
0000
0110
0000
,
0101
0000
0000
0011
0000
0000
1001
0000
,
1100
0000
0000
1010
0000
0000
0101
0000
,
1001
0000
0000
0000
0001
0000
0000
0000
1000
0000
0000
0010
0100
0000
0001
0000
,
1001
0000
0000
0101
0000
0000
0110
0000
,
1010
0000
0000
1100
0000
0000
0110
0000
,
0011
0000
0000
0101
0000
0000
1010
0000
,
1001
0000
0000
0000
1000
0000
0000
0000
0100
0000
0000
0010
0001
0000
1000
0000
,
1001
0000
0001
0000
1000
0100
0010
0001
,
0100
0010
1000
0100
0001
0100
1000
0000
,
1001
0000
1000
0000
0001
0010
0100
1000
,
0001
0100
0001
0010
1000
0010
0001
0000
,
1001
0000
0001
0000
1000
0001
0100
0001
,
1000
0100
1000
0010
0001
0010
1000
0000
,
1001
0000
1000
0000
0001
0100
0010
1000
,
0100
0010
0100
1000
0000
0000
0001
1000
,
0001
0100
0010
1000
,
0001
0100
0010
1000
,
0001
0010
0100
1000
,
0001
0010
0100
1000
,
0001
0100
0001
1000
,
0001
0100
0001
1000
,
0001
0000
1000
0000
0010
0100
0001
0000
,
1000
0001
1000
0000
0010
0000
0200
0000
,
0000
0000
0000
0300
;

//---------------dance-single - ----------------
#NOTES:
     dance-single:
     Lisek:
     Medium:
     5:
     0.244159,0.297569,0.000000,0.028172,0.000000,182.000000,182.000000,0.000000,3.000000,0.000000,0.000000,0.244159,0.297569,0.000000,0.028172,0.000000,182.000000,182.000000,0.000000,3.000000,0.000000,0.000000:
1000
0000
0001
0000
,
1000
0000
0001
0000
,
0100
0000
0010
0000
,
0100
0000
0010
0000
,
1000
0000
0001
0000
,
1000
0000
0001
0000
,
1000
0000
0010
0000
1000
0001
1000
0000
,
0002
0000
1003
0000
,
1000
0010
0100
0000
0001
1000
0001
0000
,
1000
0100
0010
0001
,
1000
0010
0100
0000
0001
0100
0010
0000
,
1000
0000
0001
0000
,
1000
0100
0010
0001
,
0100
0010
0100
0010
1000
0000
0000
0000
,
0001
0010
0100
1000
,
0010
0100
0010
0100
0001
0000
0000
0000
,
1000
0000
0100
0000
0010
0001
1000
0000
,
0001
0000
0010
0000
0100
1000
0001
1000
,
0001
1000
0001
1000
,
0001
0000
1000
0000
0001
1000
0001
1000
,
0001
0100
0010
0000
1000
0100
0010
0000
,
0001
0010
0100
1000
,
0001
0010
0100
0000
1000
0010
0100
0000
,
0001
0000
1000
0000
0010
0100
0010
0000
,
1000
0000
0000
0100
0000
0000
0001
0000
,
0100
0000
0000
1000
0000
0000
0010
0000
,
0001
0000
0000
0010
0000
0000
1000
0000
,
0001
0010
0100
1000
,
0001
0000
0000
0100
0000
0000
1000
0000
,
0100
0000
0000
0001
0000
0000
0010
0000
,
1000
0000
0000
0010
0000
0000
0001
0000
,
1000
0010
0100
0001
,
1000
0000
0010
0000
0100
0001
1000
0000
,
0001
0000
1000
0000
0001
1000
0001
0000
,
1000
0000
0100
0000
0010
0001
1000
0000
,
0001
0000
0100
0000
0010
1000
0010
0000
,
1000
0000
0001
0000
0100
0001
1000
0000
,
0010
0000
0100
0000
0001
1000
0001
0000
,
1000
0000
0001
0000
0100
0010
1000
0000
,
0001
0100
0010
1000
,
0001
0000
1000
0000
,
0001
0000
1000
0000
,
0010
0000
0100
0000
,
0010
0000
0100
0000
,
0001
0000
0100
0000
,
0001
0000
0100
0000
,
0010
0000
1000
0000
0001
1000
0001
0000
,
0200
0000
0310
0020
,
0000
0000
0000
0030
;

//---------------dance-single - ----------------
#NOTES:
     dance-single:
     Lisek:
     Easy:
     2:
     0.139519,0.200727,0.000000,0.075126,0.000000,104.000000,104.000000,0.000000,8.000000,0.000000,0.000000,0.139519,0.200727,0.000000,0.075126,0.000000,104.000000,104.000000,0.000000,8.000000,0.000000,0.000000:
0001
0000
1000
0000
,
0002
0000
0003
0000
,
1000
0000
0001
0000
,
2000
0000
3000
0000
,
0001
0000
1000
0000
,
0002
0000
0003
0000
,
1000
0000
0010
0000
,
0100
0000
0001
0000
,
1000
0000
0100
0000
,
0010
0000
0001
0000
,
1000
0000
0010
0000
,
0100
0000
0000
0000
,
0001
0000
0100
0000
,
0001
1000
0001
0000
,
1000
0000
0010
0000
,
1000
0001
1000
0000
,
0001
1000
0002
0003
,
1000
0001
2000
3000
,
0001
1000
0001
1000
,
0001
1000
0001
0000
,
1000
0100
0010
0001
,
1000
0010
0100
0001
,
1000
0100
0010
0001
,
1000
0010
0100
0001
,
1000
0000
0000
0001
0000
0000
0000
0000
,
1000
0000
0000
0001
0000
0000
0000
0000
,
0100
0000
0000
0010
0000
0000
0000
0000
,
0100
0000
0000
0010
0000
0000
0000
0000
,
1000
0000
0000
0001
0000
0000
0000
0000
,
1000
0000
0000
0001
0000
0000
0000
0000
,
0100
0000
0000
0010
0000
0000
0000
0000
,
0100
0000
0000
0010
0000
0000
0000
0000
,
1000
0000
0000
0100
0000
0000
0000
0000
,
1000
0000
0000
0100
0000
0000
0000
0000
,
0010
0000
0000
0001
0000
0000
0000
0000
,
0010
0000
0000
0001
0000
0000
0000
0000
,
1000
0000
0000
0100
0000
0000
0000
0000
,
1000
0000
0000
0100
0000
0000
0000
0000
,
0010
0000
0000
0001
0000
0000
0000
0000
,
0010
0000
0000
0001
0000
0000
0000
0000
,
1000
0000
0001
0000
,
2000
0000
3000
0000
,
0010
0000
0100
0000
,
0020
0000
0030
0000
,
1000
0000
0001
0000
,
2000
0000
3000
0000
,
0010
0000
0100
0000
,
0001
0000
1000
0000
;

//---------------dance-single - ----------------
#NOTES:
     dance-single:
     Lisek:
     Beginner:
     1:
     0.081833,0.110341,0.000000,0.169033,0.000000,61.000000,61.000000,0.000000,18.000000,0.000000,0.000000,0.081833,0.110341,0.000000,0.169033,0.000000,61.000000,61.000000,0.000000,18.000000,0.000000,0.000000:
2000
0000
3000
0000
,
0002
0000
0003
0000
,
2000
0000
3000
0000
,
0002
0000
0003
0000
,
2000
0000
3000
0000
,
0002
0000
0003
0000
,
1000
0000
0000
0000
,
0001
0000
0000
0000
,
1000
0000
0100
0000
,
0010
0000
0001
0000
,
1000
0000
0010
0000
,
0100
0000
0001
0000
,
1000
0000
0001
0000
,
2000
0000
3000
0000
,
0001
0000
1000
0000
,
0002
0000
0003
0000
,
2000
0000
3002
0003
,
0200
0000
0320
0030
,
0100
0000
0100
0000
,
0100
0000
0000
0000
,
0001
0000
0100
0000
,
0010
0000
1000
0000
,
0001
0000
0010
0000
,
0100
0000
1000
0000
,
0001
0000
0000
0000
,
1000
0000
0000
0000
,
0001
0000
0000
0000
,
1000
0000
0000
0000
,
0010
0000
0000
0000
,
0100
0000
0000
0000
,
0010
0000
0000
0000
,
0100
0000
0000
0000
,
0001
0000
0000
0000
,
1000
0000
0000
0000
,
0001
0000
0000
0000
,
1000
0000
0000
0000
,
0010
0000
0000
0000
,
0100
0000
0000
0000
,
0010
0000
0000
0000
,
0100
0000
0000
0000
,
0002
0000
0003
0000
,
2000
0000
3000
0000
,
0002
0000
0003
0000
,
2000
0000
3000
0000
,
0002
0000
0003
0000
,
2000
0000
3000
0000
,
0001
0000
0000
0000
,
1000
0000
0000
0000
;

//---------------dance-single - ----------------
#NOTES:
     dance-single:
     Lisek:
     Challenge:
     10:
     0.715037,0.984266,0.281722,0.103298,0.788821,533.000000,503.000000,30.000000,11.000000,0.000000,0.000000,0.715037,0.984266,0.281722,0.103298,0.788821,533.000000,503.000000,30.000000,11.000000,0.000000,0.000000:
// measure 0
1000
0100
0010
0000
0001
0010
0100
0000
,  // measure 1
1000
0100
0010
0000
0001
0010
0100
0000
,  // measure 2
1000
0010
0100
0000
0001
0100
0010
0000
,  // measure 3
1000
0010
0100
0000
0001
0100
0010
0000
,  // measure 4
1000
0100
0010
0000
0001
0100
0010
0000
,  // measure 5
1000
0100
0010
0000
0001
0100
0010
0000
,  // measure 6
1000
0000
0000
0100
0010
0000
0000
0010
0001
0000
1000
0000
0010
0000
0000
0010
,  // measure 7
0100
0000
0010
0000
1000
0100
0010
0001
1000
0000
0000
0000
0001
0000
0000
0000
,  // measure 8
1000
0000
0001
0100
1000
0000
0100
0010
1000
0000
0100
0000
0001
0000
0000
0000
,  // measure 9
1001
0000
0000
0000
0001
0000
1000
0000
0100
0000
0010
0000
0100
0000
1000
0000
0001
0000
0000
0100
0010
1000
0001
0100
0010
0000
0000
0000
0000
0000
1000
0000
,  // measure 10
0100
0000
0000
0000
1000
0000
0010
0100
0001
0000
0000
0000
0010
0000
0000
0000
0100
0000
0000
0000
1000
0000
0100
0000
0010
0000
0000
0000
0001
0000
0100
0000
,  // measure 11
0010
0000
0000
1000
0001
0100
0010
1000
0001
0000
0000
0000
2002
0000
3003
0000
,  // measure 12
0101
0000
0001
0100
0010
0000
0100
0000
0001
0000
1000
0010
0100
0000
0010
0000
,  // measure 13
0110
0000
0010
0000
1010
0000
1000
0000
1001
0000
0001
0010
0100
1000
0001
1000
,  // measure 14
0001
0000
1000
0010
0100
0000
0010
0000
1000
0000
0001
0100
0010
0000
1000
0000
,  // measure 15
0001
0010
0100
1000
0001
0010
0100
1000
0001
0000
0000
0000
1001
0000
0000
0000
,  // measure 16
0001
0000
0001
0010
0001
0000
0010
0000
0000
0000
0001
0010
0001
0000
0010
0000
0001
0000
0010
0000
0100
0000
1000
0000
0001
0000
0100
0010
1000
0001
0100
0010
,  // measure 17
1000
0000
1000
0010
1000
0000
0010
0000
0000
0000
1000
0010
1000
0000
0010
0000
1000
0000
0100
0000
0010
0001
1000
0100
0010
0000
0001
0010
0100
1000
0001
1000
,  // measure 18
0001
0000
1000
0100
0010
0100
1000
0010
0100
0000
0001
0010
0100
0010
0001
0100
,  // measure 19
0010
0000
1000
0010
0100
0010
1000
0001
1000
0000
1100
0000
0110
0000
0011
0000
,  // measure 20
0001
0000
0000
0000
1000
0000
0010
0100
0010
0000
0000
0000
1000
0000
0100
0000
0001
0000
0100
0000
1000
0000
0001
0000
0100
0000
0000
0000
1000
0000
0000
0000
,  // measure 21
0100
0000
0000
0000
0001
0000
0100
0010
0100
0000
0001
0000
0100
0010
1000
0100
0010
0000
0001
0000
1000
0000
0100
0000
0010
0000
0001
0010
0100
1000
0001
0000
,  // measure 22
2000
0000
0000
0000
3200
0000
0000
0000
0302
0000
0000
0000
0203
0000
0000
0000
2300
0000
0000
0000
3020
0000
0032
0000
0023
0000
0000
0000
1030
0100
0010
0001
,  // measure 23
1000
0000
0000
0000
0001
0000
0000
0000
0100
0000
0010
0000
1000
0001
0100
0001
1000
0000
0010
0100
0010
0000
0100
0000
0001
0000
0000
0000
1000
0010
0100
0001
,  // measure 24
1000
0000
0100
1000
0100
0000
0010
0000
0001
1000
0010
0100
0010
1000
0100
0010
,  // measure 25
0001
0000
1000
0010
0100
0010
1000
0000
1010
0000
0110
0000
0101
0000
0000
0000
,  // measure 26
0001
0000
0100
0001
0100
0000
0010
1000
0100
0010
0001
0010
0100
1000
0010
0100
,  // measure 27
0001
0000
1000
0100
0010
0000
0100
1000
0001
0010
0100
0010
0001
0000
1000
0000
,  // measure 28
0001
0000
1000
0100
1000
0000
0010
0000
0100
0001
0100
0010
1000
0010
0100
0001
,  // measure 29
0100
0000
0001
0010
0100
1000
0001
0000
0101
0000
0110
0000
1010
0000
0000
0000
,  // measure 30
1000
0000
0001
0100
0001
0000
1000
0010
1000
0100
0010
0001
0100
0010
1000
0001
,  // measure 31
0010
0000
0100
0010
0001
0000
0011
0000
0000
0000
1100
0000
0110
0000
0011
0000
,  // measure 32
0001
0000
0100
0001
0100
0000
0010
0000
1000
0001
0010
0100
0010
0001
0100
0010
,  // measure 33
1000
0000
0001
0100
0010
0100
0001
0000
0101
0000
0110
0000
1010
0000
0000
0000
,  // measure 34
1000
0000
0010
0100
0010
0000
0100
0001
0100
0010
1000
0100
0010
0001
0010
0100
,  // measure 35
1000
0000
0001
0100
0010
0000
0100
0001
1000
0010
0100
0010
1000
0000
0001
0000
,  // measure 36
1000
0000
0001
0100
0001
0000
1000
0000
0010
0100
0010
1000
0001
0100
0010
1000
,  // measure 37
0010
0000
1000
0010
0100
0001
1000
0000
1010
0000
0110
0000
0101
0000
0000
0000
,  // measure 38
0001
0000
1000
0100
1000
0000
0001
0010
0001
0100
0010
1000
0100
0010
0001
1000
,  // measure 39
0100
0000
0010
0100
1000
0000
1100
0000
0000
0000
0011
0000
0110
0000
1100
0000
,  // measure 40
1000
0010
0100
0000
0001
0100
0010
0000
,  // measure 41
1000
0010
0100
0000
0001
0100
0010
0000
,  // measure 42
1000
0100
0010
0000
0001
0010
0100
0000
,  // measure 43
1000
0100
0010
0000
0001
0010
0100
0000
,  // measure 44
1000
0001
0010
0000
0001
1000
0010
0000
,  // measure 45
1000
0001
0100
0000
0001
1000
0010
0000
,  // measure 46
1000
0000
0000
0100
0010
0000
0000
0010
0001
0000
1000
0000
0010
0000
0000
0010
,  // measure 47
0100
0000
0010
0000
1000
0100
0010
0001
1000
0000
0000
0000
0002
0000
0000
0000
,  // measure 48
0000
0000
0000
0003
;
