#TITLE:The Fateful Return;
#SUBTITLE:;
#ARTIST:Jake Kaufman;
#TITLETRANSLIT:;
#SUBTITLETRANSLIT:;
#ARTISTTRANSLIT:;
#GENRE:;
#CREDIT:;
#BANNER:;
#BACKGROUND:;
#LYRICSPATH:;
#CDTITLE:cdtitle.png;
#MUSIC:[Voiceless Week] - The Fateful Return.ogg;
#OFFSET:-1.031000;
#SAMPLESTART:12.200000;
#SAMPLELENGTH:12.850000;
#LASTBEATHINT:234.922501;
#SELECTABLE:YES;
#BPMS:0.000000=150.000000
;
#STOPS:
;
#BGCHANGES:;
#KEYSOUNDS:;
#ATTACKS:;

//---------------dance-single - ----------------
#NOTES:
     dance-single:
     :
     Beginner:
     2:
     0.178163,0.210975,0.031179,0.176678,0.000000,120.000000,117.000000,3.000000,17.000000,0.000000,0.000000,0.178163,0.210975,0.031179,0.176678,0.000000,120.000000,117.000000,3.000000,17.000000,0.000000,0.000000:
1000
0000
0001
0000
,
0100
0100
0000
0000
,
0010
0010
0000
0000
,
1000
0000
0001
0000
,
0010
0010
0000
0000
,
0100
0000
0100
0000
,
0200
0000
0300
0000
,
1000
0000
1000
0000
,
0001
0000
0001
0000
,
0010
0000
0010
0000
,
0100
0000
0100
0000
,
1000
0000
0010
0000
,
0001
0000
0010
0000
,
1000
0000
0001
0000
,
0100
0000
0100
0000
,
0010
0000
1000
0000
,
0100
0000
0010
0000
,
0001
0000
0100
0000
,
0010
0000
1000
0000
,
0001
0000
0100
0000
,
0010
0010
0000
0000
,
1000
0000
0100
0000
,
0010
0010
0010
0000
,
0001
0000
0100
0000
,
0010
0020
0000
0030
,
1000
0000
0100
0000
,
0010
0010
0000
0000
,
0002
0000
2003
0000
,
3010
0010
0000
0000
,
0200
0000
0320
0000
,
1030
1000
0000
0000
,
0001
0000
1000
0000
,
0100
0000
0010
0000
,
0110
0000
0010
0010
,
0020
0000
0030
0000
,
0001
0000
0100
0100
,
0200
0000
0300
0000
,
0010
0000
1000
1000
,
1000
0000
0100
0000
,
0010
0000
0001
0001
,
0001
0000
0100
0000
,
0001
0000
0010
0010
,
0020
0000
0130
0000
,
1000
0000
0100
0100
,
0200
0000
0310
0000
,
0001
0000
0100
0000
,
0010
0000
1000
0000
,
0100
0000
0010
0000
,
0001
0000
1000
0000
,
0020
0000
0030
0000
,
0100
0000
0001
0000
,
2000
0000
3000
0000
,
0002
0000
0003
0000
,
0010
0000
0100
0000
,
1000
2000
0000
3000
,
0001
0002
0000
0003
,
0100
0000
0010
0000
,
0110
2002
0000
0000
,
3003
0000
0000
0000
;

//---------------dance-single - ----------------
#NOTES:
     dance-single:
     :
     Easy:
     4:
     0.350388,0.421950,0.405321,0.498857,0.000000,236.000000,197.000000,39.000000,48.000000,0.000000,0.000000,0.350388,0.421950,0.405321,0.498857,0.000000,236.000000,197.000000,39.000000,48.000000,0.000000,0.000000:
2000
0000
3002
0000
,
0103
0220
0000
0330
,
0010
1000
0001
0100
,
0002
0000
2003
0000
,
3100
0220
0000
0330
,
0020
0130
0020
0130
,
2002
0000
0000
3003
,
1000
1000
0100
0110
,
0001
0001
0100
0110
,
0010
0010
1000
1001
,
0100
0100
0001
1001
,
0001
0010
0100
1100
,
1000
0010
0100
0101
,
0002
0010
1000
0100
,
2003
0010
0200
3300
,
0100
0010
0001
0101
,
0100
0010
1000
1100
,
1000
0001
0100
0010
,
2000
3000
0002
0003
,
0001
0100
0010
1000
,
1100
1100
0101
0101
,
1000
0010
0100
0001
,
0011
0011
1010
1010
,
1000
0100
0001
0100
,
0010
0200
0300
0120
,
0031
0100
1000
0100
,
0010
2002
3003
0100
,
2000
3000
0001
0100
,
0010
2020
3030
1000
,
0002
0003
1000
0010
,
0100
0202
0303
0001
,
0010
1000
0010
0000
,
0010
0001
0010
0000
,
1001
0000
0002
0203
,
0320
1000
1030
0110
,
1001
0200
2300
3200
,
0320
0001
0031
0110
,
0100
0100
0001
0001
,
0010
0010
0100
0100
,
1000
1000
0010
0010
,
0100
0010
1000
0001
,
0010
0000
2000
3200
,
0320
0001
1000
0031
,
1001
0200
0302
0203
,
0320
1000
0001
1030
,
0100
0010
0100
1000
,
0010
0100
0010
0001
,
1000
0100
0001
0010
,
1000
0001
0100
0010
,
0011
0011
0011
0000
,
0100
0001
1000
0010
,
1010
1010
1010
0000
,
1001
1001
1001
0000
,
0002
0000
2003
0000
,
3100
0020
0000
0030
,
0001
0010
0100
1000
,
0020
0000
0230
0300
,
0110
2002
0000
0000
,
3003
0000
0000
0000
;

//---------------dance-single - ----------------
#NOTES:
     dance-single:
     :
     Medium:
     7:
     0.501826,0.512367,0.291000,0.353357,0.072750,338.000000,310.000000,28.000000,34.000000,0.000000,0.000000,0.501826,0.512367,0.291000,0.353357,0.072750,338.000000,310.000000,28.000000,34.000000,0.000000,0.000000:
1000
0000
1000
0100
0010
0000
0010
0001
,
0100
0010
0200
0000
0001
0000
0301
0000
,
0010
0100
0010
0000
0100
1000
0001
0100
,
0020
0000
0000
1030
0002
0000
0000
0013
,
0100
0010
2002
0000
0000
0000
3003
0000
,
0010
0001
0100
0000
0010
1000
0100
0000
,
0020
0000
0030
1001
,
0001
0100
1000
0000
1000
0100
0001
0000
,
1000
0100
0001
0000
0001
0100
1000
0000
,
0001
0010
1000
0000
0010
0000
0100
0000
,
1000
0100
1000
0000
0001
0100
0001
0000
,
0010
0100
0010
0000
0001
0000
0001
0100
,
0010
0100
0010
0000
1000
0000
1000
0010
,
0200
0000
0001
0000
1000
0000
0301
1000
,
0020
0000
0001
0000
0100
0000
1030
0100
,
1000
0001
0010
0000
1000
0010
0001
0000
,
0001
1000
0010
0000
0001
0010
1000
0000
,
0001
0100
1000
0100
0010
0000
0100
0010
,
2000
0000
0000
3100
0002
0000
0000
0103
,
0010
0001
0100
0000
0010
1000
0100
0000
,
0011
0101
1010
1100
,
0100
1000
0010
0000
0100
0001
0010
0000
,
1100
1010
0101
0011
,
0010
0000
0200
0000
1000
0000
1300
0010
,
0010
0000
0200
0000
0001
0000
0301
0001
,
0010
0000
0002
0000
1000
0000
1003
0010
,
0010
0000
2000
0000
0010
0000
3001
0100
,
0020
0000
0000
0130
0001
1000
0100
0010
,
0010
0000
1002
0000
0100
2003
3100
0000
,
0020
0000
0000
0130
1000
0001
0100
0010
,
0010
0000
2001
0000
0100
3002
0103
0001
,
0010
0000
0000
0010
0100
0010
0100
0000
0000
0110
0000
0000
,
1000
0000
0000
0001
1000
0001
1000
0000
0000
1001
0000
0000
,
0110
0000
0001
0100
0010
1000
0010
0000
,
2000
0000
0000
0100
0000
0000
3001
0000
0000
0010
0100
0010
,
0100
1100
0101
1010
,
0011
0000
0001
0100
1000
0100
0001
1000
,
0010
0000
0000
0000
0100
0000
0001
1000
,
0010
0000
0100
0000
0100
0000
0001
1000
,
0100
0000
0010
0000
0100
0000
1000
0001
,
0010
0100
0100
1001
,
1000
0100
1000
0001
0010
0001
1000
0000
,
0002
0000
0000
0010
0000
0000
1003
0000
0000
0100
0010
0100
,
0010
1010
0101
1100
,
0011
0000
0001
0100
1000
0001
0010
1000
,
0001
0000
0000
0000
1000
0000
0100
0010
,
0001
1000
0020
0000
0100
0000
0130
0010
,
1000
0000
1000
0001
0100
0000
0001
1000
,
0020
0000
1030
0001
0020
0000
0031
1000
,
0010
0000
0000
0110
0000
0000
0100
0010
0100
0010
0000
0000
,
2000
3200
0320
0032
,
1003
0000
0000
1001
0000
0000
0001
1000
0001
1000
0000
0000
,
0010
0000
0000
0110
0000
0000
0010
0100
0010
0100
0000
0000
,
0001
0000
0001
0010
0100
0000
0100
1000
,
0010
0100
0020
0000
1000
0000
1030
0000
,
0100
0010
0100
0000
0010
0001
1000
0010
,
0200
0000
0000
0301
2000
0000
0000
3100
,
0010
0100
2002
0000
0000
0000
0000
0000
,
3003
0000
0000
0000
;

//---------------dance-single - ----------------
#NOTES:
     dance-single:
     :
     Hard:
     10:
     0.648811,0.632925,0.166286,0.758678,0.607982,437.000000,421.000000,16.000000,73.000000,0.000000,0.000000,0.648811,0.632925,0.166286,0.758678,0.607982,437.000000,421.000000,16.000000,73.000000,0.000000,0.000000:
// measure 0
2000
0000
0000
0000
0000
0000
3100
0000
0020
0000
0000
0000
0000
0000
0031
1000
,  // measure 1
0001
0010
0200
0000
1000
0000
0001
0000
,  // measure 2
1300
0000
0010
0000
0200
0000
0000
0000
0301
0100
0001
1000
0100
0010
0001
1000
,  // measure 3
0020
0000
0000
0000
0000
0000
1030
0001
0020
0000
0000
0000
0000
0000
0031
1000
,  // measure 4
0100
0010
2002
0000
0000
0000
3003
0000
,  // measure 5
0010
0000
0000
1000
0100
1000
0200
0000
0000
0000
0000
0000
0310
0000
0000
0001
0100
0001
0200
0000
0000
0000
0000
0000
,  // measure 6
0320
0000
0000
0000
0000
0030
1001
0000
,  // measure 7
0010
0001
1000
0000
0001
0000
0000
0000
0010
0001
0010
0000
0100
0000
1000
0000
,  // measure 8
0010
1000
0001
0000
1000
0000
0000
0000
0010
1000
0010
0000
0100
0000
0001
0000
,  // measure 9
0010
0100
2000
0000
0000
0000
3000
0000
1010
0000
0000
0000
0101
0000
0000
0000
,  // measure 10
0010
0100
0002
0000
0000
0000
0000
0000
0013
0100
1000
0000
0002
0000
1003
0000
,  // measure 11
0010
1000
0010
0000
0100
0000
0000
0000
0010
0001
0010
0000
0100
0000
0001
0000
,  // measure 12
0010
0001
0010
0000
0100
0000
0000
0000
0010
1000
0010
0000
0100
1000
0010
0100
,  // measure 13
0002
0000
0000
0000
0000
0000
0023
0000
0000
0000
0000
0000
0130
0000
0000
1000
0001
1000
0001
0000
0000
0010
0000
0000
,  // measure 14
0200
0000
0000
0000
1300
0000
0010
0000
0100
0000
0001
0010
0100
0000
1000
0000
,  // measure 15
0010
1000
0001
0000
0010
0000
0000
0000
0010
0001
1000
0000
0100
0000
0010
0000
,  // measure 16
0100
1000
0001
0000
0100
0000
0000
0000
0100
0001
1000
0000
0010
0000
0100
0000
,  // measure 17
0010
1000
0200
0000
0000
0000
0000
0000
0310
0000
0000
0001
0100
0000
0010
0000
,  // measure 18
0020
0000
0000
0000
0000
0000
1030
0000
0200
0000
0000
0000
1300
0000
0001
0010
,  // measure 19
0001
0010
0100
0000
1000
0000
0000
0100
2000
0000
0000
0000
3002
0000
0000
0000
,  // measure 20
0013
0000
0000
0001
0200
0000
0000
0000
0310
0000
0000
1000
0200
0000
0000
1300
,  // measure 21
0010
0000
0000
1000
0000
0000
0100
0000
0000
0000
0000
0000
1000
0000
0000
0000
0010
0000
0000
0000
0100
0000
0000
0000
0002
0000
0000
0000
0000
0000
0000
0000
0000
0000
0000
0000
2003
0000
0000
0000
0000
0000
0000
0000
0000
0000
0000
0000
,  // measure 22
3010
0000
0000
1000
0100
0000
0000
0000
0010
0000
0001
0000
1000
0100
1000
0000
,  // measure 23
0010
0000
0000
0100
0002
0000
0000
0000
1003
0000
0100
0000
1000
0000
0010
0000
,  // measure 24
1010
0000
0000
0000
0202
0000
0003
0000
0310
0000
1000
0001
0010
0000
0100
0000
,  // measure 25
0010
0000
0000
0100
2000
0000
0000
0000
3001
0000
0100
0000
0001
0000
0010
0000
,  // measure 26
0011
0000
1200
0000
0301
0100
1000
0001
,  // measure 27
0020
0000
0000
0000
0000
0000
0000
0000
0000
0031
0010
0100
2000
0000
0000
3001
0000
0000
0200
0000
0000
0310
0000
0000
,  // measure 28
0010
0000
0000
0000
0000
0000
0000
0000
0000
0010
0000
0000
2000
0000
0000
0000
0000
0000
0000
0000
0000
0000
0000
0000
3010
0000
0000
0000
1000
0000
0000
0000
0100
0000
0000
0000
0002
0000
0000
0000
0000
0000
0103
0000
0000
0000
0000
0000
,  // measure 29
0020
0000
0000
0000
0000
0000
1030
0010
0001
0000
1000
0000
0200
0000
0310
0000
,  // measure 30
0010
0000
0000
0010
0002
0000
0000
0000
1003
0010
1000
0010
0200
0000
0301
0000
,  // measure 31
0020
0000
0000
0130
1000
0100
0010
0001
0010
0110
0000
0000
,  // measure 32
0200
0000
0000
0000
0000
0000
1300
0000
0001
0000
1000
0000
0010
0000
0100
0000
0010
0000
0000
0000
0000
0100
0001
1000
,  // measure 33
0010
0000
0100
0001
0011
0000
1100
0000
,  // measure 34
1020
0000
0000
0000
0000
0000
0100
0000
0000
0000
0000
0000
1030
0000
0000
0000
0010
1000
0010
0000
0100
0000
0001
0000
,  // measure 35
0100
0010
1000
0001
0000
0000
0021
0000
0000
0100
0000
0000
,  // measure 36
0032
0000
0000
0000
0203
0000
0000
0000
0301
1000
0100
1000
0001
0100
0001
1000
,  // measure 37
0020
0000
0000
0000
0030
0000
0000
0000
0200
0000
0000
0000
0301
0000
1000
0001
,  // measure 38
0010
0000
0000
0010
0002
0000
0000
0000
0003
0000
0100
0000
0001
1000
0001
1000
,  // measure 39
0020
0000
0000
0000
0030
0000
1000
0001
0200
0000
0000
0000
0310
0000
0000
0000
,  // measure 40
0010
0000
0000
0010
2000
0000
0000
0000
3000
0000
0001
0010
0100
1000
0001
0000
,  // measure 41
1000
0000
0000
0000
0001
1000
0001
0000
0020
0000
0000
0000
0230
0000
0300
0000
,  // measure 42
2001
0000
0000
0000
0000
0000
0010
0000
0000
0000
0000
0000
3100
0000
0000
0000
0010
0100
1000
0000
0001
0000
0010
0000
,  // measure 43
0001
0000
0100
0000
0010
0000
1000
0000
0000
0000
0000
0000
0020
0000
0000
0000
0000
0000
0230
0000
0000
0300
0000
0000
,  // measure 44
1002
0000
0000
0000
0010
0000
0000
0000
0103
0000
0010
0000
1000
0001
1000
0001
,  // measure 45
0020
0000
0000
0000
0130
1000
0001
0010
,  // measure 46
0001
1000
0002
0000
0000
0000
0000
0000
0103
0000
0000
0000
0100
0001
0010
0100
,  // measure 47
1000
0000
1000
0100
0002
0000
0000
0000
0203
0000
0000
0000
2300
0000
0000
3001
,  // measure 48
0020
0000
0130
1000
0020
0000
0130
0001
,  // measure 49
0010
0000
0000
0000
0000
0000
0001
0000
0000
0100
0001
0100
0001
0000
1000
0000
0001
0000
1000
0000
0000
0000
0000
0000
,  // measure 50
0100
1000
0010
0001
1000
0100
0010
1000
,  // measure 51
0010
0000
0000
0000
0000
0000
1000
0000
0000
0100
1000
0100
1000
0000
0001
0000
1000
0000
0001
0000
0000
0000
0000
0000
,  // measure 52
0001
0000
0000
0000
0000
0000
0100
0000
0000
0010
0100
0010
0100
0000
0010
0000
1000
0000
0001
0000
0000
0000
0000
0000
,  // measure 53
0002
0000
0000
0000
0000
0000
0013
0000
0200
0000
0000
0000
0000
0000
1300
0001
,  // measure 54
1000
0100
0020
0000
0001
0000
1000
0000
,  // measure 55
0031
0000
0100
0000
0020
0000
0000
0000
1030
0010
1000
0001
0010
0100
1000
0001
,  // measure 56
0200
0000
0000
0000
0000
0000
0301
1000
0020
0000
0000
0000
0000
0000
1030
0001
,  // measure 57
0100
0010
2002
0000
0000
0000
0000
0000
,  // measure 58
3003
0000
0000
0000
;

//---------------dance-single - NO24----------------
#NOTES:
     dance-single:
     :
     Edit:
     9:
     0.623571,0.632925,0.176678,0.789857,0.524839,420.000000,403.000000,17.000000,76.000000,0.000000,0.000000,0.623571,0.632925,0.176678,0.789857,0.524839,420.000000,403.000000,17.000000,76.000000,0.000000,0.000000:
2000
0000
0000
0000
0000
0000
3100
0000
0020
0000
0000
0000
0000
0000
0031
1000
,
0001
0010
0200
0000
1000
0000
0001
0000
,
1300
0000
0010
0000
0200
0000
0000
0000
0301
0100
0001
1000
0100
0010
0001
1000
,
0020
0000
0000
0000
0000
0000
1030
0001
0020
0000
0000
0000
0000
0000
0031
1000
,
0100
0010
2002
0000
0000
0000
3003
0000
,
0010
1000
0200
0000
0310
0001
0200
0000
,
0320
0000
0000
0000
0000
0030
1001
0000
,
0010
0001
1000
0000
0001
0000
0000
0000
0010
0001
0010
0000
0100
0000
1000
0000
,
0010
1000
0001
0000
1000
0000
0000
0000
0010
1000
0010
0000
0100
0000
0001
0000
,
0010
0100
2000
0000
0000
0000
3000
0000
1010
0000
0000
0000
0101
0000
0000
0000
,
0010
0100
0002
0000
0000
0000
0000
0000
0013
0100
1000
0000
0002
0000
1003
0000
,
0010
1000
0010
0000
0100
0000
0000
0000
0010
0001
0010
0000
0100
0000
0001
0000
,
0010
0001
0010
0000
0100
0000
0000
0000
0010
1000
0010
0000
0100
1000
0010
0100
,
0002
0000
0000
0000
0023
0000
0000
0000
0130
0000
1000
0010
0100
0000
0001
0000
,
0200
0000
0000
0000
0300
0000
0010
0000
0100
0000
0001
0010
0100
0000
1000
0000
,
0010
1000
0001
0000
0010
0000
0000
0000
0010
0001
1000
0000
0100
0000
0010
0000
,
0100
1000
0001
0000
0100
0000
0000
0000
0100
0001
1000
0000
0010
0000
0100
0000
,
0010
1000
0200
0000
0000
0000
0000
0000
0310
0000
0000
0001
0100
0000
0010
0000
,
0020
0000
0000
0000
0000
0000
1030
0000
0200
0000
0000
0000
1300
0000
0001
0010
,
0001
0010
0100
0000
1000
0000
0000
0100
2000
0000
0000
0000
3002
0000
0000
0000
,
0013
0000
0000
0001
0200
0000
0000
0000
0310
0000
0000
1000
0200
0000
0000
1300
,
0010
0000
0000
1000
0000
0000
0100
0000
0000
0000
0000
0000
1000
0000
0000
0000
0010
0000
0000
0000
0100
0000
0000
0000
0002
0000
0000
0000
0000
0000
0000
0000
0000
0000
0000
0000
2003
0000
0000
0000
0000
0000
0000
0000
0000
0000
0000
0000
,
3010
0000
0000
1000
0100
0000
0000
0000
0010
0000
0001
0000
1000
0100
1000
0000
,
0010
0000
0000
0100
0002
0000
0000
0000
1003
0000
0100
0000
1000
0000
0010
0000
,
1010
0000
0000
0000
0202
0000
0003
0000
0310
0000
1000
0001
0010
0000
0100
0000
,
0010
0000
0000
0100
2000
0000
0000
0000
3001
0000
0100
0000
0001
0000
0010
0000
,
0011
0000
1200
0000
0301
0100
1000
0001
,
0020
0000
0000
0000
0000
0000
0031
0010
0200
0000
1300
0000
0200
0000
0310
0000
,
0010
0000
0000
0000
0000
0000
0000
0000
0000
0001
0000
0000
2000
0000
0000
0000
0000
0000
0000
0000
0000
0000
0000
0000
3010
0000
0000
0000
1000
0000
0000
0000
0100
0000
0000
0000
0002
0000
0000
0000
0000
0000
0103
0000
0000
0000
0000
0000
,
0020
0000
0000
0000
0000
0000
1030
0010
0001
0000
1000
0000
0200
0000
0310
0000
,
0010
0000
0000
0010
0002
0000
0000
0000
1003
0010
1000
0010
0200
0000
0301
0000
,
0020
0000
0000
0130
1000
0100
0010
0001
0010
0110
0000
0000
,
0200
0000
0000
1300
0001
1000
0010
0100
0010
0000
0000
0000
,
1001
0000
0100
0001
0011
0000
1100
0000
,
1020
0000
0000
0100
0000
0000
1030
0000
1000
0010
0100
0001
,
0100
0010
1000
0001
0000
0000
0021
0000
0000
0100
0000
0000
,
0032
0000
0000
0000
0203
0000
0000
0000
0301
1000
0100
1000
0001
0100
0001
1000
,
0020
0000
0000
0000
0030
0000
0000
0000
0200
0000
0000
0000
0301
0000
1000
0001
,
0010
0000
0000
0010
0002
0000
0000
0000
0003
0000
0100
0000
0001
1000
0001
1000
,
0020
0000
0000
0000
0030
0000
1000
0001
0200
0000
0000
0000
0310
0000
0000
0000
,
0010
0000
0000
0010
2000
0000
0000
0000
3000
0000
0001
0010
0100
1000
0001
0000
,
1000
0000
0000
0000
0001
1000
0001
0000
0020
0000
0000
0000
0230
0000
0300
0000
,
2001
0000
0000
0010
0000
0000
3100
0000
0100
1000
0001
0010
,
0001
0000
0100
0000
0010
0000
1000
0000
0000
0000
0000
0000
0020
0000
0000
0000
0000
0000
0230
0000
0000
0300
0000
0000
,
1002
0000
0000
0000
0010
0000
0000
0000
0103
0000
0010
0000
1000
0001
1000
0001
,
0020
0000
0000
0000
0130
1000
0001
0010
,
0001
1000
0002
0000
0000
0000
0000
0000
0103
0000
0000
0000
0100
0001
0010
0100
,
1000
0000
1000
0100
0002
0000
0000
0000
0203
0000
0000
0000
2300
0000
0000
3001
,
0020
0000
0130
1000
0020
0000
0130
0001
,
0010
0000
0000
0000
0000
0000
0001
0000
0000
0200
0000
0000
0301
0000
1000
0000
0001
0000
1000
0000
0000
0000
0000
0000
,
0100
1000
0010
0001
1000
0100
0010
1000
,
0010
0000
0000
0000
0000
0000
1000
0000
0000
0200
0000
0000
1300
0000
0001
0000
1000
0000
0001
0000
0000
0000
0000
0000
,
0001
0000
0000
0000
0000
0000
0100
0000
0000
0020
0000
0000
0130
0000
0010
0000
1000
0000
0001
0000
0000
0000
0000
0000
,
0002
0000
0000
0000
0000
0000
0013
0000
0200
0000
0000
0000
0000
0000
1300
0001
,
1000
0100
0020
0000
0001
0000
1000
0000
,
0031
0000
0100
0000
0020
0000
0000
0000
1030
0010
1000
0001
0010
0100
1000
0001
,
0200
0000
0000
0000
0000
0000
0301
1000
0020
0000
0000
0000
0000
0000
1030
0001
,
0100
0010
2002
0000
0000
0000
0000
0000
,
3003
0000
0000
0000
;
