#TITLE:Targets!;
#SUBTITLE:;
#ARTIST:HAL Laboratory, Inc.;
#TITLETRANSLIT:;
#SUBTITLETRANSLIT:;
#ARTISTTRANSLIT:;
#GENRE:VIDEO GAME SOUNDTRACK;
#CREDIT:Super Smash Bros. Melee;
#MENUCOLOR:;
#NEWMETERSYSTEM:NO;
#BANNER:[Voiceless Week] - Targets!.png;
#BACKGROUND:[Voiceless Week] - Targets!-bg.png;
#LYRICSPATH:;
#CDTITLE:;
#MUSIC:[Voiceless Week] - Targets!.ogg;
#OFFSET:-0.377;
#SAMPLESTART:42.015;
#SAMPLELENGTH:14.800;
#SELECTABLE:YES;
#LISTSORT:;
#DISPLAYBPM:144.000;
#BPMS:0.000=144.000,83.500=152.000,83.750=190.000,84.000=144.000,131.750=190.000,132.000=144.000;
#STOPS:;
#BGCHANGES:;
#ATTACKS:;

//---------------dance-single - DDRDAIKENKAI----------------
#NOTES:
     dance-single:
     DDRDAIKENKAI:
     Hard:
     8:
     0.525,0.491,0.033,0.275,0.313: // measure 1
0000
0000
0000
0000
,  // measure 2
0000
0000
0000
0000
,  // measure 3
0000
0000
0000
0000
,  // measure 4
0000
0000
0000
0000
,  // measure 5
0100
0010
1000
0010
0100
0010
1000
0010
,  // measure 6
0100
0001
0010
0001
0100
0001
0010
0001
,  // measure 7
1000
0010
0100
0010
1000
0010
0100
0010
,  // measure 8
1000
0001
0010
0001
1000
0001
0010
0001
,  // measure 9
1000
0100
0010
0100
1000
0100
0010
0100
,  // measure 10
1000
0001
0010
0001
1000
0001
0010
0001
,  // measure 11
0100
0010
0001
0010
0100
0010
0001
0010
,  // measure 12
1000
0100
0001
0100
1000
0100
0001
0100
,  // measure 13
2002
0000
0000
0000
0000
0000
0000
3003
0000
0000
0000
0000
0000
0000
0000
0000
,  // measure 14
0001
0000
0010
0000
0002
0000
0000
0103
0000
0000
0100
0000
0010
0000
1000
0000
,  // measure 15
0200
0000
0000
0320
0000
0000
0032
0000
0000
2003
0000
0000
3100
0000
0010
0000
,  // measure 16
0100
0000
1000
0000
0020
0000
0000
0130
0000
0000
0100
0000
0010
0000
1000
0000
,  // measure 17
0002
0000
0000
0023
0000
0000
0230
0000
0000
1300
0000
0000
1001
0000
0000
0000
,  // measure 18
0001
1000
0000
0001
1000
0000
0000
0100
0000
0000
0100
0000
0000
0000
1000
0000
,  // measure 19
0001
0010
0000
0001
0010
0000
0000
0001
0000
0000
0100
0000
0010
0000
1000
0000
,  // measure 20
0001
0100
0000
0001
0100
0000
0000
0010
0000
0000
1000
0000
0000
0000
1000
0000
,  // measure 21
0100
0010
0000
0100
0010
0000
0000
0001
0000
0000
1000
0000
0010
0000
0100
0000
,  // measure 22
0001
1000
0000
0000
1000
0000
0000
1000
0000
0000
1000
0000
0100
0000
0010
0000
,  // measure 23
0000
0001
0000
0000
0001
0000
0000
0001
0000
0000
0001
0000
0100
0000
1000
0000
,  // measure 24
0100
0010
0000
0000
0010
0000
0000
0010
0000
0000
0010
0000
0100
0000
0001
0000
,  // measure 25
0010
0100
0000
0010
0100
0000
0010
0100
0000
0010
0100
0000
1000
0000
0001
0000
,  // measure 26
1000
0010
0001
0010
1000
0010
0001
0010
,  // measure 27
0100
1000
0100
0010
0100
1000
0100
0010
,  // measure 28
0100
0001
0010
0001
0100
0001
0010
0001
,  // measure 29
0100
1000
0100
0001
0100
1000
0100
0001
,  // measure 30
0010
0100
0010
0001
0010
0100
0010
0001
,  // measure 31
1000
0001
1000
0100
1000
0001
1000
0100
,  // measure 32
0010
0100
0001
0100
0010
0100
0001
0100
,  // measure 33
0010
1000
0010
0001
0010
1000
0010
0001
,  // measure 34
2002
0000
0000
0000
0000
0000
0000
3003
0000
0000
0000
0000
0000
0000
0000
0000
,  // measure 35
0001
0000
0100
0000
0020
0000
0000
1030
0000
0000
1000
0000
0100
0000
0010
0000
,  // measure 36
0002
0000
0000
0203
0000
0000
2300
0000
0000
3200
0000
0000
0310
0000
1000
0000
,  // measure 37
0100
0000
0010
0000
0002
0000
0000
1003
0000
0000
1000
0000
0001
0000
0010
0000
,  // measure 38
0200
0000
0000
2300
0000
0000
3020
0000
0000
0032
0000
0000
0013
0000
1000
0000
,  // measure 39
0100
1000
0000
0100
1000
0000
0000
1000
0000
0000
0001
0000
0100
0000
0010
0000
,  // measure 40
1000
0001
0000
1000
0001
0000
0000
1000
0000
0000
0010
0000
0100
0000
0001
0000
,  // measure 41
0010
0100
0000
0010
0100
0000
0000
0010
0000
0000
0001
0000
1000
0000
0010
0000
,  // measure 42
0100
0001
0000
0100
0001
0000
0000
1000
0000
0000
0001
0000
0100
0000
0010
0000
,  // measure 43
0100
0001
0000
0000
0001
0000
0000
0001
0000
0000
0001
0000
0100
0000
0010
0000
,  // measure 44
1000
0100
0000
0000
0100
0000
0000
0100
0000
0000
0100
0000
1000
0000
0001
0000
,  // measure 45
1000
0010
0000
0000
0010
0000
0000
0010
0000
0000
0010
0000
0100
0000
0010
0000
,  // measure 46
1000
0001
0000
1000
0001
0000
1000
0001
0000
1000
0001
0000
0100
0000
0001
2000
,  // measure 47
0002
0000
0000
0000
,  // measure 48
3003
0000
0000
0000
;

//---------------dance-single - DDRDAIKENKAI----------------
#NOTES:
     dance-single:
     DDRDAIKENKAI:
     Challenge:
     10:
     0.899,0.853,0.044,0.099,1.000:
0000
0000
0000
0000
,
0000
0000
0000
0000
,
1000
0100
0001
0100
,
1000
0001
1000
0000
0001
0100
0010
1000
0100
0000
0010
0001
0000
1000
0100
0010
,
0001
1000
0001
0010
0001
0100
0001
1000
0001
0010
0001
1000
0001
0010
0001
1000
,
0010
1000
0001
1000
0100
1000
0010
1000
0001
1000
0010
1000
0100
1000
0010
1000
,
0001
0100
0010
0100
0001
0100
0010
0100
1000
0100
0010
0100
0001
0100
0010
0100
,
0001
0010
0100
0010
1000
0010
0100
0010
0001
0010
0100
0010
1000
0010
0100
0010
,
0001
1000
0010
1000
0001
1000
0100
1000
0001
0010
0001
1000
0001
0010
0001
0100
,
0010
1000
0001
1000
0010
1000
0100
1000
0001
0100
0001
0010
0001
1000
0001
0100
,
0010
1000
0010
0100
0010
0001
0010
0100
0001
0010
0100
0010
1000
0010
0100
0010
,
0001
0100
0010
0100
1000
0100
0010
1000
0100
0010
0100
0001
0100
0010
0100
1000
,
0001
0000
0000
1000
0000
0000
0001
0000
0000
1000
0000
0000
0000
0000
0000
0110
0000
0000
0000
0000
0000
1001
0000
0000
0000
0000
0001
0000
0100
0000
0001
0000
0000
0100
0000
0000
0010
0000
0000
1000
0000
0000
0100
0000
0000
0010
0000
0000
,
0001
0010
0001
0010
0100
0000
0100
1000
0000
1000
0010
1000
0010
0000
1000
0001
,
1000
0000
1000
0001
0000
0001
1000
0000
1000
0001
0000
0001
0100
0000
0010
1000
,
0001
0100
0001
0100
0010
0000
0010
1000
0000
1000
0100
1000
0001
0000
0010
0001
,
0200
0000
0000
0320
0000
0000
0032
0000
0000
0023
0000
0000
1030
0000
0001
0000
,
0010
0100
0000
0100
1000
0000
1000
0100
0000
0100
0010
0000
0001
0000
1000
0000
,
0001
0100
0000
0100
0010
0000
0010
0100
0000
0100
0001
0000
0010
0000
1000
0000
,
0010
0001
0000
0001
1000
0000
1000
0010
0000
0010
0001
0000
0010
0000
1000
0000
,
0001
0100
0000
0100
0010
0000
0010
0100
0000
0100
1000
0000
0100
0000
0001
0000
,
1000
0010
0000
1000
0010
0000
1000
0010
0000
1000
0010
0000
0100
0000
0001
0000
,
0010
0001
0000
0010
0001
0000
0010
0001
0000
0010
0001
0000
0100
0000
0010
0000
,
1000
0100
0000
1000
0100
0000
1000
0100
0000
1000
0100
0000
1000
0000
0010
0000
,
0100
0001
0100
0000
0001
0010
0001
0010
0100
0000
0100
1000
0000
0100
0010
0001
,
1000
0001
1000
0100
1000
0010
1000
0001
1000
0100
1000
0001
1000
0100
1000
0001
,
0100
0001
1000
0001
0010
0001
0100
0001
1000
0001
0100
0001
0010
0001
0100
0001
,
1000
0010
0100
0010
1000
0010
0100
0010
0001
0010
0100
0010
1000
0010
0100
0010
,
1000
0100
0010
0100
0001
0100
0010
0100
1000
0100
0010
0100
0001
0100
0010
0100
,
1000
0001
0100
0001
1000
0001
0010
0001
1000
0100
1000
0001
1000
0100
1000
0010
,
0100
0001
1000
0001
0100
0001
0010
0001
1000
0010
1000
0100
1000
0001
1000
0010
,
0100
0001
0100
0010
0100
1000
0100
0010
1000
0100
0010
0100
0001
0100
0010
0100
,
1000
0010
0100
0010
0001
0010
0100
0001
0010
0100
0010
0001
0010
0100
0010
1000
,
0010
0000
0000
0100
0000
0000
0010
0000
0000
0100
0000
0000
0000
0000
0000
0110
0000
0000
0000
0000
0000
1001
0000
0000
0000
0000
1000
0000
0010
0000
1000
0000
0000
0001
0000
0000
0100
0000
0000
0010
0000
0000
0100
0000
0000
0010
0000
0000
,
1000
0100
1000
0100
0010
0000
0010
0001
0000
0001
0100
0001
1000
0000
0001
1000
,
0001
0100
0001
1000
0100
1000
0001
0100
0001
1000
0100
1000
0010
0000
0100
0001
,
1000
0010
1000
0010
0100
0000
0100
0001
0010
0001
1000
0010
1000
0000
0100
1000
,
0020
0000
0000
0032
0000
0000
0023
0000
0000
2030
0000
0000
3100
0000
0001
0000
,
0100
1000
0000
1000
0001
0000
0001
0100
0000
0100
0010
0000
0100
0000
0001
0000
,
1000
0010
0000
0010
0100
0000
0100
1000
0000
1000
0100
0000
0001
0000
1000
0000
,
0100
0010
0000
0010
0001
0000
0001
0100
0000
0100
0010
0000
1000
0000
0001
0000
,
1000
0010
0000
0010
0100
0000
0100
0001
0000
0001
0010
0000
0100
0000
1000
0000
,
0001
0010
0000
0001
0100
0000
0001
0010
0000
0001
0100
0000
0010
0000
1000
0000
,
0100
0010
0000
0100
1000
0000
0100
0010
0000
0100
1000
0000
0010
0000
0001
0000
,
0010
1000
0000
0010
0100
0000
0010
1000
0000
0010
0100
0000
0010
0000
1000
0000
,
0001
1000
0001
0000
1000
0010
0100
0001
0010
0000
0100
1000
0000
1000
0001
1000
,
0002
0000
0000
0000
,
0003
0000
0000
0000
;

//---------------dance-single - DDRDAIKENKAI----------------
#NOTES:
     dance-single:
     DDRDAIKENKAI:
     Medium:
     5:
     0.375,0.388,0.110,0.231,0.022:
0000
0000
0000
0000
,
0000
0000
0000
0000
,
0000
0000
0000
0000
,
0000
0000
0000
0000
,
1000
0001
0100
0000
0010
0000
1100
0000
,
0010
0100
0001
0000
1000
0000
0011
0000
,
1000
0001
0100
0000
0010
0000
0101
0000
,
0010
1000
0001
0000
0100
0000
1010
0000
,
0100
0001
1000
0000
0010
1000
0001
0000
,
0100
0001
0010
0000
0100
1000
0010
0000
,
0001
0010
1000
0000
1000
0100
0001
0000
,
0001
0100
1000
0000
1000
0010
0001
0000
,
0220
0000
0000
0330
,
1000
0001
1000
0000
0100
0000
0010
0000
,
0001
0100
0001
0000
0010
0000
0100
0000
,
1000
0010
1000
0000
0001
0000
0100
0000
,
0020
0000
2030
0000
3001
0100
0010
1000
,
0002
0010
0100
0013
,
2000
0100
0010
3100
,
0020
0001
1000
0031
,
0200
0010
1000
0310
,
0002
0000
0000
0000
1000
0000
0000
1000
0000
0000
1003
0000
0000
0000
0100
0000
,
2000
0000
0000
0000
0100
0000
0000
0100
0000
0000
3100
0000
0010
0000
0000
0000
,
0001
1000
0001
0001
,
0010
0001
0100
0010
1000
0100
0020
0000
,
0130
1000
0010
0000
0100
0000
1001
0000
,
0001
1000
0100
0000
0010
0000
0101
0000
,
0100
0001
1000
0000
0010
0000
0110
0000
,
0010
1000
0100
0000
1000
0000
1010
0000
,
1000
0010
0100
0000
0100
0001
0010
0000
,
0010
0100
1000
0000
1000
0001
0010
0000
,
0010
0001
0100
0000
0100
0010
0001
0000
,
0001
0010
1000
0000
1000
0100
0001
0000
,
2002
0000
0000
3003
,
0010
1000
0100
0000
0001
0000
0100
0000
,
1000
0010
0001
0000
0010
0000
1000
0000
,
0001
0100
1000
0000
0100
0000
0001
0000
,
0010
0001
0100
0000
0010
1000
0100
0100
,
0020
0001
0100
1030
,
0002
1000
0100
0013
,
0200
0001
1000
0310
,
2000
0100
0010
3001
,
0020
0000
0000
0000
1000
0000
0000
1000
0000
0000
1030
0000
0000
0000
0100
0000
,
0200
0000
0000
0000
0010
0000
0000
0010
0000
0000
0310
0000
0001
0000
0000
0000
,
0100
0010
1000
0001
,
0010
0100
0010
0100
1000
0001
0200
0000
,
0002
0000
0000
0000
,
0303
0000
0000
0000
;

//---------------dance-single - DDRDAIKENKAI----------------
#NOTES:
     dance-single:
     DDRDAIKENKAI:
     Beginner:
     1:
     0.157,0.207,0.033,0.209,0.000:
0000
0000
0000
0000
,
0000
0000
0000
0000
,
0000
0000
0000
0000
,
0000
0000
0000
0000
,
1000
0000
1000
0000
,
0001
0000
0001
0000
,
1000
0000
1000
0000
,
0001
0000
0001
0000
,
0100
0000
0100
0000
,
0010
0000
0010
0000
,
0100
0000
0100
0000
,
0010
0000
0010
0000
,
0220
0000
0330
0000
,
1000
1000
1000
0000
,
0001
0000
0001
0000
,
0100
0100
0100
0000
,
0001
0000
0001
0000
,
0020
0000
0030
0000
,
0200
0000
0300
0000
,
2000
0000
3000
0000
,
0002
0000
0003
0000
,
0200
0000
0000
0000
,
0300
0000
0000
0000
,
0010
0010
0010
0010
,
0010
0000
1000
0000
,
0002
0000
0003
0000
,
0020
0000
0030
0000
,
0200
0000
0300
0000
,
1000
0000
0001
0000
,
0100
0100
0100
0000
,
0010
0010
0010
0000
,
1000
1000
1000
0000
,
0001
0001
0001
0000
,
2002
0000
3003
0000
,
0100
0000
0100
0000
,
0001
0001
0001
0000
,
1000
0000
1000
0000
,
0100
0100
0100
0000
,
0020
0000
0030
0000
,
0002
0000
0003
0000
,
2000
0000
3000
0000
,
0200
0000
0300
0000
,
0020
0000
0000
0000
,
0030
0000
0000
0000
,
0001
0001
0001
0001
,
0001
0000
1000
0000
,
2002
0000
0000
0000
,
3003
0000
0000
0000
;

//---------------dance-single - DDRDAIKENKAI----------------
#NOTES:
     dance-single:
     DDRDAIKENKAI:
     Easy:
     3:
     0.245,0.258,0.033,0.198,0.000:
0000
0000
0000
0000
,
0000
0000
0000
0000
,
0000
0000
0000
0000
,
0000
0000
0000
0000
,
1000
0100
1000
0100
,
1000
0001
1000
0001
,
1000
0100
1000
0100
,
0010
0100
0010
0100
,
0010
0001
0010
0001
,
0100
0001
0100
0001
,
0100
0010
0100
0010
,
1000
0001
1000
0001
,
2002
0000
3003
0000
,
1000
0100
1000
0100
,
0020
0000
0000
0031
,
0100
0010
0100
0010
,
1000
0100
0010
0001
,
2000
0000
0100
0100
,
3200
0000
0010
0010
,
0320
0000
0001
0001
,
0032
0000
0100
0000
,
0023
0000
0000
0000
,
0030
0000
0000
0000
,
0001
1000
0001
1000
,
0010
0100
0001
1000
,
0100
0001
0100
0001
,
0100
1000
0100
1000
,
0100
0010
0100
0010
,
0001
0010
0001
0010
,
1000
0010
1000
0010
,
0100
1000
0100
1000
,
0010
0100
0010
0100
,
0001
1000
0001
1000
,
2002
0000
3003
0000
,
1000
0100
1000
0001
,
0200
0000
0000
0310
,
1000
0010
0100
0001
,
0010
0010
0100
1000
,
0002
0000
0010
0010
,
0023
0000
0100
0100
,
0230
0000
1000
1000
,
2300
0000
0001
0000
,
3200
0000
0000
0000
,
0300
0000
0000
0000
,
0010
0100
0010
0100
,
1000
0100
0010
0001
,
2002
0000
0000
0000
,
3003
0000
0000
0000
;
