#TITLE:Shooting Fireball;
#SUBTITLE:;
#ARTIST:dj TAKA;
#TITLETRANSLIT:;
#SUBTITLETRANSLIT:;
#ARTISTTRANSLIT:;
#CREDIT:;
#BANNER:;
#BACKGROUND:;
#LYRICSPATH:;
#CDTITLE:;
#MUSIC:Shooting Fireball.mp3;
#OFFSET:-13.660;
#SAMPLESTART:25.580;
#SAMPLELENGTH:12.000;
#SELECTABLE:YES;
#BPMS:0.000=160.000;
#STOPS:;
#BGCHANGES:;

//---------------dance-single - ----------------
#NOTES:
     dance-single:
     :
     Hard:
     8:
     0.558,0.576,0.128,0.120,0.244:
2002
0000
3003
0000
0000
0100
1000
0100
,
0002
0000
0003
0000
0000
0001
0100
1000
,
0020
0000
0000
0000
,
0030
1100
0001
0101
,
2020
0000
0000
0000
3030
0000
0000
0001
,
0200
0000
0000
0000
0300
0000
0000
1000
,
0020
0000
0000
0030
,
1000
0010
1000
0000
0001
0100
0001
0000
1000
0100
0001
0000
0001
0100
1000
0000
,
0001
0100
1000
0100
0001
0100
1000
0000
,
1000
0010
0001
0010
1000
0010
0001
0000
,
1000
0001
0010
0100
0001
1000
0010
0000
,
0001
1000
0010
0001
1000
0010
0100
0000
,
0100
1000
0001
0100
0001
0010
0100
0000
,
1000
0010
0100
0001
0100
0001
0010
0000
,
0010
0100
1000
0001
0100
0001
1000
0000
,
0100
1000
0100
0000
0010
0001
0010
0000
0100
0001
0100
0000
0010
1000
0010
0000
,
0100
1000
0001
0100
1000
0001
0001
0000
,
0010
0100
1000
0001
1000
0100
0100
0000
,
1000
0010
0001
1000
0010
1000
0001
0010
,
0100
1000
0001
0100
0001
0010
0010
0000
,
1000
0001
0010
0001
0100
1000
1000
0000
,
0100
1000
0010
0010
0100
0100
0001
0000
,
0001
0100
1000
0100
0001
1000
0010
0001
,
1000
1000
0001
0001
0010
0010
0100
0100
,
2002
0000
0000
3003
,
1001
0000
0000
0001
1000
0000
0000
1000
0001
0000
0000
0100
0010
0000
0000
0010
,
0100
0000
0000
1000
0100
0000
0000
0010
0001
0000
0000
1000
0010
0000
0000
0100
,
0001
0000
0000
0001
0100
0000
0000
0100
1000
0000
0000
1000
0010
0000
0000
0010
,
0001
0000
0000
1000
0100
0000
0000
0001
0100
0000
0000
0001
0010
0000
0000
0100
,
1000
0000
0000
0001
0100
0000
0000
0100
0010
0000
0000
0100
1000
0000
0000
0010
,
0100
0000
0000
0010
0001
0000
0000
1000
0100
0000
0000
0001
0100
0000
0000
0100
,
0010
0000
0000
0010
1000
0000
0000
1000
0010
0000
0000
0010
0100
0000
0000
0100
,
0010
1100
1001
0101
,
0100
0000
1000
0000
0100
0000
0001
0000
1000
0000
0100
1000
0100
0000
0000
0000
,
0001
0000
0100
0000
1000
0000
0010
0000
0001
0000
1000
0100
1000
0000
0000
0000
,
0001
0000
0100
0000
0100
0000
1000
0000
0001
0000
0001
0000
0010
0000
1000
0001
,
1000
0010
0100
0100
0001
0010
0100
1000
,
0100
0000
0010
0000
0001
0000
0100
0000
1000
0000
0100
0010
0100
0000
0000
0000
,
1000
0000
0001
0000
0010
0000
1000
0000
0010
0000
0100
0001
0100
0000
0000
0000
,
0100
0001
1000
0100
0010
0100
1000
0000
,
2002
0000
0000
3003
,
0100
0000
0100
0010
0000
0001
1000
0000
,
0100
0000
1000
0100
0000
0010
0001
0000
,
2000
0000
0000
0010
,
0001
0000
0000
0100
0000
0000
3001
0000
,
0020
0000
0000
0100
0000
0000
1030
0000
,
0001
0000
0100
0001
0000
1000
0100
0000
,
0002
0000
1000
0000
0100
0000
1000
1000
,
0000
0010
1000
0103
,
1000
0100
0001
0010
0100
0001
0010
0000
,
0100
0100
1000
0001
0100
0001
0010
0000
,
1000
1000
0001
0100
0001
0010
1000
0000
,
0010
0100
1000
0001
0000
0011
0000
1100
,
0001
0100
0001
0000
1000
0100
0001
0100
,
0001
0000
1000
0000
0100
1000
0001
0010
,
0001
1100
1001
0101
,
0001
0010
0001
0000
0100
1000
0100
0000
0010
1000
0001
0000
0100
0001
1000
0000
,
0001
0100
1000
0100
0001
0010
1000
0000
,
1000
0010
0001
0010
1000
0100
0001
0000
,
1000
0100
0001
0100
0010
0100
1000
0000
,
0001
0100
1000
0100
0010
0100
0001
0000
,
1000
0100
0010
0001
1000
0001
1000
0000
,
0100
0010
0100
1000
0001
0010
0001
0000
,
0010
0100
1000
0001
0010
0100
1000
0001
,
0002
0000
0003
1000
1000
0000
1001
0000
,
1000
0100
0000
0010
0001
0000
1000
0100
0000
0001
0010
0000
0100
0000
0001
0000
,
0010
0001
0000
1000
0100
0000
1000
0010
0000
0001
0100
0000
1000
0000
0100
0000
,
0001
0100
0000
0100
1000
0000
1000
0010
0000
0001
1000
0000
0100
0000
0001
0000
,
1000
0100
0001
1000
0010
0100
0010
0001
,
1000
0100
0001
0001
0100
1000
0001
0010
,
0100
1000
0001
0100
0010
1000
0001
1000
,
0100
1000
0100
0000
0001
0010
0001
0000
1000
0001
1000
0000
0001
1000
0001
0000
,
1000
0010
1000
0000
0010
1000
0010
0000
0100
0001
0100
0000
0001
1000
0001
0000
,
1001
0000
0000
0000
;

//---------------dance-single - ----------------
#NOTES:
     dance-single:
     :
     Medium:
     5:
     0.379,0.356,0.300,0.210,0.000:
2200
0000
0000
3300
,
0022
0000
0000
0033
,
0220
0000
0000
0000
,
0330
1000
0100
0001
,
2020
0000
0000
3030
,
0202
0000
0000
0303
,
2002
0000
0000
3003
,
1000
0100
0001
0100
1000
0001
0001
0000
,
1000
1000
0001
0000
0001
0000
1001
0000
,
0010
0010
0100
0000
0100
0000
0110
0000
,
1000
0100
0010
0000
0001
0000
0101
0000
,
1000
0100
0001
0000
0001
0000
1100
0000
,
1000
0010
0001
0000
0001
0000
1010
0000
,
1000
1000
0001
0000
0001
0000
0011
0000
,
1000
0100
0010
0000
0001
0000
0110
0000
,
1000
0100
0001
0000
1000
0000
1001
0000
,
0100
1000
0000
0001
0100
0000
0010
0000
,
1000
0100
0000
0010
0001
0000
1000
0000
,
0010
0100
0000
1000
0100
0000
0001
0010
,
0100
1000
0101
0011
,
0001
0100
0000
0100
0010
0000
0001
0000
,
1000
0100
0000
0100
0010
0000
0001
1000
,
0100
1000
0000
0001
0100
0000
0001
0010
,
0000
0100
1000
0000
0001
0000
1000
0000
,
2002
0000
0000
3003
,
1000
1000
0100
0100
,
0001
0001
0100
0100
,
1000
1000
0010
0010
,
0001
0001
0110
0000
,
1000
0100
1000
0000
1100
0000
0000
0000
,
0001
0100
0001
0000
0101
0000
0000
0000
,
1000
0010
1000
0000
0001
0010
0001
0000
,
1010
0011
1001
0000
,
1000
0100
0000
0100
0010
0000
0001
0000
,
0001
0100
0000
0100
0010
0000
1000
0000
,
0010
1000
0000
1000
0100
0000
0100
0000
,
0100
0001
0000
0001
0010
0000
1000
0100
,
0010
0000
0001
0010
0000
0100
0010
0000
,
0100
0000
1000
0001
0000
0100
0001
0000
,
1100
0001
0101
0000
,
2002
0000
0000
3003
,
0200
0000
0000
0000
,
2300
0000
0000
0000
,
3200
0000
0000
0000
,
0320
0000
0000
0000
,
0032
0000
0000
0000
,
0203
0000
0000
0000
,
2000
0300
0000
0000
0000
0000
0000
0000
,
3002
0000
0000
0003
,
1000
1100
0001
0101
,
0001
0011
1000
1010
,
1000
1001
0001
1001
,
0010
0110
0100
0110
,
1000
0100
0000
0100
0000
0001
0000
0001
,
0000
1000
0000
1000
0000
0100
0000
0010
,
0000
0100
0000
0001
0000
1000
0000
0000
,
0100
1000
0100
0010
0001
0000
1001
0000
,
1000
0000
1000
0000
0001
0001
0001
0000
,
0010
0000
0100
0000
1000
1000
1000
0000
,
0001
0000
0100
0000
0010
0010
0010
0000
,
1000
0000
0001
0000
0100
0100
0100
0000
,
1000
0100
1000
0000
0001
0000
0101
0000
,
0010
1000
0001
0000
0010
0000
1100
0000
,
0001
0100
0001
0000
0010
0000
1001
0000
,
1000
0000
0100
0001
1000
0000
0110
0000
,
2000
0001
0001
3001
,
0002
1000
1000
1003
,
0020
0000
0100
0000
0000
0100
0100
0030
,
0200
0010
0010
0310
,
1000
0100
1000
0000
0001
0000
0100
0000
,
0001
0010
0100
0000
1000
0000
0001
0000
,
1000
0100
0001
0000
0100
0000
0010
0000
,
1000
0001
1000
0000
0001
0010
0100
0000
,
1001
0000
0000
0000
;

//---------------dance-single - ----------------
#NOTES:
     dance-single:
     :
     Easy:
     3:
     0.232,0.384,0.188,0.225,0.000: // measure 1
2000
0000
0000
3000
,  // measure 2
0002
0000
0000
0003
,  // measure 3
0200
0000
0000
0300
,  // measure 4
0000
1000
0100
0001
,  // measure 5
0020
0000
0000
0030
,  // measure 6
2000
0000
0000
3000
,  // measure 7
0002
0000
0000
0003
,  // measure 8
1000
1000
0001
0001
,  // measure 9
1100
1100
1100
0000
,  // measure 10
0101
0101
0101
0000
,  // measure 11
2200
0000
3300
0000
,  // measure 12
0202
0000
0303
0000
,  // measure 13
0011
0011
0011
0000
,  // measure 14
1010
1010
1010
0000
,  // measure 15
0022
0000
0033
0000
,  // measure 16
2020
0000
3030
0000
,  // measure 17
1000
1000
0001
0000
,  // measure 18
0001
0001
1000
0000
,  // measure 19
1000
0100
0001
0000
,  // measure 20
0001
0100
1000
0000
,  // measure 21
0001
0010
1000
0000
,  // measure 22
1000
0010
0001
0000
,  // measure 23
1000
0000
0010
0000
,  // measure 24
0001
0000
0100
0000
,  // measure 25
2002
0000
3003
0000
,  // measure 26
1000
0000
0001
0001
,  // measure 27
0001
0000
1000
1000
,  // measure 28
0010
0000
0100
0100
,  // measure 29
0100
0000
0010
0010
,  // measure 30
0010
0000
1000
0100
,  // measure 31
0001
0000
0001
0100
,  // measure 32
1000
0000
0010
0100
,  // measure 33
0010
0000
1000
0100
,  // measure 34
0002
1000
1000
0003
,  // measure 35
0020
0100
0100
0030
,  // measure 36
2000
0001
0001
3000
,  // measure 37
0200
0010
0010
0300
,  // measure 38
0001
0100
0001
0100
,  // measure 39
1000
0010
1000
0010
,  // measure 40
1000
0100
0001
0010
,  // measure 41
1001
0000
0000
0000
,  // measure 42
2000
0000
0000
0000
,  // measure 43
0000
0000
0000
3000
,  // measure 44
0002
0000
0000
0000
,  // measure 45
0000
0000
0000
0003
,  // measure 46
0200
0000
0000
0000
,  // measure 47
0000
0000
0000
0300
,  // measure 48
0020
0000
0000
0000
,  // measure 49
0000
0000
0000
0030
,  // measure 50
1000
0000
1000
0000
,  // measure 51
0100
0000
0100
0000
,  // measure 52
0001
0000
0001
0000
,  // measure 53
0010
0000
0010
0000
,  // measure 54
1000
0000
0100
0000
,  // measure 55
0001
0000
0010
0000
,  // measure 56
2002
0000
0000
0000
,  // measure 57
0000
0000
0000
3003
,  // measure 58
1000
0000
0100
0001
,  // measure 59
0010
0000
0100
1000
,  // measure 60
0010
0000
0001
0010
,  // measure 61
1000
0000
1000
0100
,  // measure 62
0001
0000
0001
0100
,  // measure 63
1000
0000
0010
1000
,  // measure 64
0100
0000
0001
0010
,  // measure 65
0100
0000
0000
0001
0001
0000
0000
0000
,  // measure 66
2002
0000
0000
3003
,  // measure 67
0220
0000
0000
0330
,  // measure 68
1100
0000
0101
0000
,  // measure 69
1001
0000
0000
0000
,  // measure 70
0100
0000
1000
0000
0000
0001
0001
0000
,  // measure 71
1000
0000
0100
0000
0000
0010
0010
0000
,  // measure 72
1000
0000
0100
0000
,  // measure 73
0001
0000
0000
0000
0000
1000
1000
0000
,  // measure 74
1001
0000
0000
0000
;

//---------------dance-single - ----------------
#NOTES:
     dance-single:
     :
     Beginner:
     2:
     0.133,0.192,0.068,0.075,0.000: // measure 1
2002
0000
0000
0000
,  // measure 2
0000
0000
0000
0000
,  // measure 3
0000
0000
0000
3003
,  // measure 4
0000
0000
0100
0100
,  // measure 5
0200
0000
0000
0000
,  // measure 6
0000
0000
0000
0300
,  // measure 7
0020
0000
0000
0000
,  // measure 8
0000
0000
0000
0030
,  // measure 9
1000
0000
1000
1000
,  // measure 10
1000
0000
0001
0000
,  // measure 11
0001
0000
0001
0001
,  // measure 12
0001
0000
0010
0000
,  // measure 13
0010
0000
0010
0010
,  // measure 14
0010
0000
0100
0000
,  // measure 15
0100
0000
0100
0100
,  // measure 16
0100
0000
1001
0000
,  // measure 17
1000
0000
0000
0000
,  // measure 18
0001
0000
0000
0000
,  // measure 19
1000
0000
0000
0000
,  // measure 20
0000
0100
0100
0100
,  // measure 21
0100
0000
0010
0000
,  // measure 22
0100
0000
0010
0000
,  // measure 23
0010
0000
0000
0000
,  // measure 24
0100
0000
0000
0000
,  // measure 25
1001
0000
0000
0000
,  // measure 26
1000
0000
1000
1000
,  // measure 27
0001
0000
0000
0000
,  // measure 28
0001
0000
0001
0001
,  // measure 29
1000
0000
0000
0000
,  // measure 30
0010
0000
0010
0010
,  // measure 31
0100
0000
0000
0000
,  // measure 32
0100
0000
0100
0100
,  // measure 33
0010
0000
0000
0000
,  // measure 34
1000
0000
0000
0000
,  // measure 35
0100
0000
0000
0000
,  // measure 36
0001
0000
0000
0000
,  // measure 37
0100
0000
0000
0000
,  // measure 38
0010
0000
0000
0000
,  // measure 39
1000
0000
0000
0000
,  // measure 40
0010
0000
0000
0000
,  // measure 41
0001
0000
0000
0000
,  // measure 42
2000
0000
0000
0000
,  // measure 43
0000
0000
0000
3000
,  // measure 44
0002
0000
0000
0000
,  // measure 45
0000
0000
0000
0003
,  // measure 46
2000
0000
0000
0000
,  // measure 47
0000
0000
0000
3000
,  // measure 48
0002
0000
0000
0000
,  // measure 49
0000
0000
0000
0003
,  // measure 50
1000
0000
1000
0000
,  // measure 51
0001
0000
0001
0000
,  // measure 52
0010
0000
0010
0000
,  // measure 53
0100
0000
0100
0000
,  // measure 54
1000
0000
0100
0000
,  // measure 55
0001
0000
0010
0000
,  // measure 56
1000
0000
0000
0000
,  // measure 57
1001
0000
0000
0000
,  // measure 58
0110
0000
0000
0000
,  // measure 59
1001
0000
0000
0000
,  // measure 60
1001
0000
0000
0000
,  // measure 61
1001
0000
0000
0000
,  // measure 62
0100
0000
0100
0000
,  // measure 63
0010
0000
0010
0000
,  // measure 64
1000
0000
1000
0000
,  // measure 65
0001
0000
0001
0000
,  // measure 66
2000
0000
0000
0000
,  // measure 67
0000
0000
0000
3000
,  // measure 68
0002
0000
0000
0000
,  // measure 69
0000
0000
0000
0003
,  // measure 70
1000
0000
1000
0000
,  // measure 71
0001
0000
0001
0000
,  // measure 72
0010
0010
0010
0000
,  // measure 73
0100
0100
0100
0000
,  // measure 74
1001
0000
0000
0000
;
