#VERSION:0.83;
#TITLE:Shining Wizard;
#SUBTITLE:;
#ARTIST:96;
#TITLETRANSLIT:;
#SUBTITLETRANSLIT:;
#ARTISTTRANSLIT:;
#GENRE:;
#ORIGIN:;
#CREDIT:;
#BANNER:Shining Wizard.png;
#BACKGROUND:Shining Wizard-bg.png;
#PREVIEWVID:;
#JACKET:Shining Wizard-jacket.png;
#CDIMAGE:;
#DISCIMAGE:;
#LYRICSPATH:;
#CDTITLE:;
#MUSIC:Shining Wizard.ogg;
#OFFSET:-5.720000;
#SAMPLESTART:51.279999;
#SAMPLELENGTH:12.150000;
#SELECTABLE:YES;
#BPMS:0.000=158.000;
#STOPS:;
#DELAYS:;
#WARPS:;
#TIMESIGNATURES:0.000=4=4;
#TICKCOUNTS:0.000=4;
#COMBOS:0.000=1;
#SPEEDS:0.000=1.000=0.000=0;
#SCROLLS:0.000=1.000;
#FAKES:;
#LABELS:0.000=Song Start;
#BGCHANGES:;
#KEYSOUNDS:;
#ATTACKS:
;

//---------------dance-single - ----------------
#NOTEDATA:;
#CHARTNAME:;
#STEPSTYPE:dance-single;
#DESCRIPTION:;
#CHARTSTYLE:;
#DIFFICULTY:Hard;
#METER:9;
#RADARVALUES:0.627424,0.622195,0.522853,0.479282,0.217855,504.000000,444.000000,60.000000,55.000000,0.000000,0.000000,0.000000,0.000000,0.000000,0.627424,0.622195,0.522853,0.479282,0.217855,504.000000,444.000000,60.000000,55.000000,0.000000,0.000000,0.000000,0.000000,0.000000;
#CREDIT:;
#NOTES:
// measure 0
2020
0000
0000
0000
0000
0000
0030
0010
,  // measure 1
0010
0000
0000
0000
0000
3100
0000
0220
,  // measure 2
0000
0000
0000
0000
0000
0330
0000
0012
,  // measure 3
0000
0000
2003
0000
0000
3001
2002
0000
,  // measure 4
0000
0000
0000
0000
0003
0001
0001
0000
,  // measure 5
0000
3000
0000
0110
0000
0101
0000
0100
,  // measure 6
0001
1000
0010
1000
0100
0110
0000
0001
,  // measure 7
1001
0000
0000
0100
0220
0000
0330
0202
,  // measure 8
0000
0000
0303
0000
1000
0001
1000
0000
2002
0000
0000
0000
3003
0000
0022
0000
,  // measure 9
0033
0000
0001
0010
0001
0010
0002
0000
0000
0000
0003
0000
0220
0000
0000
0000
,  // measure 10
0330
0000
0100
1000
0100
0000
2200
0000
0000
0000
3300
0000
2002
0000
3003
0000
,  // measure 11
1000
0001
1000
0000
0001
0000
0010
0000
0010
0000
0100
0000
1000
0000
1000
0000
,  // measure 12
0010
1000
0010
0000
1000
0000
0001
0000
0001
0000
0100
0000
0010
0000
1000
0010
,  // measure 13
1000
0010
1000
0000
0001
0000
0001
0000
0100
0000
0001
0000
0001
0000
0010
0001
,  // measure 14
0010
0100
1000
1000
0010
1000
1000
0001
,  // measure 15
1000
0000
0010
1000
0010
0000
0100
0000
0001
0000
0010
0000
0100
0000
1000
0000
,  // measure 16
0000
1100
0000
0011
0000
0101
0000
0100
,  // measure 17
0001
0010
0100
1000
0001
0100
0002
0000
,  // measure 18
0103
0000
0001
0000
0100
0000
0000
0000
0102
0000
0000
0000
1003
0000
0001
0010
,  // measure 19
0001
0100
0001
1000
0010
1000
0000
1100
,  // measure 20
0000
0011
0000
0100
1000
0001
0000
1000
,  // measure 21
0001
0000
0010
0100
1000
0000
0001
1000
,  // measure 22
0010
0000
0210
0000
0301
0100
0010
1000
,  // measure 23
0100
0000
0010
0000
0001
0000
0100
0000
0000
0000
0001
0100
0001
0000
1000
0000
,  // measure 24
0000
0000
0010
1000
0010
0000
1000
0000
0001
0000
0010
0000
0100
0000
1000
0000
,  // measure 25
0001
0100
0020
0000
0130
0001
0100
0000
,  // measure 26
0010
1000
0001
0010
0100
1000
0001
0100
,  // measure 27
0010
0100
0000
0001
0000
1001
0000
1000
,  // measure 28
0010
0110
0000
1010
1000
0000
0001
0100
,  // measure 29
0110
0000
0000
0000
0001
0000
1001
0000
0000
0000
1000
0001
1000
0001
1000
0001
,  // measure 30
0100
0000
0010
0100
0010
0000
1000
0000
0001
0000
1000
0000
0100
0000
0010
0000
,  // measure 31
0000
0011
0000
0110
0000
1100
0000
0100
,  // measure 32
0010
0001
0010
0000
0000
0000
0001
0000
0100
0000
0010
0000
1000
0000
0001
0000
,  // measure 33
1000
0000
0001
1001
0000
0100
0210
0000
,  // measure 34
0301
0000
1000
0001
1000
0000
0100
0000
0010
0000
0001
0000
0010
0000
0100
0000
,  // measure 35
0000
1100
0000
0011
0000
0101
0000
0100
,  // measure 36
0101
0000
0000
0010
0001
0000
0200
0000
0000
0000
0310
0000
1000
0000
0000
0000
,  // measure 37
1001
0000
0000
1000
0100
0000
0020
0000
0000
0000
0031
0000
0001
1000
0001
1000
,  // measure 38
0010
0000
0100
0001
0100
0000
0010
0000
1000
0000
0100
0000
0010
0000
0001
0000
,  // measure 39
0000
0101
0000
0110
0000
1001
0000
0010
,  // measure 40
1000
0010
1000
0000
0000
0000
0001
0000
0010
0000
0100
0000
1000
0000
0001
0000
,  // measure 41
1000
0000
1000
1010
0000
0010
0200
0000
,  // measure 42
0310
0000
0100
0001
0100
0000
0010
0000
1000
0000
0100
0000
0010
0000
0001
0000
,  // measure 43
0000
0110
0000
1100
0000
1001
0000
0001
,  // measure 44
1001
0000
0000
1000
0001
0000
0200
0000
0000
0000
0310
0000
0100
0000
0000
0000
,  // measure 45
0101
0000
0000
0100
0010
0000
2000
0000
0000
0000
3010
0000
0100
0000
0010
0000
,  // measure 46
0000
0000
1000
0010
1000
0000
0010
0000
0100
0000
0001
0000
0010
0000
0100
0000
,  // measure 47
0000
0000
0010
0100
0010
0000
0001
0000
1000
0000
0010
0000
0100
0000
0010
0000
,  // measure 48
0000
0000
0100
0010
0100
0000
0010
0000
1000
0000
0001
0000
0100
0000
0001
0000
,  // measure 49
0000
0000
0100
0001
0100
0000
0001
0000
1000
0000
0001
0000
0010
0000
0100
0000
,  // measure 50
0000
0000
0010
0100
0010
0000
0100
0000
0000
0000
1000
0001
1000
0000
0001
0000
,  // measure 51
0000
0000
0100
0000
0001
0000
1000
0000
0001
1000
0001
1000
0001
1000
0001
1000
,  // measure 52
0001
1000
0010
0100
0010
1000
0001
0010
,  // measure 53
0210
0000
0000
1000
0000
0000
1300
0000
,  // measure 54
2001
0000
0000
0000
0000
0000
0000
0001
,  // measure 55
0000
0000
0100
0000
0000
0000
0001
0000
3001
1000
0001
0000
1002
0000
0000
0000
,  // measure 56
0000
1000
1000
1000
1000
1003
1001
0000
,  // measure 57
0001
0100
0010
0000
0100
0000
0010
0000
1000
0000
0001
0000
1000
0000
1000
0000
,  // measure 58
0100
0000
0010
0000
0001
0000
0100
0000
0001
0000
0001
0000
0100
0001
0100
0000
,  // measure 59
0001
1000
0010
0100
0001
0010
0100
1000
,  // measure 60
0010
0000
1000
0000
0010
0100
0010
0100
0002
0000
0000
0000
0003
0000
0202
0000
,  // measure 61
0000
0303
2020
3030
0220
0000
0330
0202
,  // measure 62
0000
0303
1010
2020
0000
3030
2200
0000
,  // measure 63
3300
0220
0330
0022
0000
0033
2002
3003
,  // measure 64
1000
0001
1000
0001
0100
0000
0100
0000
0010
0000
1000
0000
1000
0000
0100
0000
,  // measure 65
0010
0001
0010
0000
0001
0000
1000
0000
1000
0000
0001
0000
0100
0000
0010
0100
,  // measure 66
0010
0100
0010
0000
1000
0000
1000
0000
0100
0000
0010
0000
0010
0000
0001
0010
,  // measure 67
0001
0000
1000
0000
0001
0000
0001
0000
0100
0000
0010
0000
0010
0000
1000
0001
,  // measure 68
1000
0000
0000
0000
;

//---------------dance-single - ----------------
#NOTEDATA:;
#CHARTNAME:;
#STEPSTYPE:dance-single;
#DESCRIPTION:;
#CHARTSTYLE:;
#DIFFICULTY:Medium;
#METER:7;
#RADARVALUES:0.454384,0.474053,0.278855,0.470568,0.069714,365.000000,333.000000,32.000000,54.000000,0.000000,0.000000,0.000000,0.000000,0.000000,0.454384,0.474053,0.278855,0.470568,0.069714,365.000000,333.000000,32.000000,54.000000,0.000000,0.000000,0.000000,0.000000,0.000000;
#CREDIT:;
#NOTES:
// measure 0
2200
0000
0000
0000
0000
0000
0000
0300
,  // measure 1
0001
0000
0000
0000
0000
3001
0000
2002
,  // measure 2
0000
0000
0000
0000
0000
0000
3003
0202
,  // measure 3
0000
0303
0220
0000
0330
0020
2000
0000
,  // measure 4
0000
0000
0030
3010
,  // measure 5
0000
0000
0000
1000
0000
1002
0000
1003
,  // measure 6
0100
0010
0001
1000
0001
1001
0000
0000
,  // measure 7
0110
0000
0000
0010
0100
0000
0000
0010
,  // measure 8
0000
0000
1000
0010
0100
0000
0000
0001
,  // measure 9
0000
0010
0100
1000
0000
0000
0100
0000
,  // measure 10
0000
1000
0100
0010
0000
0000
0001
0000
,  // measure 11
0100
0000
0001
0000
1000
0000
0000
0100
0000
0000
0010
0000
0000
0001
0000
0000
,  // measure 12
1000
0000
0010
0000
0100
0000
0000
0010
0000
0000
1000
0000
0000
0001
0000
0000
,  // measure 13
0100
0000
0001
0000
0000
0010
0000
0000
0100
0000
0000
1000
0000
0000
0010
0000
,  // measure 14
1000
0000
0010
0000
0000
0100
0000
0000
0001
0000
0000
0010
0000
0000
0100
0000
,  // measure 15
1000
0100
1000
0010
0100
0001
0000
1000
,  // measure 16
0000
0010
0000
0100
0000
0001
0000
0010
,  // measure 17
0100
1000
0001
0100
0010
1000
0001
0000
,  // measure 18
0010
0001
0010
0000
0200
0000
1300
0100
,  // measure 19
1000
0010
0100
0001
0000
0010
0000
0100
,  // measure 20
0000
0010
0000
0001
1000
0010
0000
0010
,  // measure 21
1000
0000
0010
1000
0001
0000
0100
0001
,  // measure 22
0010
0000
0200
0000
0300
0010
0001
1000
,  // measure 23
0010
0100
0010
1000
0000
0001
0100
0001
,  // measure 24
0000
1000
0010
1000
0000
0010
0100
0001
,  // measure 25
0010
0100
1000
0000
0100
0000
1000
0000
,  // measure 26
0001
0100
0001
1000
0010
0100
0001
0010
,  // measure 27
0100
1000
0000
0100
0000
1000
0000
0001
,  // measure 28
0100
0001
0000
2000
0002
0000
3003
0010
,  // measure 29
0100
0000
0020
0002
0000
0000
0033
0000
,  // measure 30
1000
0010
0100
0001
0010
0100
1000
0200
,  // measure 31
0000
0010
0000
0001
0000
1300
0000
0100
,  // measure 32
1000
0001
0000
0100
0000
0001
0010
0100
,  // measure 33
1000
0000
0000
2200
0000
3300
2002
0000
,  // measure 34
3003
0001
0010
0100
1000
0100
0010
0002
,  // measure 35
0000
0010
0000
0100
0000
1003
0000
0001
,  // measure 36
2002
0000
3003
0220
0000
0330
0100
0000
,  // measure 37
0202
0000
0303
2002
0000
0000
3003
0000
,  // measure 38
0000
0100
0010
0001
1000
0010
0100
0002
,  // measure 39
0000
1000
0000
0010
0000
1003
0000
0001
,  // measure 40
1000
0010
0000
0100
0000
0010
1000
0100
,  // measure 41
0010
0000
0000
0022
0000
0033
2002
0000
,  // measure 42
3003
0001
0010
0100
1000
0010
1000
0020
,  // measure 43
0000
0100
0000
1000
0000
0130
0000
0001
,  // measure 44
0202
0000
0303
0220
0000
0330
0010
0000
,  // measure 45
2020
0000
3030
2200
0000
0000
3300
0000
,  // measure 46
0000
1000
0100
0010
0001
1000
0010
1000
,  // measure 47
0000
0010
1000
0001
0100
0001
0010
0100
,  // measure 48
0000
0010
0001
0100
0001
1000
0010
1000
,  // measure 49
0000
0010
1000
0001
0100
0001
0010
0100
,  // measure 50
0000
1000
0100
0010
0001
0100
0010
1000
,  // measure 51
0100
0010
0001
0100
0010
0010
1000
1000
,  // measure 52
0002
0000
0000
0000
,  // measure 53
2000
0000
0000
3003
,  // measure 54
2020
0000
0000
0000
0000
0000
0030
0010
,  // measure 55
0000
0010
0000
0010
0010
0000
0002
3000
,  // measure 56
0000
1000
1000
1000
1000
1000
1003
0000
,  // measure 57
0002
0000
1003
0100
0010
0001
1000
0010
,  // measure 58
0100
0001
1000
0001
0010
0100
2000
0000
,  // measure 59
3100
0010
0001
1000
0010
0100
0001
1000
,  // measure 60
0001
0010
0200
0000
1300
0000
0000
1100
,  // measure 61
0000
0000
0110
0000
0011
0000
0000
0101
,  // measure 62
0000
0000
1010
1010
0000
0000
0110
0000
,  // measure 63
0000
0101
0000
0011
0000
0000
0110
0000
,  // measure 64
2100
0000
0000
0000
3001
0000
0000
0100
0000
0000
0010
0000
0000
1000
0000
0000
,  // measure 65
0010
0000
0100
0000
0001
0000
0000
0010
0000
0000
0100
0000
0000
1000
0000
0000
,  // measure 66
0100
0000
0010
0000
0000
0001
0000
0000
1000
0000
0000
0010
0000
0000
0100
0000
,  // measure 67
0010
0000
1000
0000
0000
0001
0000
0000
0100
0000
0000
0001
0000
0000
0010
0000
,  // measure 68
1001
0000
0000
0000
;

//---------------dance-single - ----------------
#NOTEDATA:;
#CHARTNAME:;
#STEPSTYPE:dance-single;
#DESCRIPTION:;
#CHARTSTYLE:;
#DIFFICULTY:Easy;
#METER:5;
#RADARVALUES:0.303753,0.355540,0.243998,0.130713,0.000000,244.000000,216.000000,28.000000,15.000000,0.000000,0.000000,0.000000,0.000000,0.000000,0.303753,0.355540,0.243998,0.130713,0.000000,244.000000,216.000000,28.000000,15.000000,0.000000,0.000000,0.000000,0.000000,0.000000;
#CREDIT:;
#NOTES:
0202
0000
0000
0300
,
0100
0000
0000
0000
0000
1000
0000
2003
,
0000
0000
0000
0000
0000
0000
3000
0002
,
0000
0003
0200
0000
0300
0000
0220
0000
,
0000
0000
0300
0100
,
0000
0000
0000
2030
0000
3002
0000
0000
,
0000
0000
0000
0000
0000
0103
0000
0000
,
0010
0000
0000
1000
0001
0000
0000
0100
,
0000
0000
0010
0000
1000
0000
0000
0100
,
0000
1000
0000
0100
0000
0000
0010
0000
,
0000
0001
0000
0100
0000
0000
0010
0000
,
1000
0000
1001
0000
0000
1100
0000
0000
,
0010
0000
0110
0000
0000
0011
0000
0001
,
0000
0101
0000
0000
1001
0000
0000
1000
,
0000
1100
0000
0000
0110
0000
0000
0010
,
0001
0000
1000
0000
0010
0000
0100
0010
,
0000
1000
0000
1000
0000
1000
0000
0000
,
0001
0100
0010
1000
,
0100
1000
0001
2000
,
3001
0000
0100
0000
0010
1000
0000
0010
,
0000
1000
0000
0001
0000
0100
0000
0000
,
0001
0100
0010
1000
,
0100
0010
0001
0100
,
0010
1000
0000
0100
,
0010
0001
1000
0010
,
0100
0001
1000
0100
,
0010
0100
0010
0001
,
1000
0000
0010
1000
,
0001
0100
0000
0000
0110
0000
0000
0000
,
0010
0000
0000
1010
0000
0000
0000
0000
,
1000
0000
0010
0000
0100
0000
0001
0010
,
0000
0001
0000
0010
0000
0100
0000
0000
,
1000
0100
0010
0001
,
1000
0000
0000
1010
0000
0000
0110
0000
,
0000
0000
0010
0000
1000
0000
0001
0100
,
0000
0001
0000
0010
0000
0100
0000
0000
,
0010
0000
0000
0001
0000
0000
1000
0000
,
0001
0000
0000
0200
0000
0000
0300
0000
,
0010
0000
1000
0000
0010
0000
0100
0001
,
0000
1000
0000
0100
0000
0010
0000
0000
,
0100
0010
0001
1000
,
0010
0000
0000
0110
0000
0000
1001
0000
,
0000
0000
1000
0000
0100
0000
0010
0001
,
0000
0100
0000
0010
0000
1000
0000
0000
,
0010
0000
0000
1000
0000
0000
0010
0000
,
0100
0000
0000
2002
0000
0000
3003
0000
,
0000
0000
0100
0000
0010
0000
1000
0100
,
0000
0000
0010
0000
0001
0000
0100
0001
,
0000
0000
1000
0000
0100
0000
0010
0100
,
0000
0000
0010
0000
0001
0000
1000
0001
,
0000
0100
0001
1000
,
0100
0000
0010
0000
0001
0010
0001
0010
,
0001
1000
0001
0100
,
0220
0000
0000
0330
,
1001
0000
0000
0000
,
0000
0000
0000
0110
,
0000
0000
0000
0000
,
0000
1000
0010
0100
,
0001
0010
0100
1000
,
0100
0010
0001
0100
,
0010
0000
1000
0000
0010
0000
0000
0100
,
0000
0000
0001
0000
0100
0000
0000
0001
,
0000
0000
1000
0001
0000
0000
1000
0000
,
0000
0100
0000
0010
0000
0000
0001
0000
,
0010
0000
1100
0000
0000
1001
0000
0000
,
0100
0000
0101
0000
0000
0011
0000
0010
,
0000
0110
0000
0000
1100
0000
0000
1000
,
0000
1001
0000
0000
0110
0000
0000
1000
,
0001
0000
0000
0000
;

//---------------dance-single - ----------------
#NOTEDATA:;
#CHARTNAME:;
#STEPSTYPE:dance-single;
#DESCRIPTION:;
#CHARTSTYLE:;
#DIFFICULTY:Beginner;
#METER:1;
#RADARVALUES:0.123244,0.207398,0.104571,0.095856,0.000000,99.000000,87.000000,12.000000,11.000000,0.000000,0.000000,0.000000,0.000000,0.000000,0.123244,0.207398,0.104571,0.095856,0.000000,99.000000,87.000000,12.000000,11.000000,0.000000,0.000000,0.000000,0.000000,0.000000;
#CREDIT:;
#NOTES:
0002
0000
0000
0000
,
0003
0000
0000
0000
0000
0000
0000
0200
,
0000
0000
0000
0000
0000
0000
0000
0300
,
0000
0000
0000
0020
,
0000
0000
0000
0030
,
0000
0000
0000
0000
0000
2000
0000
0000
,
0000
0000
0000
0000
0000
3000
0000
0000
,
0000
0000
0001
0000
,
0000
0000
1000
0000
,
0000
0000
0000
0010
0000
0000
0000
0000
,
0000
0000
0000
0100
0000
0000
0000
0000
,
0000
1001
0000
0000
,
0000
0110
0000
0000
,
0000
0110
0000
0000
0000
0000
0000
0000
,
0000
1001
0000
0000
0000
0000
0000
0000
,
0010
0000
0000
0010
,
0000
0000
0000
0100
,
0000
0000
0000
0001
,
0000
0000
0000
1000
,
0000
0000
0000
0010
,
0000
0000
0000
0100
,
0000
0000
0001
0000
,
0000
0000
1000
0000
,
0000
0010
0000
0000
,
0000
0100
0000
0000
,
0000
0001
0000
0000
,
0000
0010
0000
0000
,
0000
0001
0000
0000
,
0000
1000
0000
0000
0000
0000
0000
0000
,
0001
0000
0000
0000
,
0100
0000
0010
0000
,
0100
0000
0001
0000
,
1000
0000
0100
0000
,
1000
0000
1001
0000
,
0001
0000
0100
0000
,
0001
0000
0010
0000
,
0100
0000
0010
0000
,
0001
0000
1000
0000
,
0001
0000
0100
0000
,
0010
0000
1000
0000
,
0100
0000
1000
0000
,
0001
0000
0110
0000
,
0010
0000
1000
0000
,
0100
0000
1000
0000
,
0001
0000
0100
0000
,
0010
0000
1000
0000
,
0002
0000
0003
0000
,
2000
0000
0000
0000
0000
3000
0000
0000
,
0020
0000
0030
0000
,
0200
0000
0300
0000
,
0001
0000
0001
0000
,
1000
0000
1000
1000
,
1000
0000
0010
0000
,
0220
0000
0000
0000
,
0330
0000
0000
0000
,
0000
0000
0000
0002
,
0000
0000
0000
0003
,
0000
1000
0000
0000
,
0010
0000
0000
0100
,
0000
0000
0001
0000
,
0000
0010
0010
0000
,
0000
0000
0001
0000
,
0000
0000
0000
0100
0000
0000
0000
0000
,
0000
0000
0000
0010
0000
0000
0000
0000
,
0000
1001
0000
0000
,
0000
0110
0000
0000
,
0000
0110
0000
0000
0000
0000
0000
0000
,
0000
1001
0000
0000
0000
0000
0000
0000
,
0110
0000
0000
0000
;

//---------------dance-single - ----------------
#NOTEDATA:;
#CHARTNAME:;
#STEPSTYPE:dance-single;
#DESCRIPTION:;
#CHARTSTYLE:;
#DIFFICULTY:Challenge;
#METER:12;
#RADARVALUES:0.846524,0.977735,0.505425,0.296283,0.731994,680.000000,622.000000,58.000000,34.000000,0.000000,0.000000,0.000000,0.000000,0.000000,0.846524,0.977735,0.505425,0.296283,0.731994,680.000000,622.000000,58.000000,34.000000,0.000000,0.000000,0.000000,0.000000,0.000000;
#CREDIT:;
#NOTES:
// measure 0
2002
0000
0000
0000
0000
0000
0003
0001
,  // measure 1
0002
0000
0000
0000
3003
0101
0000
0220
,  // measure 2
0000
0000
0000
0000
0000
0000
0330
2020
,  // measure 3
0000
3030
2002
0000
3003
0100
0202
0000
,  // measure 4
0000
0000
0000
0000
0300
1000
2000
0000
,  // measure 5
0000
0000
3003
1100
0000
0210
0000
0310
,  // measure 6
0001
0000
0000
1000
0000
0000
0001
0000
0000
0100
0000
0000
0010
0000
0000
1001
0000
0000
1000
0001
1000
0000
0000
0000
,  // measure 7
0101
0000
0000
0000
0000
0000
0001
0000
0100
0000
0001
0000
0000
0000
0000
0000
0000
0000
1000
0000
0000
0000
0000
0000
0001
0000
0000
0010
0000
0000
0001
0000
0000
0010
0000
0000
0001
0000
0000
0000
0000
0000
1000
0000
0000
0010
0000
0000
,  // measure 8
1000
0010
1000
0000
0100
0010
0100
0000
1000
0100
1000
0100
1000
0000
0001
0010
,  // measure 9
0001
0010
0001
0010
0100
1000
0001
1000
0001
1000
0001
0000
0100
0010
0100
0010
,  // measure 10
0100
0000
0001
0100
0001
0000
1000
0010
1000
0010
1000
0000
0001
1000
0001
1000
,  // measure 11
0001
0010
0100
1000
0100
0010
0100
1000
0001
0100
0010
0100
0001
1000
0100
1000
,  // measure 12
0001
0010
0200
0000
0310
0100
1000
0001
1000
0010
0100
0001
0100
0010
1000
0100
,  // measure 13
1000
0001
0010
0100
0010
0100
1000
0001
1000
0010
0100
0001
0100
0010
1000
0001
,  // measure 14
2000
0000
3100
0010
0001
0100
0010
1000
0001
0100
0010
0100
0001
1000
0010
1000
,  // measure 15
0100
0000
1000
0010
0100
0000
0001
0000
0010
0000
0100
0000
1000
0000
0100
0000
,  // measure 16
0000
0110
0000
0011
0000
1001
0000
1000
,  // measure 17
0010
0100
0001
0010
0001
1000
0200
0000
,  // measure 18
1300
0000
0100
0000
0020
0000
0000
0000
0031
0010
0100
1000
0001
0000
1000
0010
,  // measure 19
0100
0010
1000
0001
0100
0001
0000
0110
,  // measure 20
0000
0000
1100
0000
0000
0000
1000
0000
0010
0000
0100
0000
0000
0000
0001
0100
,  // measure 21
0002
0000
1003
0100
0020
0000
0130
1000
,  // measure 22
0001
0000
0000
0000
1000
0001
0100
0001
1000
0000
0010
0000
1000
0000
0010
0000
,  // measure 23
0100
0000
0001
0000
0010
0000
0200
0000
0000
0000
1300
0010
0100
0000
0002
0000
,  // measure 24
0000
0000
0013
1000
0010
0000
0001
0000
0100
0000
0001
0000
0100
0000
0010
0000
,  // measure 25
1000
0000
0100
0000
0020
0000
0000
0000
0130
0010
0100
0000
2000
0000
0000
0000
,  // measure 26
3001
0100
0010
1000
0001
0000
1000
0000
0010
0000
0100
0000
0010
0000
1000
0000
,  // measure 27
0001
0100
0000
0001
0010
0100
0000
1000
,  // measure 28
0100
0010
0001
0000
0000
0010
0001
0000
1001
0000
0000
1000
0010
0000
1000
0000
,  // measure 29
1010
0000
0000
0010
0100
0000
0101
0000
0001
0000
0010
0100
1000
0100
0010
0001
,  // measure 30
1000
0000
0100
1000
0010
0000
0100
0000
0001
0000
0010
0000
0100
0000
1000
0000
,  // measure 31
0000
1100
0000
1010
0000
0120
0000
1030
,  // measure 32
0010
0100
0010
0000
1000
0000
0001
0000
0100
0000
0001
0000
0010
0000
0100
0000
,  // measure 33
2000
0000
0000
0000
3100
0000
0012
0000
0000
0000
0013
0000
0001
1000
0001
1000
,  // measure 34
0010
0000
1000
0001
0100
0000
0001
0000
0010
0000
0100
0000
1000
0000
0100
0000
,  // measure 35
0000
0000
0110
0000
0000
0000
0011
0000
0000
0000
0101
0000
0010
0100
0010
0000
,  // measure 36
1010
0000
0000
1000
0010
0000
0110
0000
0000
0000
0001
0000
0101
0000
0000
0000
,  // measure 37
1001
0000
0000
1000
0001
0000
2010
0000
0000
0000
3010
0000
1000
0010
0100
0001
,  // measure 38
1000
0000
0100
1000
0010
0000
0100
0000
0001
0000
0010
0000
0100
0000
1000
0000
,  // measure 39
0000
1100
0000
1010
0000
0110
0000
1000
,  // measure 40
0001
0100
0001
0000
1000
0000
0100
0000
0010
0000
0100
0000
1000
0000
0001
0000
,  // measure 41
0101
0000
0000
0000
1000
0000
1002
0000
0000
0000
1003
0000
0100
0010
0100
0010
,  // measure 42
0001
0000
1000
0010
0100
0000
0010
0000
1000
0000
0001
0000
0100
0000
0001
0000
,  // measure 43
0000
0110
0000
1100
0000
1010
0000
1000
,  // measure 44
1010
0000
0000
0010
0100
0000
2001
0000
0000
0000
3001
0000
0011
0000
0000
0000
,  // measure 45
0110
0000
0000
1000
0100
0000
0210
0000
0000
0000
0310
0000
0001
0010
0001
0010
,  // measure 46
0001
0000
0010
0100
1000
0000
0010
0000
0100
0000
0001
0000
1000
0000
0100
0000
,  // measure 47
0010
0000
0100
1000
0010
0000
0100
0000
0001
0000
1000
0000
0001
0000
0010
0000
,  // measure 48
0100
0000
1000
0100
0010
0000
0001
0000
1000
0000
0010
0000
0100
0000
0010
0000
,  // measure 49
1000
0000
0010
0100
0001
0000
1000
0000
0001
0000
0100
0000
0001
0010
0001
1000
,  // measure 50
0100
0000
0010
0001
1000
0000
0010
0000
0100
0000
0010
1000
0010
0000
0100
0000
,  // measure 51
0001
0000
0010
0100
1000
0000
0100
0000
0010
0001
1000
0001
0100
0010
1000
0010
,  // measure 52
0100
0000
0010
0000
1000
0000
0001
0000
0101
0000
1000
0000
1001
0000
0010
0100
,  // measure 53
1000
0000
0000
0100
1000
0000
0110
0000
0000
0000
1000
0000
0001
1000
0001
0100
,  // measure 54
0002
1000
1000
1000
1000
1000
1003
1001
,  // measure 55
0000
0000
1010
0000
0000
0000
0010
0000
1000
0010
0100
0000
0201
0000
0001
0000
,  // measure 56
0001
0301
1000
0010
0100
0001
1000
0001
,  // measure 57
0010
0100
1000
0010
0100
0000
0001
0000
0100
0000
0010
0000
0101
0000
0101
0000
,  // measure 58
0010
0000
1000
0000
0100
0000
0010
0000
0110
0000
0110
0000
0100
1000
0001
0000
,  // measure 59
1001
0000
1000
0010
0100
0000
0101
0000
0001
0100
0010
0000
1010
0000
1000
0100
,  // measure 60
0010
0000
0011
0000
0100
0010
0001
1000
0100
1000
0100
1000
0100
0000
0010
0100
,  // measure 61
0010
0100
0010
0000
0001
0010
0001
0000
1000
0001
1000
0001
1000
0000
0010
1000
,  // measure 62
0010
1000
0001
0100
0010
1000
0100
0010
0100
0010
0100
0000
0010
0001
0010
0001
,  // measure 63
0010
0000
0100
1000
0100
0000
1000
0001
1000
0001
1000
0000
0001
0100
0001
0100
,  // measure 64
0001
0100
0010
1000
0001
1000
0100
0010
0001
0010
0100
1000
0001
1000
0010
0100
,  // measure 65
0001
0100
0020
0000
0130
0001
1000
0010
1000
0100
0010
0001
0010
0100
1000
0001
,  // measure 66
1000
0010
1000
0100
0010
0001
0100
0010
0100
0001
1000
0010
1000
0100
0010
0001
,  // measure 67
0020
0000
0130
1000
0001
1000
0010
0100
0001
0100
0010
1000
0001
1000
0100
0010
,  // measure 68
0110
0000
0000
0000
;
