#TITLE:Shamisen Drives the Wind;
#SUBTITLE:;
#ARTIST:Kitkit Lu;
#TITLETRANSLIT:;
#SUBTITLETRANSLIT:;
#ARTISTTRANSLIT:;
#GENRE:;
#CREDIT:mf32892;
#BANNER:[Voiceless Week] - Shamisen Drives the Wind.png;
#BACKGROUND:[Voiceless Week] - Shamisen Drives the Wind-bg.png;
#LYRICSPATH:;
#CDTITLE:cdtitle.png;
#MUSIC:[Voiceless Week] - Shamisen Drives the Wind.ogg;
#OFFSET:-0.219399;
#SAMPLESTART:47.966648;
#SAMPLELENGTH:15.712940;
#SELECTABLE:YES;
#BPMS:0.000000=140.011993
;
#STOPS:
;
#BGCHANGES:;
#KEYSOUNDS:;
#ATTACKS:;

//---------------dance-single - ----------------
#NOTES:
     dance-single:
     :
     Hard:
     7:
     0.430239,0.426449,0.107241,0.375342,0.044684,283.000000,12.000000,42.000000,0.000000,0.000000,0.000000,0.430239,0.426449,0.107241,0.375342,0.044684,283.000000,12.000000,42.000000,0.000000,0.000000,0.000000:
// measure 0
0000
0000
0000
0000
,  // measure 1
0000
0000
0000
0000
,  // measure 2
0000
0000
0000
0000
,  // measure 3
0000
0000
0000
0000
,  // measure 4
0000
0000
0000
0000
,  // measure 5
0000
0000
0000
0000
,  // measure 6
0000
0000
0000
0000
,  // measure 7
0002
0000
2003
0000
,  // measure 8
3010
0100
0002
0000
,  // measure 9
1003
0100
0010
0000
,  // measure 10
0200
0000
0000
0000
,  // measure 11
0020
0000
0000
0330
,  // measure 12
0001
0100
0010
1000
0000
0100
1000
0001
,  // measure 13
0010
0100
0010
0001
0000
0100
0001
0000
,  // measure 14
1000
0010
0100
0001
0000
1000
0100
1000
,  // measure 15
0001
0010
0001
0010
0100
1000
0100
1000
,  // measure 16
0001
0100
0010
1000
0000
0100
1000
0001
,  // measure 17
0010
0100
0010
0001
0000
1000
0001
0000
,  // measure 18
0100
0010
1000
0001
0000
0010
0100
0010
,  // measure 19
0001
0100
1000
0100
0001
0000
0000
0000
,  // measure 20
1000
0000
0000
1000
0002
0000
0003
0000
,  // measure 21
0010
0000
0000
0010
0200
0000
0300
0000
,  // measure 22
1000
0000
0000
1000
0020
0000
0030
0000
,  // measure 23
0100
0000
0000
0100
0000
0000
0001
0000
2000
0000
0000
0000
3000
0000
0000
0000
,  // measure 24
0100
0000
0000
0100
0020
0000
0030
0000
,  // measure 25
0001
0000
0000
0001
2000
0000
3000
0000
,  // measure 26
0020
2030
3200
0320
,  // measure 27
0032
0000
0000
1003
,  // measure 28
0002
0000
0103
0010
2000
0000
3100
1000
,  // measure 29
0001
0010
0100
1000
0002
0000
1003
0000
,  // measure 30
0101
0000
0000
0100
0000
0000
0010
0000
2000
0000
0000
0000
3100
0000
0000
0000
,  // measure 31
1100
0000
0000
0100
0000
0000
0010
0000
0002
0000
0000
0000
1003
0000
0000
0000
,  // measure 32
0002
0000
0103
0010
2000
0000
3100
0010
,  // measure 33
0001
1000
0010
0100
0002
0000
1003
0000
,  // measure 34
0101
0000
0000
0001
0000
0000
0010
0000
0200
0000
0000
0000
1300
0000
0001
0000
,  // measure 35
1000
0100
0001
0100
1000
0000
0000
0000
,  // measure 36
0001
0100
0010
1000
0000
1000
0001
0000
,  // measure 37
1000
0100
0010
0001
0000
0001
1000
0000
,  // measure 38
0001
0100
0010
1000
0000
1000
0001
0000
,  // measure 39
1000
0100
1000
0100
0010
0001
0010
0001
,  // measure 40
1000
0010
0100
0001
0000
1000
0001
1000
,  // measure 41
0001
0010
0100
1000
0000
0001
1000
0001
,  // measure 42
1000
0010
0100
0001
0000
1000
0001
0010
,  // measure 43
0001
0100
1000
0100
0002
0000
0003
0000
,  // measure 44
2000
3000
0002
0003
,  // measure 45
0010
0100
2000
3000
,  // measure 46
0001
0100
0020
0030
,  // measure 47
1000
0100
1000
0100
0010
0001
0010
0001
,  // measure 48
2000
0000
3001
0000
1001
0000
0000
0001
,  // measure 49
0000
1000
0001
0000
0011
0000
0000
0100
,  // measure 50
0100
0000
1000
0000
1001
0000
0000
1000
,  // measure 51
0000
1000
0010
0000
1001
0000
0000
0000
,  // measure 52
0002
0000
0103
0010
2000
0000
3100
1000
,  // measure 53
0001
0010
0100
1000
0002
0000
1003
0000
,  // measure 54
1010
0000
0000
0010
0000
0000
0100
0000
0002
0000
0000
0000
0013
0000
0000
0000
,  // measure 55
0011
0000
0000
0010
0000
0000
0100
0000
2000
0000
0000
0000
3001
0000
0000
0000
,  // measure 56
2000
0000
3001
0100
0020
0000
1030
0100
,  // measure 57
1000
0001
0010
0100
2000
0000
3001
0000
,  // measure 58
1100
0000
0000
1000
0000
0000
0010
0000
0200
0000
0000
0000
0300
0000
0000
0000
,  // measure 59
0001
1000
0010
1000
0100
1000
0001
0000
,  // measure 60
0011
0000
0000
0001
0000
0000
0100
0000
0020
0000
0000
0000
0030
0000
0000
0000
,  // measure 61
1000
0000
0000
0100
0000
0000
0010
0000
0001
0000
1000
0000
0010
0000
0100
0000
,  // measure 62
0101
0000
0000
0001
0000
0000
1000
0000
0200
0000
0000
0000
0300
0000
0010
0000
,  // measure 63
0001
0100
1000
0100
0001
0100
0000
0000
;

//---------------dance-single - ----------------
#NOTES:
     dance-single:
     :
     Challenge:
     8:
     0.546416,0.511738,0.125114,0.437899,0.067025,365.000000,14.000000,49.000000,0.000000,0.000000,0.000000,0.546416,0.511738,0.125114,0.437899,0.067025,365.000000,14.000000,49.000000,0.000000,0.000000,0.000000:
// measure 0
0000
0000
0000
0000
,  // measure 1
0000
0000
0000
0000
,  // measure 2
0000
0000
0000
0000
,  // measure 3
0000
0000
0000
0000
,  // measure 4
0000
0000
0000
0000
,  // measure 5
0000
0000
0000
0000
,  // measure 6
0000
0000
0000
0000
0000
0000
0000
1000
,  // measure 7
0002
0000
0003
0010
0002
0000
0003
0100
,  // measure 8
0010
1000
0100
0010
0002
0000
0003
1000
,  // measure 9
0100
0000
0000
1000
0000
0000
0010
0000
0100
0000
0000
0000
0001
0000
0000
0000
,  // measure 10
2000
0000
0000
0000
,  // measure 11
0002
0000
0000
3003
,  // measure 12
1000
0100
0010
0100
1000
0010
1000
0010
,  // measure 13
0100
0001
1000
0001
0010
0100
0010
0100
,  // measure 14
1000
0010
0100
0010
1000
0001
1000
0001
,  // measure 15
1000
0100
0010
0001
1000
0100
0010
0001
,  // measure 16
1001
0001
0100
0010
0100
0001
0010
0100
,  // measure 17
1000
1000
0010
0100
0010
1000
0001
0010
,  // measure 18
0100
0100
0010
0001
1000
0010
0100
0010
,  // measure 19
1000
0100
0010
0001
0200
0000
0300
0000
,  // measure 20
0010
0000
0100
0010
0102
0000
1003
0000
,  // measure 21
1001
0000
0100
0010
1200
0000
0310
0000
,  // measure 22
1001
0000
0010
0100
0102
0000
1003
0000
,  // measure 23
1001
0000
0000
0001
0010
0000
0100
0000
2100
0000
0000
0000
3001
0000
0000
0000
,  // measure 24
1010
0000
0001
0100
2001
0000
3100
0000
,  // measure 25
0011
0000
1000
0100
1002
0000
0103
0000
,  // measure 26
0002
0203
2300
3020
,  // measure 27
0032
0000
0000
0000
2003
0000
3100
1000
,  // measure 28
0002
0000
0103
0010
2000
0000
3100
1000
,  // measure 29
0001
0010
0100
0010
0002
0000
0103
0010
,  // measure 30
1000
0000
0000
0100
1000
0000
0001
0000
0020
0000
0000
0000
0130
0000
0010
0001
,  // measure 31
1000
0000
0000
0010
0100
0000
0010
0000
2000
0000
0100
0000
3001
0000
0010
0000
,  // measure 32
0200
0000
0310
0001
0200
0000
0310
1000
,  // measure 33
0100
1000
0001
0010
0200
0000
0310
0001
,  // measure 34
1000
0000
0000
0001
0100
0000
0010
0000
2000
0000
0000
0000
3100
0000
1000
0000
,  // measure 35
0001
0010
1000
0010
0002
0000
1003
0000
,  // measure 36
1000
0100
0010
0100
1000
0100
0010
0100
,  // measure 37
1000
0001
0100
0001
1000
0001
0100
0001
,  // measure 38
1000
0100
0010
0100
1000
0100
0001
0100
,  // measure 39
1000
1000
0010
0010
0100
0100
0001
0100
,  // measure 40
0101
0100
0010
0100
0001
0100
0010
0100
,  // measure 41
0001
1000
0100
1000
0001
1000
0100
1000
,  // measure 42
0001
0100
0010
0100
0001
0100
1000
0100
,  // measure 43
0001
0010
0100
1000
0002
0000
0003
1000
,  // measure 44
0002
0000
0003
0010
0002
0000
0003
0100
,  // measure 45
0010
1000
0100
1000
0002
0000
0003
0100
,  // measure 46
0010
0000
0000
1000
0000
0000
0100
0000
0020
0000
0000
0000
0030
0000
0001
0000
,  // measure 47
1000
0000
0000
0010
0000
0000
0001
0000
0010
0000
1000
0000
0100
0000
0010
0000
,  // measure 48
0002
0000
1003
0020
0100
0000
0000
0130
,  // measure 49
0010
1000
0100
1000
0002
0000
0003
0010
,  // measure 50
0100
0000
0000
1000
0010
0000
1000
0000
0002
0000
0000
0000
0013
0000
0001
0000
,  // measure 51
0100
1000
0100
0001
2000
0000
3100
1000
,  // measure 52
0002
0000
0103
0010
2000
0000
3100
1000
,  // measure 53
0001
0010
0100
0010
0002
0000
1003
0010
,  // measure 54
0100
0000
0000
0010
1000
0000
0001
0000
0020
0000
0000
0000
0130
0000
0010
0000
,  // measure 55
0001
0000
0000
1000
0001
0000
1000
0000
0020
0000
0100
0000
1030
0000
0001
0000
,  // measure 56
0020
0000
0130
0010
0002
0000
0103
1000
,  // measure 57
0100
0001
1000
0100
0020
0000
1030
0010
,  // measure 58
0001
0000
0000
1000
0001
0000
0100
0000
0020
0000
0000
0000
0031
0000
0010
0000
,  // measure 59
0100
0001
1000
0100
0010
1000
0010
0001
,  // measure 60
1000
0000
0000
0010
0100
0000
0001
0000
2000
0000
0000
0000
3100
0000
0001
0000
,  // measure 61
0100
0000
0000
1000
0000
0000
0010
0000
0100
0000
0001
0000
0010
0000
1000
0000
,  // measure 62
0010
0000
0000
0100
1000
0000
0001
0000
0020
0000
0000
0000
0130
0000
1000
0000
,  // measure 63
0001
0100
1000
0100
0001
1001
0000
0000
;

//---------------dance-single - ----------------
#NOTES:
     dance-single:
     :
     Medium:
     5:
     0.379172,0.426449,0.026810,0.455772,0.000000,243.000000,3.000000,51.000000,0.000000,0.000000,0.000000,0.379172,0.426449,0.026810,0.455772,0.000000,243.000000,3.000000,51.000000,0.000000,0.000000,0.000000:
0000
0000
0000
0000
,
0000
0000
0000
0000
,
0000
0000
0000
0000
,
0000
0000
0000
0000
,
0000
0000
0000
0000
,
0000
0000
0000
0000
,
0000
0000
0000
0000
,
0002
0003
2000
3000
,
0001
0100
0020
0030
,
2000
3000
0002
0003
,
0020
0000
0000
0000
,
0000
0000
0000
0030
,
0100
0000
1000
0000
0010
1000
0010
0000
,
0100
0000
0001
0000
0010
0001
0010
0000
,
0100
0000
1000
0000
0010
1000
0010
0000
,
0100
0001
0100
0000
0001
1000
0001
0000
,
0010
0000
0100
0000
1000
0001
1000
0000
,
0010
0000
0100
0000
0001
1000
0001
0000
,
0010
0000
0100
0000
1000
0100
1000
0000
,
0001
0100
0001
0100
0002
0000
0003
0000
,
1000
0100
0010
0001
,
1000
0001
0200
0300
,
0010
1000
0001
1000
,
0001
0010
0200
0300
,
1000
0100
0001
0100
,
1000
0001
0200
0300
,
0010
0100
0001
1000
,
0200
0000
0000
0310
,
0002
0103
2000
3100
,
0001
0010
0100
1000
0002
0000
1003
0000
,
2000
0000
3010
0100
0002
0000
1003
0000
,
0002
0000
0013
0100
2000
0000
3020
0000
,
2030
3100
0002
0103
,
1000
0100
0010
0001
2000
0000
3001
0000
,
0002
0000
0013
0100
2000
0000
3010
0000
,
0010
1000
0100
0010
0002
0000
0003
0000
,
1000
0100
1000
0000
0010
0000
0100
0000
,
0001
0100
0001
0000
0010
0000
0100
0000
,
1000
0001
1000
0000
0010
0000
0100
0000
,
0001
1000
0100
0000
1000
0001
0100
0000
,
0010
1000
0010
0000
0100
0000
0001
0000
,
1000
0100
1000
0000
0001
0000
0010
0000
,
0100
0010
0001
0000
1000
0000
0001
0000
,
0100
0010
1000
0100
0020
0000
0030
0000
,
0002
0003
2000
3000
,
0010
0100
0002
0003
,
2000
3000
0200
0300
,
0010
0001
1000
0010
,
0200
0310
1001
0000
,
0001
0010
0110
0000
,
1000
0010
0110
0000
,
1000
0001
0200
0310
,
2000
3100
0002
0103
,
1000
0010
0100
0001
2000
0000
3001
0000
,
0002
0000
0013
0100
2000
0000
3001
0000
,
2000
0000
3010
0100
0002
0000
0023
0000
,
0032
0103
2000
3100
,
0001
0100
0010
1000
0002
0000
1003
0000
,
2000
0000
3010
0100
0002
0000
0013
0000
,
0010
0001
0100
0010
2000
0000
3000
0000
,
0002
0000
0013
0100
2000
0000
3010
0000
,
0100
0000
0001
0000
1000
0001
1000
0001
,
0200
0000
0310
1000
0200
0000
0310
0000
,
0001
0100
0001
1000
0100
0010
0000
0000
;

//---------------dance-single - ----------------
#NOTES:
     dance-single:
     :
     Easy:
     4:
     0.251505,0.226992,0.026810,0.330658,0.000000,157.000000,3.000000,37.000000,0.000000,0.000000,0.000000,0.251505,0.226992,0.026810,0.330658,0.000000,157.000000,3.000000,37.000000,0.000000,0.000000,0.000000:
0000
0000
0000
0000
,
0000
0000
0000
0000
,
0000
0000
0000
0000
,
0000
0000
0000
0000
,
0000
0000
0000
0000
,
0000
0000
0000
0000
,
0000
0000
0000
0000
,
0002
0003
2000
3000
,
0001
0010
0200
0300
,
2000
3000
0020
0030
,
0200
0000
0000
0000
,
0000
0000
0000
0300
,
0001
0001
1000
0000
,
0100
0010
0001
0000
,
1000
1000
0010
0000
,
0100
0001
0100
0001
,
1000
1000
0100
0000
,
0010
0001
1000
0000
,
0001
0100
0010
0000
,
0100
0100
0001
0000
,
1000
0000
0002
0003
,
0010
0000
0200
0300
,
1000
0000
0002
0003
,
0100
0000
0020
0030
,
1000
0000
2000
3000
,
0001
0000
0002
0003
,
0010
0100
0010
0001
,
2000
0000
0000
3001
,
0020
0030
0002
0003
,
1000
0001
0200
0300
,
0010
1000
0200
0300
,
0010
0001
2000
3000
,
0002
0003
2000
3000
,
0001
0100
0020
0030
,
1000
0100
2000
3000
,
0001
0010
0110
0000
,
1000
0100
1000
0000
,
0001
0100
0001
0000
,
0100
0010
1000
0000
,
0001
0001
1000
1000
,
0001
0010
0100
0000
,
1000
0001
0100
0000
,
0010
1000
0100
0000
,
0010
0001
2000
3000
,
0002
0003
2000
3000
,
0001
0100
0020
0030
,
1000
0000
0001
0000
,
0010
0000
0100
0000
,
2000
0001
3001
0000
,
0002
1000
1003
0000
,
0001
0100
0010
0000
,
1000
0001
1001
0000
,
2000
3000
0002
0003
,
0100
0010
2000
3000
,
0001
0001
0020
0030
,
0100
0100
0010
0001
,
1000
0010
0200
0300
,
0010
1000
0002
0003
,
1000
0100
0020
0030
,
0100
1000
0010
1000
,
0001
0010
0200
0300
,
0010
0001
1000
0001
,
0100
0010
2000
3000
,
0001
1000
1001
0000
;
