#TITLE:Prelude;
#SUBTITLE:(From Holberg Suite);
#ARTIST:Edvard Grieg;
#TITLETRANSLIT:;
#SUBTITLETRANSLIT:;
#ARTISTTRANSLIT:;
#GENRE:;
#CREDIT:;
#BANNER:[Voiceless Week] - Prelude (From Holberg Suite).png;
#BACKGROUND:[Voiceless Week] - Prelude (From Holberg Suite)-bg.png;
#LYRICSPATH:;
#CDTITLE:;
#MUSIC:[Voiceless Week] - Prelude (From Holberg Suite).ogg;
#OFFSET:0.520000;
#SAMPLESTART:87.800003;
#SAMPLELENGTH:12.000000;
#SELECTABLE:YES;
#BPMS:0.000000=153.639999
,18.000000=160.999939
,19.000000=155.999939
,31.000000=124.999924
,32.000000=152.600006
,83.000000=105.000000
,84.000000=151.000000
,92.000000=170.000000
,94.000000=149.000000
,99.000000=99.199997
,100.000000=150.000000
,108.000000=146.000000
,119.000000=120.000000
,120.000000=147.000000
,151.000000=155.000000
,152.000000=149.000000
,160.000000=147.100006
,169.000000=149.600006
,219.000000=108.000000
,220.000000=144.500000
,256.000000=165.000000
,257.000000=145.000000
,263.000000=159.000000
,264.000000=150.000000
,265.000000=145.000000
,272.000000=124.999992
,274.000000=130.800003
,280.000000=124.999992
,281.000000=110.000015
,283.250000=87.680000
,284.000000=99.379837
,285.750000=105.599831
;
#STOPS:
;
#BGCHANGES:;
#KEYSOUNDS:;
#ATTACKS:;

//---------------dance-single - ----------------
#NOTES:
     dance-single:
     :
     Medium:
     6:
     0.402918,0.518688,0.139090,0.247270,0.011591,365.000000,347.000000,18.000000,32.000000,0.000000,0.000000,0.402918,0.518688,0.139090,0.247270,0.011591,365.000000,347.000000,18.000000,32.000000,0.000000,0.000000:
// measure 0
0000
0000
0000
0000
,  // measure 1
1000
0100
0001
0100
,  // measure 2
1000
0010
1000
0100
,  // measure 3
1000
1000
0010
0010
,  // measure 4
0100
0001
0100
0010
,  // measure 5
1000
1000
0001
0001
,  // measure 6
0010
0010
0010
0100
,  // measure 7
1000
1000
0001
0001
,  // measure 8
1002
0103
1000
0100
,  // measure 9
0001
0010
0001
0100
,  // measure 10
1000
0000
0100
0000
0001
0000
0010
0100
,  // measure 11
1000
0100
0001
0100
,  // measure 12
1000
0000
0010
0000
1000
0000
0100
0010
,  // measure 13
0001
0000
0100
0000
0010
0000
1000
0100
,  // measure 14
0010
0000
0001
0000
0100
0000
0010
1000
,  // measure 15
0001
0010
0100
0100
,  // measure 16
1000
1000
0001
0001
,  // measure 17
0100
0001
0100
0010
0100
1000
0100
0010
,  // measure 18
0100
0001
0100
0010
1000
0001
0010
0000
,  // measure 19
0012
0000
1000
0000
0000
1003
0001
0100
,  // measure 20
0001
1000
0100
1000
0001
0100
0010
1000
,  // measure 21
0001
0100
0010
0100
,  // measure 22
0001
0010
0100
1000
,  // measure 23
2010
0000
0001
0000
3001
0100
0001
1000
,  // measure 24
0001
0100
0001
1000
0100
0010
0001
0000
,  // measure 25
1001
0000
1001
0000
1000
0100
1000
0000
,  // measure 26
0100
0010
0100
0000
0010
0001
0010
0000
,  // measure 27
0011
0000
1001
0000
0001
1000
0010
0000
,  // measure 28
1010
0000
1001
0000
1000
0001
0010
0000
,  // measure 29
0110
0000
0000
0000
0000
0000
0000
0100
,  // measure 30
1002
1000
1000
1000
,  // measure 31
0010
0010
1000
1000
,  // measure 32
0010
0010
0100
0100
,  // measure 33
1000
1000
0010
0010
,  // measure 34
2003
0001
0001
0001
,  // measure 35
0010
0010
0001
0001
,  // measure 36
0010
0010
0100
0100
,  // measure 37
0001
0001
0100
0100
,  // measure 38
3010
1000
0010
1000
0010
1000
0010
1000
,  // measure 39
0001
0100
0001
0100
0001
0100
0001
0100
,  // measure 40
0001
0100
0001
1000
0001
1000
0010
1000
,  // measure 41
1001
1010
1001
1100
,  // measure 42
1001
0000
2000
0000
0000
0000
3100
0010
,  // measure 43
0001
1000
1000
1000
,  // measure 44
0200
0000
0000
0000
0010
0010
0310
0000
,  // measure 45
0002
0000
0003
0100
,  // measure 46
0001
0100
1000
0000
1000
0100
0001
0000
,  // measure 47
0001
0010
1000
0000
1000
0010
0001
0000
,  // measure 48
0001
0100
0010
0000
0010
0100
0001
0000
,  // measure 49
0001
0010
0100
0000
0100
0010
0001
0000
,  // measure 50
1000
0100
0010
0000
0010
0100
1000
0000
,  // measure 51
1000
0010
0100
0000
0001
0010
0100
0000
,  // measure 52
1000
0001
0100
0000
0001
1000
0100
0000
,  // measure 53
1000
0100
1000
0000
0001
0000
0100
0000
,  // measure 54
0001
0100
0001
0000
1000
0000
0100
0000
,  // measure 55
1000
0100
0001
0100
,  // measure 56
0020
0001
0100
1000
,  // measure 57
0230
0000
0001
0000
0010
0000
1300
0100
,  // measure 58
0010
2000
0010
0001
,  // measure 59
0100
3002
0100
1000
,  // measure 60
0010
2003
0010
0001
,  // measure 61
3020
0001
0100
1000
,  // measure 62
0230
0001
0010
1000
,  // measure 63
1000
1000
1000
1000
,  // measure 64
0010
0000
0301
0100
0001
0100
1000
0100
,  // measure 65
1000
0100
1000
0001
1000
0001
0010
0000
,  // measure 66
0000
0000
0001
0010
0001
0010
0001
1000
,  // measure 67
0001
1000
0001
0100
0010
1000
0001
0000
,  // measure 68
1001
2000
3200
0302
,  // measure 69
0203
2300
3020
0032
,  // measure 70
0023
2030
3200
0320
,  // measure 71
0032
0000
0000
0000
0000
0000
0000
0000
0000
0000
0000
2003
0000
0000
0000
0000
,  // measure 72
0000
0000
3200
0000
0000
0000
0020
0000
0000
0330
0000
2002
,  // measure 73
0000
0000
0000
0000
,  // measure 74
0000
0000
0000
0000
0000
0000
0000
3003
0000
0000
0000
0000
;

//---------------dance-single - ----------------
#NOTES:
     dance-single:
     :
     Easy:
     4:
     0.258309,0.288160,0.054090,0.378633,0.011591,234.000000,227.000000,7.000000,49.000000,0.000000,0.000000,0.258309,0.288160,0.054090,0.378633,0.011591,234.000000,227.000000,7.000000,49.000000,0.000000,0.000000:
0000
0000
0000
0000
,
1000
1000
1000
0100
,
0010
0100
1000
0100
,
0010
0010
0001
0001
,
0100
0100
0100
0001
,
0001
0001
1000
1000
,
0010
0010
0010
0100
,
0010
0010
1000
1000
,
1001
0000
0000
1000
,
0020
0000
0000
0000
0000
0000
0000
0000
0000
0000
0000
0000
0000
0000
0000
0000
0000
0000
0000
0000
0030
0000
0000
0000
0020
0000
0000
0000
0000
0000
0000
0000
0000
0000
0000
0000
0000
0000
0000
0000
0000
0000
0000
0000
0000
0030
0000
0000
,
0200
0001
1000
0301
,
2000
0000
0000
0000
0000
0000
0000
3000
2000
0000
0000
0000
0000
0000
0000
3000
,
0200
0001
1000
0001
,
2300
0000
3200
0000
,
0302
0000
0203
0000
,
2300
3000
1000
0010
,
1000
0001
1000
0100
,
1000
1000
0100
0010
,
0100
1000
0001
0010
,
0022
0000
0000
0030
,
2000
3000
0200
0303
,
0001
0100
0001
0100
,
1000
0100
0010
0100
,
2002
0000
0000
0000
,
0000
0000
0000
3003
,
1000
0100
1000
0100
,
0010
0100
0010
0100
,
1000
0001
0010
0000
,
0100
1000
0010
0000
,
0110
0000
0000
0000
0000
0000
0000
0001
,
1000
0000
0000
1000
,
0020
0000
0230
0000
,
0302
0000
2003
0000
,
3020
0000
2030
0000
,
3200
0300
0000
0100
,
2000
0000
3200
0000
,
0302
0000
0203
0000
,
2300
0000
3020
0000
,
1030
1000
1000
1000
,
0100
0100
0100
0100
,
1000
0001
1000
0010
,
2010
3001
0002
0103
,
0001
1000
0100
0010
,
0001
1000
0001
1000
,
0100
0000
0100
1000
,
0001
1000
0001
0100
,
0010
0000
0010
1000
,
0001
0000
0001
1000
,
1000
0000
0010
0100
,
0010
0000
0100
0010
,
0100
0000
0001
1000
,
0001
0001
1000
1000
,
0100
0100
0001
0001
,
0100
1000
0100
0100
,
0100
0100
0100
1000
,
0001
0100
0001
0000
,
1000
0010
1000
0000
,
0001
0010
0001
0000
,
1000
0100
1000
0000
,
0001
0100
0001
0000
,
0001
0100
1000
0000
,
1000
0100
0001
0000
,
0001
0010
0100
1000
,
0100
0010
0001
0100
,
0010
1000
0001
1000
,
0100
0010
0001
1001
,
0000
0001
0100
0010
,
1000
0001
1000
0010
,
0000
2000
3200
0320
,
0230
2300
3200
0302
,
0203
2300
3200
0320
,
0032
0000
0000
0000
0000
0000
0000
0000
0000
0000
0000
2003
0000
0000
0000
0000
,
0000
0000
3020
0000
0000
0000
0200
0000
0000
0330
0000
2002
,
0000
0000
0000
0000
,
0000
0000
0000
0000
0000
0000
0000
3003
0000
0000
0000
0000
;

//---------------dance-single - ----------------
#NOTES:
     dance-single:
     :
     Beginner:
     2:
     0.139090,0.230528,0.023182,0.015454,0.000000,126.000000,123.000000,3.000000,2.000000,0.000000,0.000000,0.139090,0.230528,0.023182,0.015454,0.000000,126.000000,123.000000,3.000000,2.000000,0.000000,0.000000:
0000
0000
0000
0000
,
1000
0000
0000
0000
,
0000
0000
0000
0000
,
0001
0000
0010
0000
,
0100
0000
0000
0000
,
1000
0000
0001
0000
,
0010
0000
0000
0000
,
0010
0000
0100
0000
,
0010
0000
0000
0000
,
0001
0000
0000
0000
,
0100
0000
0000
0000
,
0001
0000
0000
0000
,
1000
0000
0000
0000
,
0010
0000
0000
0000
,
0100
0000
0000
0000
,
0001
0000
1000
0000
,
0000
0000
0000
0000
,
1001
0000
0000
0000
,
0000
0000
0000
0000
,
1001
0000
0000
0000
,
1000
0000
0001
0000
,
0100
0000
0000
0000
,
0001
0000
1000
0000
,
0010
0010
0000
0000
,
0000
0000
0000
0000
,
0100
0000
0000
0000
,
0000
0000
0000
0000
,
0001
0001
0001
0000
,
1000
1000
1000
0000
,
0100
0000
0000
0000
,
0010
0000
0000
0001
,
0001
0000
0100
0000
,
1000
0000
0100
0000
,
0001
0000
1000
0000
,
0001
0000
0000
1000
,
1000
0000
0100
0000
,
0001
0000
0100
0000
,
1000
0000
0001
0000
,
1000
0000
0000
0000
,
0100
0000
0000
0000
,
1000
1000
1000
1000
,
1000
0000
0000
0000
,
0000
0001
0000
1000
,
1000
1000
0000
0000
,
0100
0000
0010
0000
,
0001
0000
0000
1000
,
1000
0000
0010
0000
,
0100
0000
0000
0001
,
0001
0000
0010
0000
,
0010
0000
0100
0000
,
0100
0000
1000
0000
,
1000
1000
0000
0010
,
0000
0100
0000
0001
,
0000
1000
1000
0000
,
0001
0000
0000
0010
,
0010
0000
0000
0000
,
0010
0000
0010
0000
,
0100
0000
0000
0000
,
1000
0000
1000
0000
,
0100
0000
0000
0000
,
0001
0000
0000
0000
,
0100
0000
0000
0000
,
1000
0000
0001
0000
,
1000
0000
0100
0000
,
1000
1000
1000
1000
,
1000
1000
1000
1000
,
0000
0001
0001
0001
,
0001
0001
0001
0001
,
0000
0010
0010
0010
,
0000
0001
0001
0001
,
0000
1000
1000
1000
,
2002
0000
0000
0000
,
0000
0000
0000
0000
,
0000
0000
0000
0000
,
0000
0000
0000
0000
0000
0000
0000
3003
0000
0000
0000
0000
;

//---------------dance-double - ----------------
#NOTES:
     dance-double:
     :
     Hard:
     9:
     0.674474,0.749216,0.216362,0.324542,0.533177,611.000000,583.000000,28.000000,42.000000,0.000000,0.000000,0.674474,0.749216,0.216362,0.324542,0.533177,611.000000,583.000000,28.000000,42.000000,0.000000,0.000000:
00000000
00000000
00000000
00000000
,
00001000
00010000
00001000
00010000
00001000
00010000
00001000
00010000
,
00001000
01000000
00010000
10000000
01000000
00100000
00010000
00100000
,
00001000
00010000
00000010
00010000
00000010
00001000
00000010
00001000
,
00000010
00000100
00000001
00000100
00000001
00000100
00000001
00001000
,
00000001
00001000
00000010
00001000
00000010
00010000
00001000
00010000
,
00001000
00100000
00010000
00100000
00010000
00100000
00010000
00100000
,
01000000
00100000
00010000
00100000
00010000
10000000
00010000
10000000
,
00100000
00000000
00000000
00100000
10000000
00000000
00000000
10000000
01000000
00000000
00000000
01000000
00010000
00000000
00000000
00010000
,
00001000
00000000
00000000
00001000
00000100
00000000
00000000
00000100
00000001
00000000
00000000
00000001
00000010
00000000
00000000
00000010
,
00001000
00000000
00000000
00000000
00000000
00000000
00000000
00000000
00000000
00001000
00000000
00000000
00010000
00000000
00000000
00000000
00000000
00000000
00000000
00000000
00000000
00010000
00000000
00000000
01000000
00000000
00000000
00000000
00000000
00000000
00000000
00000000
00000000
01000000
00000000
00000000
00010000
00000000
00000000
00000000
00000000
00000000
00001000
00000000
00010000
00000000
00001000
00000000
,
00010000
00000000
00000000
00010000
00001000
00000000
00000000
00001000
00000100
00000000
00000000
00000100
00000001
00000000
00000000
00000001
,
00000010
00000000
00000000
00000000
00000000
00000000
00000000
00000000
00000000
00000010
00000000
00000000
00000100
00000000
00000000
00000000
00000000
00000000
00000000
00000000
00000000
00000100
00000000
00000000
00010000
00000000
00000000
00000000
00000000
00000000
00000000
00000000
00000000
00010000
00000000
00000000
00001000
00000000
00000000
00000000
00000000
00000000
00010000
00000000
00001000
00000000
00010000
00000000
,
00001000
00000000
00000000
00000000
00000000
00000000
00000000
00000000
00000000
00001000
00000000
00000000
00100000
00000000
00000000
00000000
00000000
00000000
00000000
00000000
00000000
00100000
00000000
00000000
00010000
00000000
00000000
00000000
00000000
00000000
00000000
00000000
00000000
00010000
00000000
00000000
10000000
00000000
00000000
00000000
00000000
00000000
00010000
00000000
01000000
00000000
00010000
00000000
,
10000000
00000000
00000000
00000000
00000000
00000000
00000000
00000000
00000000
10000000
00000000
00000000
01000000
00000000
00000000
00000000
00000000
00000000
00000000
00000000
00000000
01000000
00000000
00000000
00010000
00000000
00000000
00000000
00000000
00000000
00000000
00000000
00000000
00010000
00000000
00000000
00001000
00000000
00000000
00000000
00000000
00000000
00010000
00000000
00000100
00000000
00001000
00000000
,
00000100
00000000
00000000
00000100
00001000
00000000
00000000
00001000
00000001
00000000
00000000
00000001
00000010
00000000
00000000
00000010
,
00001000
00000000
00000000
00001000
00000010
00000000
00000000
00000010
00000001
00000000
00000000
00000001
00000100
00000000
00000000
00000100
,
00000001
00000000
00000100
00000001
00001000
00000000
00000100
00010000
00001000
00000000
01000000
00010000
10000000
00000000
01000000
10000000
,
00010000
00000000
01000000
00001000
00010000
00000000
00001000
00010000
00000010
00000000
00001000
00000001
00000010
00000000
00000000
00000000
,
00000012
00000000
00001003
00000000
00000001
00000100
00001000
00010000
,
01000000
10000000
01000000
00010000
00001000
00000100
00000001
00001000
,
00000001
00000010
00000100
00000010
00000001
00000100
00000010
00000100
,
00000001
00000010
00001000
00010000
01000000
10000000
00010000
00100000
,
21000000
00000000
00100000
00000000
30000000
00100000
10000000
00010000
,
01000000
00001000
00010000
00000100
00001000
00000100
00000001
00000100
,
00001001
00000000
00001000
00000001
00000100
00000000
00001000
00000000
00000100
00000000
00000001
00000000
00000010
00000000
00000001
00000000
,
00000100
00000001
00000010
00001000
00010000
00100000
00010000
00001000
,
00000010
00000010
00000001
00000001
00000010
00000100
00010000
00001000
,
01000000
01000000
00010000
00010000
10000000
00100000
01000000
00001000
,
00011000
00002000
00000000
00013000
00000100
00001000
00000001
00000101
,
00001002
00000100
00000010
00001003
,
00000001
00000100
00000010
00001000
00000100
00010000
00001000
00100000
,
00020000
01000000
10000000
00100000
,
10030000
00010000
01000000
00100000
10000000
01000000
00010000
01000000
,
20000000
01000000
00010000
00100000
,
30010000
00100000
00001000
00010000
00000100
00000010
00000001
00000010
,
00000200
00010300
02000000
13000000
,
00001000
00010000
00100000
00010000
00001000
00000100
00001000
00010000
,
00011000
00000000
00001000
00010000
00001000
00000000
00010000
00001000
00010000
00000000
00001000
00010000
00001000
00000000
00010000
00001000
,
01000000
00000000
00010000
01000000
00010000
00000000
01000000
00010000
01000000
00000000
00010000
01000000
00010000
00000000
01000000
00010000
,
10000000
00000000
01000000
10000000
00010000
00000000
01000000
00001000
00010000
00000000
00001000
00010000
00000100
00000000
00001000
00000001
,
00000200
00002300
00023000
02030000
,
23000000
00000000
31000000
10000000
01000000
00100000
00001000
00010000
,
00000100
00001000
00001010
00000000
00001001
00000000
00000011
00000000
,
00000101
00000000
00001100
00000000
00000100
00010000
00001000
00100000
,
00010000
10000000
00100000
01000000
,
00001000
00000000
00010000
00001000
00010000
00000000
00000100
00000000
00001000
00000000
00000001
00000100
00000001
00000000
00000010
00000000
,
00000100
00000000
00001000
00000100
00010000
00000000
01000000
00000000
00100000
00000000
00010000
10000000
00010000
00000000
01000000
00000000
,
00100000
00000000
10000000
01000000
10000000
00000000
01000000
00000000
00100000
00000000
00010000
01000000
00010000
00000000
01000000
00000000
,
00001000
00000000
00010000
00001000
00010000
00000000
00000100
00000000
00001000
00000000
00000100
00001000
00000100
00000000
00000010
00000000
,
00000001
00000000
00000100
00000001
00000100
00000000
00001000
00000000
00010000
00000000
00001000
00010000
00001000
00000000
01000000
00000000
,
00010000
00000000
10000000
01000000
10000000
00000000
00100000
00000000
01000000
00000000
00001000
00010000
00001000
00000000
00010000
00000000
,
00000100
00000000
00000010
00000100
00000010
00000000
00000001
00000000
00001000
00000000
00000100
00000010
00000100
00000000
00010000
00000000
,
00001000
00000000
00010000
00001000
00010000
00000000
00001000
00010000
00001000
00000000
00010000
00000000
01000000
00000000
10000000
00000000
,
00010000
00000000
10000000
00010000
10000000
00000000
00010000
10000000
00010000
00000000
10000000
00010000
10000000
00000000
00000000
00000000
,
00010000
00000000
00000000
00010000
01000000
00000000
00000000
01000000
00100000
00000000
00000000
00100000
10000000
00000000
00000000
10000000
,
01000000
00000000
00000000
01000000
00010000
00000000
00000000
00010000
00001000
00000000
00000000
00001000
00000100
00000000
00000000
00000100
,
00000001
00000000
00000000
00000000
00000000
00000000
00000000
00000000
00000000
00000001
00000000
00000000
00001000
00000000
00000000
00000000
00000000
00000000
00000000
00000000
00000000
00001000
00000000
00000000
00000100
00000000
00000000
00000000
00000000
00000000
00000000
00000000
00000000
00000100
00000000
00000000
00000001
00000000
00000000
00000000
00000000
00000000
00000100
00000000
00000010
00000000
00000100
00000000
,
00001000
00000000
00000000
00001000
00000001
00000000
00000000
00000001
00000100
00000000
00000000
00000100
00001000
00000000
00000000
00001000
,
00010000
00000000
00000000
00000000
00000000
00000000
00000000
00000000
00000000
00010000
00000000
00000000
01000000
00000000
00000000
00000000
00000000
00000000
00000000
00000000
00000000
01000000
00000000
00000000
10000000
00000000
00000000
00000000
00000000
00000000
00000000
00000000
00000000
10000000
00000000
00000000
00010000
00000000
00000000
00000000
00000000
00000000
10000000
00000000
00010000
00000000
10000000
00000000
,
00100000
00000000
00000000
00000000
00000000
00000000
00000000
00000000
00000000
00100000
00000000
00000000
01000000
00000000
00000000
00000000
00000000
00000000
00000000
00000000
00000000
01000000
00000000
00000000
00001000
00000000
00000000
00000000
00000000
00000000
00000000
00000000
00000000
00001000
00000000
00000000
00010000
00000000
00000000
00000000
00000000
00000000
00001000
00000000
00010000
00000000
00001000
00000000
,
00010000
00000000
00000000
00000000
00000000
00000000
00000000
00000000
00000000
00010000
00000000
00000000
00000100
00000000
00000000
00000000
00000000
00000000
00000000
00000000
00000000
00000100
00000000
00000000
00000010
00000000
00000000
00000000
00000000
00000000
00000000
00000000
00000000
00000010
00000000
00000000
00000001
00000000
00000000
00000000
00000000
00000000
00000010
00000000
00000001
00000000
00001000
00000000
,
00000001
00000000
00000000
00000001
00001000
00000000
00000000
00001000
00000100
00000000
00000000
00000100
00010000
00000000
00000000
00010000
,
00001000
00000000
00000000
00001000
01000000
00000000
00000000
01000000
00010000
00000000
00000000
00010000
10000000
00000000
00000000
10000000
,
01000000
00000000
10000000
01000000
10000000
00000000
00010000
01000000
00010000
00000000
10000000
00100000
10000000
00000000
00010000
00100000
,
00010000
00000000
10000000
00010000
10000000
00000000
01000000
00100000
01000000
00000000
10000000
00010000
10000000
00000000
00000000
00000000
,
00011000
00000000
00000000
00000000
00001001
00000000
00000001
00000100
00000001
00000000
00001000
00000100
00001000
00000000
00000001
00000010
,
00000001
00000000
00001000
00000010
00001000
00000000
00000001
00001000
00000001
00000000
00000010
00000100
00000010
00000000
00000000
00000000
,
00001001
00000000
00000022
00000033
00002002
00003003
00002020
00003030
,
00002200
00003300
00022000
00033000
00220000
00330000
20020000
30030000
,
22000000
33000000
20020000
30030000
02020000
03030000
00022000
00033000
,
00020020
00000000
00000000
00000000
00000000
00000000
00000000
00000000
00000000
00000000
00000000
00000000
00000000
00000000
00000000
00000000
00000000
00000000
00030030
00000000
00000000
00010000
00000000
00000000
00000000
00000010
00000000
00000000
00000000
00000100
00000000
00000000
00000000
00000002
00000000
00000000
00000000
00000000
00000000
00000000
00000000
00000000
00000000
00000000
00000000
00000000
00000000
00000000
,
00000000
00000000
00000000
00000000
00000000
00000000
00000000
00000000
00002000
00000000
00000000
00000000
00000000
00000000
00000000
00000003
00000000
00000000
00000000
00000000
00000000
00000000
00000000
00000000
00000200
00000000
00000000
00000000
00000000
00000000
00000000
00000000
00003300
00000000
00000000
00000000
00000000
00000000
00000000
00000000
00000000
00000000
00000000
00000000
00002002
00000000
00000000
00000000
,
00000000
00000000
00000000
00000000
,
00000000
00000000
00000000
00000000
00000000
00000000
00000000
00003003
00000000
00000000
00000000
00000000
;

//---------------dance-single - ----------------
#NOTES:
     dance-single:
     :
     Hard:
     9:
     0.629215,0.720400,0.162271,0.293634,0.440450,570.000000,549.000000,21.000000,38.000000,0.000000,0.000000,0.629215,0.720400,0.162271,0.293634,0.440450,570.000000,549.000000,21.000000,38.000000,0.000000,0.000000:
// measure 0
0000
0000
0000
0000
,  // measure 1
1000
0100
1000
0100
1000
0100
1000
0100
,  // measure 2
0010
0100
1000
0100
0010
0100
1000
0100
,  // measure 3
0010
0001
0010
0001
1000
0010
1000
0010
,  // measure 4
0100
0001
0100
0001
0100
0001
0100
0010
,  // measure 5
1000
0001
1000
0001
1000
0010
1000
0010
,  // measure 6
0100
0010
0100
0010
0100
0001
1000
0100
,  // measure 7
1000
0010
1000
0010
1000
0100
1000
0100
,  // measure 8
1000
0000
0000
1000
0100
0000
0000
0100
0010
0000
0000
0010
0001
0000
0000
0001
,  // measure 9
0010
0000
0000
0010
0100
0000
0000
0100
1000
0000
0000
1000
0100
0000
0000
0100
,  // measure 10
0010
0000
0000
0010
0001
0000
0000
0001
0100
0000
0000
0100
0010
0000
0100
0010
,  // measure 11
0100
0000
0000
0010
1000
0000
0000
1000
0100
0000
0000
0100
0010
0000
0000
0010
,  // measure 12
0100
0000
0000
0100
1000
0000
0000
1000
0001
0000
0000
0001
0100
0000
0001
0100
,  // measure 13
0001
0000
0000
0001
1000
0000
0000
1000
0100
0000
0000
0100
0010
0000
0001
0010
,  // measure 14
0001
0000
0000
0001
0010
0000
0000
0010
0100
0000
0000
0100
1000
0000
0100
1000
,  // measure 15
0100
0000
0000
0100
0010
0000
0000
0010
0002
0000
0000
0000
1000
0000
0000
0000
,  // measure 16
0010
1000
0100
1003
,  // measure 17
1001
0000
1000
0100
1000
0000
0100
1000
0100
0000
0010
0100
0010
0000
0100
0010
,  // measure 18
0100
0000
0010
0001
0010
0000
0001
0010
0001
0000
1000
0001
1000
0000
0000
0000
,  // measure 19
2001
0000
0020
0000
3030
1000
0010
0100
,  // measure 20
0001
0010
0100
1000
0010
1000
0100
0001
,  // measure 21
0100
1000
0010
1000
0100
1000
0010
1000
,  // measure 22
0001
0010
0001
0100
0001
0010
0001
1000
,  // measure 23
1002
0000
0020
0000
0003
0031
0010
0100
,  // measure 24
1000
0010
0100
0001
0100
1000
0100
0001
,  // measure 25
1001
0000
0000
1000
0100
0000
0001
0000
0100
0000
1000
0000
0100
0000
0001
0000
,  // measure 26
0100
1000
0010
0001
0010
1000
0010
0001
,  // measure 27
0010
0010
1000
1000
0001
0001
0010
0010
,  // measure 28
0100
0100
1000
1000
0001
0001
0100
0010
,  // measure 29
1001
0020
0000
0130
0001
0100
0010
1000
,  // measure 30
0002
1000
0100
1000
,  // measure 31
0013
0001
0100
1000
0100
0001
0010
1000
,  // measure 32
0020
0001
0100
1000
,  // measure 33
0130
1000
0001
0100
1000
0001
0010
1000
,  // measure 34
0200
0010
0001
0010
,  // measure 35
1300
0010
0100
0001
0010
0100
0010
0001
,  // measure 36
2000
0010
0100
0001
,  // measure 37
3010
1000
0100
0001
0100
1000
0010
1000
,  // measure 38
0001
0010
0001
1000
0001
0010
0001
1000
,  // measure 39
0100
1000
0001
1000
0100
1000
0001
1000
,  // measure 40
0100
0000
1000
0100
1000
0000
0100
0010
0100
0000
0010
0001
0010
0000
0001
1000
,  // measure 41
0001
0100
0010
1000
,  // measure 42
1001
0000
1000
0100
0010
0000
0010
0001
,  // measure 43
1000
0000
1001
0001
0101
0000
1001
1000
,  // measure 44
1100
0000
0000
0000
1000
0000
0000
0000
0002
0000
0000
0000
0000
0000
1003
0001
,  // measure 45
1000
0100
0010
0001
,  // measure 46
1000
0000
0100
1000
0100
0000
1000
0000
0001
0000
0010
0001
0010
0000
0001
0000
,  // measure 47
1000
0000
0010
1000
0010
0000
1000
0000
0001
0000
0100
0001
0100
0000
0001
0000
,  // measure 48
1000
0000
0001
1000
0100
0000
0010
0000
0001
0000
1000
0001
0100
0000
0010
0000
,  // measure 49
1000
0000
0100
1000
0001
0000
0010
0000
0001
0000
0100
0001
1000
0000
0100
0000
,  // measure 50
0010
0000
0001
0100
0010
0000
1000
0000
0100
0000
1000
0010
0100
0000
0001
0000
,  // measure 51
0100
0000
0010
1000
0001
0000
0010
0000
0100
0000
0010
0001
1000
0000
0100
0000
,  // measure 52
0010
0000
0001
1000
0001
0000
0100
0000
0010
0000
1000
0001
1000
0000
0100
0000
,  // measure 53
0010
0000
0001
0100
0001
0000
0100
0000
0010
0000
1000
0100
1000
0000
0001
0000
,  // measure 54
1000
0000
0001
1000
0001
0000
1000
0001
1000
0000
0001
1000
0001
0000
0000
0000
,  // measure 55
1001
0000
0000
1000
0100
0000
0000
0100
0010
0000
0000
0010
0001
0000
0000
0001
,  // measure 56
0100
0000
0000
0100
0010
0000
0000
0010
1000
0000
0000
1000
0001
0000
0000
0001
,  // measure 57
0010
0000
0000
0010
0100
0000
0000
0100
1000
0000
0000
1000
0010
0000
0000
0100
,  // measure 58
0001
1000
0000
0000
1000
0010
0000
0000
0010
0100
0000
0000
0100
0010
0000
0000
,  // measure 59
0010
1000
0000
0000
1000
0001
0000
0000
0001
0010
0000
0000
0010
0100
0000
1000
,  // measure 60
0001
0010
0000
0000
0010
0001
0000
0000
0001
0100
0000
0000
0100
0010
0000
1000
,  // measure 61
0001
1000
0000
0000
1000
0001
0000
0000
0001
0100
0000
0000
0100
0010
0000
1000
,  // measure 62
0100
0010
0000
0000
0010
0001
0000
0000
0001
0200
0000
0000
0000
0000
0000
0000
,  // measure 63
1000
0010
0001
1000
,  // measure 64
0001
0300
0000
0000
1001
0000
0001
0100
0001
0000
0100
0010
0100
0000
0010
0100
,  // measure 65
0010
0000
1000
0010
1000
0000
0001
1000
0001
0000
0010
0100
0010
0000
0000
0000
,  // measure 66
0200
0000
0000
0000
1300
0000
0100
1000
0100
0000
1000
0100
1000
0000
0100
0010
,  // measure 67
0100
0000
0010
0100
0010
0000
0001
1000
0001
0000
0100
0010
0100
0000
0000
0000
,  // measure 68
0100
0000
2002
3003
0022
0033
0220
0330
,  // measure 69
2200
3300
2020
3030
2002
3003
0202
0303
,  // measure 70
2002
3003
2000
0000
3200
0000
0320
0000
,  // measure 71
0032
0000
0000
0000
0000
0000
0000
0000
0000
0000
0000
0000
0000
0000
0000
0000
0000
0000
0003
0000
0000
0100
0000
0000
0000
0001
0000
0000
0000
0100
0000
0000
0000
0020
0000
0000
0000
0000
0000
0000
0000
0000
0000
0000
0000
0000
0000
0000
,  // measure 72
0000
0000
2030
0000
0000
0000
0002
0000
3003
0000
0000
2002
,  // measure 73
0000
0000
0000
0000
,  // measure 74
0000
0000
0000
0000
0000
0000
0000
3003
0000
0000
0000
0000
;

//---------------dance-single - Copied from Copied f----------------
#NOTES:
     dance-single:
     Copied from Copied f:
     Edit:
     9:
     0.639150,0.720400,0.162271,0.293634,0.459768,579.000000,558.000000,21.000000,38.000000,0.000000,0.000000,0.639150,0.720400,0.162271,0.293634,0.459768,579.000000,558.000000,21.000000,38.000000,0.000000,0.000000:
0000
0000
0000
0000
,
1000
0100
1000
0100
1000
0100
1000
0100
,
0010
0100
1000
0100
0010
0100
1000
0100
,
0010
0001
0010
0001
1000
0010
1000
0010
,
0100
0001
0100
0001
0100
0001
0100
0010
,
1000
0001
1000
0001
1000
0010
1000
0010
,
0100
0010
0100
0010
0100
0001
1000
0100
,
1000
0010
1000
0010
1000
0100
1000
0100
,
1000
0000
0000
1000
0100
0000
0000
0100
0010
0000
0000
0010
0001
0000
0000
0001
,
0010
0000
0000
0010
0100
0000
0000
0100
1000
0000
0000
1000
0100
0000
0000
0100
,
0010
0000
0000
0000
0000
0000
0000
0000
0000
0010
0000
0000
0001
0000
0000
0000
0000
0000
0000
0000
0000
0001
0000
0000
0100
0000
0000
0000
0000
0000
0000
0000
0000
0100
0000
0000
0010
0000
0000
0000
0000
0000
0100
0000
0010
0000
0100
0000
,
0010
0000
0000
0010
1000
0000
0000
1000
0100
0000
0000
0100
0010
0000
0000
0010
,
0100
0000
0000
0000
0000
0000
0000
0000
0000
0100
0000
0000
1000
0000
0000
0000
0000
0000
0000
0000
0000
1000
0000
0000
0001
0000
0000
0000
0000
0000
0000
0000
0000
0001
0000
0000
0100
0000
0000
0000
0000
0000
0001
0000
0100
0000
0001
0000
,
0100
0000
0000
0000
0000
0000
0000
0000
0000
0001
0000
0000
1000
0000
0000
0000
0000
0000
0000
0000
0000
1000
0000
0000
0100
0000
0000
0000
0000
0000
0000
0000
0000
0100
0000
0000
0010
0000
0000
0000
0000
0000
0001
0000
0010
0000
0001
0000
,
0010
0000
0000
0000
0000
0000
0000
0000
0000
0001
0000
0000
0010
0000
0000
0000
0000
0000
0000
0000
0000
0010
0000
0000
0100
0000
0000
0000
0000
0000
0000
0000
0000
0100
0000
0000
1000
0000
0000
0000
0000
0000
0100
0000
1000
0000
0100
0000
,
0010
0000
0000
0100
0010
0000
0000
0010
0002
0000
0000
0000
1000
0000
0000
0000
,
0010
1000
0100
1003
,
1001
0000
1000
0100
1000
0000
0100
1000
0100
0000
0010
0100
0010
0000
0100
0010
,
0100
0000
0010
0001
0010
0000
0001
0010
0001
0000
1000
0001
1000
0000
0000
0000
,
2001
0000
0020
0000
3030
1000
0010
0100
,
0001
0010
0100
1000
0010
1000
0100
0001
,
0100
1000
0010
1000
0100
1000
0010
1000
,
0001
0010
0001
0100
0001
0010
0001
1000
,
1002
0000
0020
0030
0013
0001
0010
0100
,
1000
0010
0100
0001
0100
1000
0100
0000
,
1001
0000
0000
1000
0100
0000
0001
0000
0100
0000
1000
0000
0100
0000
0001
0000
,
0100
1000
0010
0001
0010
1000
0010
0001
,
0010
0010
1000
1000
0001
0001
0010
0010
,
0100
0100
1000
1000
0001
0001
0100
0010
,
1001
0020
0000
0130
0001
0100
0010
1000
,
0002
1000
0100
1000
,
0013
0001
0100
1000
0100
0001
0010
1000
,
0020
0001
0100
1000
,
0130
1000
0001
0100
1000
0001
0010
1000
,
0200
0010
0001
0010
,
1300
0010
0100
0001
0010
0100
0010
0001
,
2000
0010
0100
0001
,
3010
1000
0100
0001
0100
1000
0010
1000
,
0001
0010
0001
1000
0001
0010
0001
1000
,
0100
1000
0001
1000
0100
1000
0001
1000
,
0100
0000
1000
0100
1000
0000
0100
0010
0100
0000
0010
0001
0010
0000
0001
1000
,
0001
0100
0010
1000
,
1001
0000
1000
0100
0010
0000
0010
0001
,
1000
0000
1001
0001
0101
0000
1001
1000
,
1100
0000
0000
0000
1000
0000
0000
0000
0002
0000
0000
0000
0000
0000
1003
0001
,
1000
0100
0010
0001
,
1000
0000
0100
1000
0100
0000
1000
0000
0001
0000
0010
0001
0010
0000
0001
0000
,
1000
0000
0010
1000
0010
0000
1000
0000
0001
0000
0100
0001
0100
0000
0001
0000
,
1000
0000
0001
1000
0100
0000
0010
0000
0001
0000
1000
0001
0100
0000
0010
0000
,
1000
0000
0100
1000
0001
0000
0010
0000
0001
0000
0100
0001
1000
0000
0100
0000
,
0010
0000
0001
0100
0010
0000
1000
0000
0100
0000
1000
0010
0100
0000
0001
0000
,
0100
0000
0010
1000
0001
0000
0010
0000
0100
0000
0010
0001
1000
0000
0100
0000
,
0010
0000
0001
1000
0001
0000
0100
0000
0010
0000
1000
0001
1000
0000
0100
0000
,
0010
0000
0001
0100
0001
0000
0100
0000
0010
0000
1000
0100
1000
0000
0001
0000
,
1000
0000
0001
1000
0001
0000
1000
0001
1000
0000
0001
1000
0001
0000
0000
1001
,
0000
0000
0000
1000
0100
0000
0000
0100
0010
0000
0000
0010
0001
0000
0000
0001
,
0100
0000
0000
0100
0010
0000
0000
0010
1000
0000
0000
1000
0001
0000
0000
0001
,
0010
0000
0000
0000
0000
0000
0000
0000
0000
0010
0000
0000
0100
0000
0000
0000
0000
0000
0000
0000
0000
0100
0000
0000
1000
0000
0000
0000
0000
0000
0000
0000
0000
1000
0000
0000
0010
0000
0000
0000
0000
0000
1000
0000
0010
0000
1000
0000
,
0010
0000
0000
1000
0010
0000
0000
0010
0100
0000
0000
0100
0010
0000
0000
0010
,
1000
0000
0000
0000
0000
0000
0000
0000
0000
1000
0000
0000
0001
0000
0000
0000
0000
0000
0000
0000
0000
0001
0000
0000
0010
0000
0000
0000
0000
0000
0000
0000
0000
0010
0000
0000
0100
0000
0000
0000
0000
0000
1000
0000
0100
0000
1000
0000
,
0100
0000
0000
0000
0000
0000
0000
0000
0000
0100
0000
0000
0001
0000
0000
0000
0000
0000
0000
0000
0000
0001
0000
0000
0100
0000
0000
0000
0000
0000
0000
0000
0000
0100
0000
0000
0010
0000
0000
0000
0000
0000
0100
0000
0010
0000
0100
0000
,
0010
0000
0000
0000
0000
0000
0000
0000
0000
0010
0000
0000
0001
0000
0000
0000
0000
0000
0000
0000
0000
0001
0000
0000
0100
0000
0000
0000
0000
0000
0000
0000
0000
0100
0000
0000
0010
0000
0000
0000
0000
0000
0100
0000
0010
0000
0100
0000
,
0010
0000
0000
0010
1000
0000
0000
1000
0200
0000
0000
0000
0010
0000
0000
0000
,
0001
0010
1000
0001
,
1300
0000
0000
0000
1001
0000
0001
0100
0001
0000
0100
0010
0100
0000
0010
0100
,
0010
0000
1000
0010
1000
0000
0001
1000
0001
0000
0010
0100
0010
0000
0000
0000
,
0200
0000
0000
0000
1300
0000
0100
1000
0100
0000
1000
0100
1000
0000
0100
0010
,
0100
0000
0010
0100
0010
0000
0001
1000
0001
0000
0100
0010
0100
0000
0000
0000
,
0100
0000
2002
3003
0022
0033
0220
0330
,
2200
3300
2020
3030
2002
3003
0202
0303
,
2002
3003
2000
3000
0200
0300
0020
0030
,
0002
0000
0000
0000
0000
0000
0000
0000
0000
0000
0000
0000
0000
0000
0000
0000
0000
0000
0003
0000
0000
0100
0000
0000
0000
0001
0000
0000
0000
0100
0000
0000
0000
0020
0000
0000
0000
0000
0000
0000
0000
0000
0000
0000
0000
0000
0000
0000
,
0000
0000
2030
0000
0000
0000
0002
0000
3003
0000
0000
2002
,
0000
0000
0000
0000
,
0000
0000
0000
0000
0000
0000
0000
3003
0000
0000
0000
0000
;

//---------------dance-double - ----------------
#NOTES:
     dance-double:
     :
     Medium:
     6:
     0.380841,0.489872,0.169998,0.278179,0.011591,345.000000,323.000000,22.000000,36.000000,0.000000,0.000000,0.380841,0.489872,0.169998,0.278179,0.011591,345.000000,323.000000,22.000000,36.000000,0.000000,0.000000:
00000000
00000000
00000000
00000000
,
00011000
00001000
00001000
00001000
,
00010000
01000000
10000000
00100000
,
00010000
00010000
00000010
00000010
,
00000100
00000100
00000100
00000001
,
00000001
00000001
00001000
00001000
,
00000010
00000010
00000010
00000100
,
00000010
00000010
00010000
00010000
,
00011000
00001000
00010000
01000000
,
00010000
00001000
00000100
00001000
,
00010000
00000000
01000000
00000000
10000000
00000000
01000000
00010000
,
00001000
00000100
00000001
00000100
,
00001000
00000000
00000100
00000000
00000001
00000000
00000100
00001000
,
00010000
00000000
00100000
00000000
10000000
00000000
00100000
00010000
,
00001000
00000000
00000010
00000000
00000001
00000000
00000010
00001000
,
00010000
00000000
01000000
00000000
10000000
00100000
01000000
00010000
,
00100000
00001000
00010000
00000100
00001000
00000010
00000100
00000001
,
00000010
00000011
00001010
00011000
,
01010000
11000000
10100000
00110000
,
20010000
00000000
00200000
00000000
30000000
10300000
00100000
10000000
,
01000000
00010000
00001000
00000100
00000001
00000010
00000001
00000100
,
00000001
00000001
00000001
00000100
,
00001000
00010000
00100000
10000000
,
20010000
00000000
00200000
30000000
10300000
00100000
10000000
01000000
,
00010000
00001000
00000100
00000001
00000010
00000001
00001000
00000000
,
00001001
00000001
00000100
00001000
,
00010000
00100000
10000000
00010000
,
10000000
01000000
00100000
00000000
00100000
00001000
00010000
00000000
,
00010000
00000100
00000010
00000000
00000001
00000100
00000010
00000000
,
00001010
00000000
00000000
00000000
00000000
00000000
00000000
00000010
,
00020000
00001000
00001000
00031000
,
00200000
00310000
20000000
31000000
,
00020000
00031000
00000200
00000301
,
00000020
00000130
00020000
00031000
,
00200000
00010000
01000000
10000000
,
02300000
13000000
00200000
01300000
,
00002000
00013000
00000200
00001300
,
00000020
00000130
00000002
00000013
,
00000001
00000001
00000001
00000001
,
00000100
00000100
00000100
00000100
,
00001000
00010000
00100000
10000000
,
10010000
01010000
01001000
00011000
,
00010100
00000000
00020010
00000000
00000010
00000000
00030010
00010000
,
00001000
00001000
00001000
00001000
,
01000000
00000000
01000000
00000000
00010000
10000000
01000000
00100000
,
01000000
10000000
01000000
00010000
,
00001000
00001000
00000010
00000010
,
00000001
00000001
00000001
00000100
,
00000010
00000010
00010000
00010000
,
00010000
00010000
01000000
01000000
,
01000000
01000000
10000000
10000000
,
10000000
00010000
00010000
01000000
,
01000000
00001000
00001000
00010000
,
00010000
00000100
00010000
00010000
,
00001000
00001000
00001000
01000000
,
00001000
00010000
01000000
10000000
,
00100000
00010000
00100000
10000000
,
00100000
00000000
00010000
00000000
00001000
00000000
00000100
00000001
,
00000100
00000100
00000010
00001000
,
00000100
00001000
00000010
00001000
,
00000100
00000001
00000100
00010000
,
00001000
00010000
01000000
00010000
,
00001000
00010000
01000000
10000000
,
01000000
00010000
00001000
00000100
,
00000001
00000000
00000001
00000100
00000001
00001000
00000100
00010000
,
00001000
01000000
00010000
10000000
01000000
10000000
00010000
00000000
,
10010000
00000000
10000000
00100000
10000000
00010000
00100000
00001000
,
00010000
00000010
00001000
00000001
00000010
00000001
00001000
00000000
,
00001100
00002000
00003200
00000302
,
00000203
00020300
02030000
23000000
,
32000000
03020000
00032000
00203000
,
00320000
00000000
00000000
00000000
00000000
00000000
00000000
00000000
00000000
00000000
00000000
20030000
00000000
00000000
00000000
00000000
,
00000000
00000000
32000000
00000000
00000000
00000000
03020000
00000000
00030000
00000000
00000000
00022000
,
00000000
00000000
00000000
00000000
,
00000000
00000000
00000000
00000000
00000000
00000000
00000000
00033000
00000000
00000000
00000000
00000000
;

//---------------dance-double - ----------------
#NOTES:
     dance-double:
     :
     Easy:
     4:
     0.249478,0.288160,0.038636,0.448178,0.011591,226.000000,221.000000,5.000000,58.000000,0.000000,0.000000,0.249478,0.288160,0.038636,0.448178,0.011591,226.000000,221.000000,5.000000,58.000000,0.000000,0.000000:
00000000
00000000
00000000
00000000
,
00011000
00010000
00001000
00010000
,
00000010
00001000
00000001
00000010
,
00000001
00000001
00000010
00000010
,
00000100
00001000
00000100
00010000
,
00001000
00001000
00010000
00010000
,
00100000
00100000
00100000
10000000
,
00100000
00100000
00010000
00010000
,
00011000
00000000
00000000
00010000
,
00000020
00000000
00000000
00000000
00000000
00000000
00000000
00000030
00000020
00000000
00000000
00000000
00000000
00000000
00000000
00000000
,
00000230
00000001
00001300
00010000
,
00200000
00000000
00000000
00000000
00000000
00000000
00000000
00300000
00200000
00000000
00000000
00000000
00000000
00000000
00000000
00000000
,
02300000
10000000
03010000
00001000
,
00000020
00000000
00000130
00000001
,
00002000
00000000
00003100
00001000
,
00020000
00030000
00200000
00000000
,
02300000
00000000
23000000
00000000
,
30010000
00010000
10000000
01000000
,
00010000
00001000
00000100
00000001
,
00002002
00000000
00000000
00003003
,
00000001
00000100
00001000
00010000
,
01000000
00000000
01000000
00000000
,
01000000
10000000
00010000
01000000
,
00002000
00020000
00000000
00033000
,
00010000
00000100
00001000
00000100
,
00000010
00000000
00000000
00000010
,
00000001
00000010
00001000
00010000
,
00100000
00010000
00100000
10000000
,
01000000
10000000
01000000
00010000
,
00001000
00000000
00000000
00000000
00000000
00000000
00000000
00010000
,
00001000
00000000
00000000
00001000
,
00200000
00000000
00320000
00000000
,
20030000
00000000
32000000
00000000
,
03020000
00000000
00032000
00000000
,
00003200
00000300
00000000
00000100
,
00000002
00000000
00000203
00000000
,
00002300
00000000
02003000
00000000
,
03020000
00000000
20030000
00000000
,
30100000
00100000
00100000
00100000
,
10000000
10000000
10000000
10000000
,
01000000
10000000
00010000
01000000
,
00001000
00010000
00000100
00001000
,
00001100
00001000
00000000
00000100
,
00001000
00000010
00000100
00000001
,
00002000
00000000
00003200
00000000
,
00020300
00000000
00030000
00000000
,
00001000
00010000
00100000
00010000
,
00001000
00010000
00001000
00010000
,
00100000
00010000
00100000
10000000
,
00100000
10000000
01000000
10000000
,
01000000
00010000
01000000
00010000
,
00001000
00010000
00001000
00000100
,
00001000
00000100
00000001
00000100
,
00000001
00000000
00001000
00000000
,
00000100
00000000
00000000
00000000
,
00010000
00000000
00000000
00001000
,
00200000
00000000
00000000
00000000
00000000
00000000
00000000
00300000
00200000
00000000
00000000
00000000
00000000
00000000
00000000
00000000
,
02300000
10000000
03010000
00002000
,
00000000
00000000
00000000
00003000
00002000
00000000
00000000
00000000
00000000
00000000
00000000
00003000
00000200
00000000
00000000
00000000
,
00000001
00001300
00010000
00200000
,
10000000
00010000
01300000
00002000
,
00010000
00000100
00013000
00000100
,
00000010
00000000
00000002
00000000
,
00000000
00000000
00000000
00000000
,
00000103
00000100
00001000
00010000
,
00100000
00010000
00001000
00010000
,
00000000
00010000
00001000
00010000
,
01000000
00010000
00001000
00000010
,
00000000
00000002
00000203
00002300
,
00003200
00000302
00000023
00002030
,
00023000
02030000
23000000
30020000
,
00230000
00000000
00000000
00000000
00000000
00000000
00000000
00000000
00000000
00000000
00000000
00302000
00000000
00000000
00000000
00000000
,
00000000
00000000
00000000
00000000
00023000
00000000
00000000
00000000
00000000
00000000
00000000
00000000
00002000
00000000
00000000
00033000
00000000
00000000
00000000
00000000
00000000
00000000
00022000
00000000
,
00000000
00000000
00000000
00000000
,
00000000
00000000
00000000
00000000
00000000
00000000
00000000
00033000
00000000
00000000
00000000
00000000
;
