#TITLE:Powerhaus;
#SUBTITLE:(Klippa & Mayhem Mix);
#ARTIST:Azrael feat. Klippa & Mayhem;
#TITLETRANSLIT:;
#SUBTITLETRANSLIT:;
#ARTISTTRANSLIT:;
#GENRE:Industrial;
#CREDIT:;
#BANNER:bn.png;
#BACKGROUND:bg.png;
#LYRICSPATH:;
#CDTITLE:;
#MUSIC:Powerhaus.ogg;
#OFFSET:0.000;
#SAMPLESTART:42.869;
#SAMPLELENGTH:12.000;
#SELECTABLE:YES;
#BPMS:0.000=69.990,24.000=139.980,120.000=69.990,136.000=139.980,200.000=69.990;
#STOPS:;
#BGCHANGES:;
#KEYSOUNDS:;

//---------------dance-single - warpdr!ve (10)----------------
#NOTES:
     dance-single:
     warpdr!ve (10):
     Hard:
     10:
     0.823,0.813,0.060,0.994,1.000:
0000
0000
0000
0000
,
0000
0000
0000
0000
,
1001
0000
0000
0000
1000
0000
0000
0000
0010
0000
0000
0100
0000
0000
0001
0000
0000
0000
1000
0000
0000
0000
1000
0000
0100
0000
0000
0000
0000
0000
0010
0000
0000
0000
0010
0000
0001
0000
0000
0000
0000
0000
1000
0000
0000
0000
0000
0000
0010
0000
0000
0000
0000
0000
0000
0000
1010
0000
0000
0000
0000
0000
0000
0000
,
1010
0000
0000
1000
0000
1000
0010
0000
0000
0100
0000
0100
0001
0000
0000
0000
0010
0100
1000
0001
0000
0000
0100
0010
0000
0000
0010
0100
0000
0000
0010
0000
,
1010
0000
0000
0000
1000
0000
0000
0000
0001
0000
0000
0010
0000
0000
0001
0000
0000
0000
1000
0000
0000
0000
1000
0000
0010
0000
0000
0000
0000
0000
0100
0000
0000
0000
0100
0000
0001
0000
0000
0000
0000
0000
1000
0000
0000
0000
0000
0000
0100
0000
0000
0000
0000
0000
0000
0000
1100
0000
0000
0000
0000
0000
0000
0000
,
1100
0000
0000
1000
0000
1000
0001
0000
0000
0010
0000
0010
0100
0000
0000
0000
0010
0001
1000
0010
0000
0000
0100
0001
0000
0000
0001
0100
0000
0000
0001
0000
,
10M1
0000
1000
0100
0000
0100
0010
0000
0000
0100
0000
0100
1000
0000
1000
0001
,
0000
0001
0100
0000
0100
0010
0000
0000
2000
0000
3002
0000
0023
0230
0320
0032
,
1003
0000
1000
0010
0000
0010
0100
0000
0000
0001
0000
0001
1000
0000
1000
0100
,
0010
0001
1000
0001
0200
0000
0310
1000
0002
0000
0013
0100
2000
0000
3001
0100
,
0020
0000
2030
0000
3001
0010
0000
0000
0001
1000
0000
1000
0010
0000
0010
1000
,
0000
1000
0001
0000
0001
0010
0000
0000
0200
0000
0320
0000
0032
2003
3020
2030
,
3001
0000
1000
0010
1000
0000
0010
0100
0010
0000
0100
0001
0100
0000
0001
0010
,
0001
0000
0000
0001
0000
0000
1000
0000
0000
0000
0000
0000
0200
0000
0000
0000
0000
0000
0310
0000
0000
0001
0000
0000
1000
0000
0010
0000
0100
0000
0001
0000
0100
0000
0010
0000
1000
0000
0000
0000
0000
0000
0001
0000
0000
0010
0000
0000
,
0002
0000
0203
0000
0310
1000
0000
0000
0001
0010
0000
0010
0001
0000
0000
1000
,
0000
1000
0010
0000
0010
0100
0000
0000
0020
0000
2030
0000
3002
0023
0230
2300
,
3001
0000
0001
0100
0000
0100
0010
0000
0000
1000
0000
1000
0100
0000
0100
0010
,
0001
1000
0010
1000
0002
0000
0013
0100
0020
0000
0031
1000
0020
0000
0130
0001
,
2000
0000
3100
0000
0010
0001
0000
0000
1000
0001
0000
0001
0100
0000
0100
0010
,
0000
0010
1000
0000
1000
0001
0000
0000
0020
0000
0230
0000
0320
0032
2003
3002
,
1003
0000
0001
0010
0001
0000
0010
0100
0010
0000
0100
1000
0100
0000
1000
0100
,
1000
0000
0000
1000
0000
0000
0001
0000
0000
0000
0000
0000
0200
0000
0000
0000
0000
0000
0310
0000
0000
1000
0000
0000
0001
0000
0010
0000
0100
0000
1000
0000
0100
0000
0010
0000
0001
0000
0000
0000
0000
0000
1000
0000
0000
0010
0000
0000
,
2000
0000
3002
0000
0023
0000
0030
0000
0001
0000
0001
0010
0100
0000
0100
0010
,
0001
0000
0001
0010
0100
1000
0001
0100
0002
0000
2003
0000
3020
0230
0302
0203
,
0310
0000
0010
1000
0001
0000
0001
1000
0010
0000
0010
1000
0001
0000
0001
1000
,
0010
0100
0001
0100
0020
0000
1030
0001
0020
0000
0130
1000
0002
0000
1003
0010
,
2000
0000
3002
0000
0013
0100
0000
0000
1000
0000
1000
0010
0100
0000
0100
0001
,
1000
0000
0000
0000
0000
0000
1000
0000
0000
0010
0000
0000
0100
0000
0000
0001
0000
0000
1000
0000
0000
0100
0000
0000
2000
0000
0000
0000
0000
0000
3002
0000
0000
0000
0000
0000
0203
0000
0000
0002
0300
0000
2003
0000
0000
3002
0000
0000
,
1003
0000
0100
1000
0100
0000
0010
0100
0010
0000
0001
0010
0001
0000
0010
0001
,
0010
0001
1000
0000
0010
1000
0000
0000
0001
0100
0010
1000
0100
0010
0000
0000
,
0M01
0000
0000
0000
1000
0000
0000
0000
0010
0000
0000
0100
0000
0000
0001
0000
0000
0000
1000
0000
0000
0000
1000
0000
0100
0000
0000
0000
0000
0000
0010
0000
0000
0000
0010
0000
0100
0000
0000
0000
0000
0000
1000
0000
0000
0000
0000
0000
0001
0000
0000
0000
0000
0000
0000
0000
0100
0000
0000
0000
0000
0000
0000
0000
,
0010
0000
0000
0100
0000
0100
0001
0000
0000
1000
0000
1000
0100
0000
0000
0010
0100
0000
0000
0000
0000
0000
0000
0000
1000
0000
0000
0000
0000
0000
0000
0000
,
0001
0000
0000
0000
0100
0000
0000
0000
0010
0000
0000
1000
0000
0000
0001
0000
0000
0000
0010
0000
0000
0000
0010
0000
0100
0000
0000
0000
0000
0000
1000
0000
0000
0000
1000
0000
0001
0000
0000
0000
0000
0000
0100
0000
0000
0000
0000
0000
0010
0000
0000
0000
0000
0000
0000
0000
1000
0000
0000
0000
0000
0000
0000
0000
,
0001
0000
0000
0000
0000
0000
0010
0000
0000
0000
0010
0000
0100
0000
0000
0000
0000
0000
0010
0000
0000
0000
0010
0000
0001
0000
0000
0000
0000
0000
0000
0000
1000
0000
0000
0000
0010
0000
0100
0000
0001
0000
0000
0000
1000
0000
0100
0000
1000
0001
1000
0000
0001
0000
0100
0000
0010
0000
0100
0000
0001
0000
0000
0000
,
M000
0020
2030
3020
0032
0000
2003
0000
,
3000
0020
0032
0023
0230
0000
0320
0000
,
0030
2000
3200
0302
0203
0000
2300
0000
,
3000
0000
0000
0000
0001
0000
0100
0010
0100
0000
0001
0000
1000
0000
0000
0000
0200
0000
0000
0000
0000
0000
0310
0000
0002
0000
0000
0000
0000
0000
0000
0000
,
0003
2000
3020
0032
0023
0000
0230
0000
,
0300
0002
0023
2030
3020
0000
0230
0000
,
0300
2000
3020
0032
0023
0000
0230
0000
,
0300
0000
0000
0000
0001
0000
0010
0100
0010
0000
0001
0000
1000
0000
0000
0000
0020
0000
0000
0000
0000
0000
0130
0000
0002
0000
0000
0000
0000
0000
0000
0000
,
1003
0000
0001
0010
0000
0010
0100
0000
0000
0010
0000
0010
0001
0000
0001
1000
,
0000
1000
0010
0000
0010
0100
0000
0000
0002
0000
2003
0000
3200
0320
0230
2300
,
3001
0000
0001
0100
0000
0100
0010
0000
0000
1000
0000
1000
0001
0000
0001
0010
,
0100
1000
0001
1000
0020
0000
0130
0001
2000
0000
3100
0010
0002
0000
1003
0010
,
0200
0000
0302
0000
1003
0100
0000
0000
1000
0001
0000
0001
0100
0000
0100
0001
,
0000
0001
1000
0000
1000
0100
0000
0000
0020
0000
0230
0000
2300
3002
0203
0302
,
1003
0000
0001
0100
0001
0000
0100
0010
0100
0000
0010
1000
0010
0000
1000
0100
,
1000
0000
0000
1000
0000
0000
0001
0000
0000
0000
0000
0000
0020
0000
0000
0000
0000
0000
0130
0000
0000
1000
0000
0000
0001
0000
0100
0000
0010
0000
1000
0000
0010
0000
0100
0000
0001
0000
0000
0000
0000
0000
1000
0000
0000
0100
0000
0000
,
20M0
3001
0100
0010
,
2000
0100
3002
0100
,
2003
0010
0001
3020
,
0230
0001
0310
1000
;

//---------------dance-single - warpdr!ve (8-)----------------
#NOTES:
     dance-single:
     warpdr!ve (8-):
     Medium:
     8:
     0.479,0.464,0.035,0.579,0.268:
0000
0000
0000
0000
,
0000
0000
0000
0000
,
0000
0000
0000
0000
,
0000
0000
0000
0000
,
1001
0000
0000
0000
0000
0000
0000
1010
,
1010
0000
0000
0000
,
M101
0000
0000
0001
0000
0000
1000
0000
0000
0001
0000
0000
0010
0000
0000
0100
,
0000
0000
1000
0000
0000
0001
0000
0000
1000
0000
0010
0000
0001
0000
0010
0000
,
1000
0000
0000
0001
0000
0000
0010
0000
0000
0100
0000
0000
0010
0000
0000
0000
,
0001
1000
0020
0000
2030
0000
3002
0000
,
0013
0000
0100
0000
2000
0000
0000
0000
3010
0100
0000
0000
0001
0000
0000
1000
,
0000
0000
0010
0000
0000
0100
0000
0000
0001
0000
0010
0000
1000
0000
0010
0000
,
0100
1000
0100
0010
0001
0010
0100
1000
,
0001
0000
0100
0000
0020
0000
0000
0000
0130
0001
0100
0001
2000
0000
0000
0000
,
3001
0000
0010
0000
0200
0000
0000
0000
1300
0001
0000
0000
1000
0000
0000
0001
,
0000
0000
0100
0000
0000
0010
0000
0000
1000
0000
0100
0000
0001
0000
0100
0000
,
1000
0000
0000
0001
0000
0000
0100
0000
0000
0001
0000
0000
1000
0000
0000
0000
,
0100
1000
0002
0000
0203
0000
0320
0000
,
1030
0000
0001
0000
0200
0000
0000
0000
0301
0010
0000
0000
0001
0000
0000
1000
,
0000
0000
0100
0000
0000
0010
0000
0000
0001
0000
0100
0000
1000
0000
0100
0000
,
0001
0100
0010
1000
0010
0100
0001
1000
,
0001
0000
0010
0000
0200
0000
0000
0000
1300
0001
1000
0001
0200
0000
0000
0000
,
0301
0000
1000
0000
0200
0000
0000
0000
0310
0000
0001
1000
0001
0000
1000
0001
,
1000
0000
0001
1000
0001
0000
1000
0001
1000
0000
0010
0000
0100
0000
0001
0000
,
1000
0000
0100
1000
0100
0000
1000
0100
1000
0000
0100
1000
0100
0000
1000
0100
,
1000
0001
0020
0000
0032
0000
2003
0000
,
3010
0000
0100
0000
0002
0000
0000
0000
1003
0000
0001
0100
0001
0000
0100
0001
,
0100
0000
0001
0100
0001
0000
0100
0001
0100
0000
0010
0000
1000
0000
0100
0000
,
0010
0000
0001
0010
0001
0000
0010
0001
0010
0000
0001
0010
0001
0000
0010
0001
,
0010
0100
2000
0000
3002
0000
0203
0000
,
M310
0000
0000
0000
0000
0000
0100
0000
0000
0000
0000
0000
0001
0000
0000
0000
0000
0000
0100
0000
0000
0010
0000
0000
1000
0000
0000
0000
0001
0000
0000
0000
,
1000
0000
0000
0100
0000
0000
0010
0000
0001
0000
0000
0000
0100
0000
0000
0000
,
0001
0000
0000
0000
0000
0000
1000
0000
0000
0000
0000
0000
0010
0000
0000
0000
0000
0000
0100
0000
0000
0001
0000
0000
0100
0000
0000
0000
0010
0000
0000
0000
,
0100
0000
0000
0001
0000
0000
1000
0000
0001
0000
0010
0000
0001
0000
1000
0000
,
0M00
0020
0032
0023
2030
0000
3002
0000
,
0003
0020
2030
3020
0230
0000
2300
0000
,
3000
0002
0203
2300
3200
0000
0302
0000
,
0003
0000
0010
0100
0010
0100
1000
0000
0002
0000
0000
0103
0020
0000
0000
0000
,
0030
2000
3200
0302
0203
0000
0320
0000
,
0030
0002
0203
2300
3200
0000
0320
0000
,
0030
2000
3200
0302
0203
0000
0320
0000
,
0030
0000
0001
0100
0001
0100
0010
0000
2000
0000
0000
3100
0020
0000
0000
0000
,
0031
0000
0000
1000
0000
0000
0010
0000
0000
1000
0000
0000
0001
0000
0000
0010
,
0000
0000
0001
0000
0000
1000
0000
0000
0001
0000
0100
0000
1000
0000
0100
0000
,
0001
0000
0000
1000
0000
0000
0100
0000
0000
0010
0000
0000
0001
0000
0000
0000
,
1000
0001
0200
0000
0320
0000
2030
0000
,
3001
0000
0010
0000
0002
0000
0000
0000
0013
0100
0000
0000
1000
0000
0000
0010
,
0000
0000
0100
0000
0000
0001
0000
0000
1000
0000
0100
0000
0001
0000
0100
0000
,
1000
0001
1000
0100
0010
0001
1000
0001
,
0100
0000
0001
0000
0200
0000
0000
0000
0301
1000
0001
1000
0020
0000
0000
0000
,
203M
3100
0010
0001
,
2000
0010
3002
0010
,
2003
0100
0001
3020
,
0230
0001
0310
1000
;

//---------------dance-single - warpdr!ve (4)----------------
#NOTES:
     dance-single:
     warpdr!ve (4):
     Easy:
     4:
     0.228,0.209,0.000,0.302,0.000:
0000
0000
0000
0000
,
0000
0000
0000
0000
,
0000
0000
0000
0000
,
0000
0000
0000
0000
,
1000
0000
0000
0000
0000
0000
0000
0001
,
1000
0000
0000
0000
,
00M1
0100
0010
0100
,
0001
1000
0200
0000
,
1300
0001
0100
0001
,
2000
0000
3200
0000
,
0310
0001
1000
0001
,
0010
0001
2000
0000
,
3010
0100
0010
0100
,
0002
0000
0023
0000
,
0032
0000
1003
0010
,
0100
0001
2000
0000
,
3100
0010
0100
1000
,
0002
0000
0203
0000
,
0310
1000
0001
0010
,
0100
1000
0020
0000
,
0130
0001
0100
0001
,
2000
0000
3200
0000
,
0320
0000
0031
1000
,
0001
1000
0002
0000
,
1003
0010
1000
0010
,
2000
0000
3002
0000
,
0023
0000
0130
1000
,
0100
1000
0200
0000
,
1300
0001
1000
0001
,
2000
0000
3020
0000
,
1M30
0000
0000
0000
0000
0000
0000
0001
,
1000
0000
0001
0010
,
0001
0000
0000
0000
0000
0000
0000
1000
,
0001
0000
1000
0010
,
100M
0010
0100
0001
,
0000
1000
0100
0010
,
0000
0100
1000
0001
,
0000
0100
0010
0100
,
0000
0001
1000
0100
,
0000
1000
0001
0100
,
0000
0001
1000
0001
,
0000
0010
0200
2300
,
3001
1000
0010
0100
,
0001
1000
0200
0000
,
0310
0001
1000
0001
,
2000
0000
3020
0000
,
0130
0001
1000
0001
,
0100
0001
2000
0000
,
3100
0010
0100
0010
,
0002
0000
2003
0000
,
3M02
0013
0010
0010
,
0200
0000
2300
0000
,
3002
0000
0000
0203
,
0320
0000
0130
0001
;

//---------------dance-single - NOVICE----------------
#NOTES:
     dance-single:
     NOVICE:
     Beginner:
     1:
     0.048,0.046,0.000,0.000,0.000:
0000
0000
0000
0000
,
0000
0000
0000
0000
,
0000
0000
0000
0000
,
0000
0000
0000
0000
,
0000
0000
0000
0000
,
0000
0000
0000
0000
,
1000
0000
0000
0000
,
0000
0000
0000
0000
,
0001
0000
0000
0000
,
0001
0000
0000
0000
,
0001
0000
0000
0000
,
0000
0000
0000
0000
,
0010
0000
0000
0000
,
0000
0000
0000
0000
,
0100
0000
0000
0000
,
0000
0000
0000
0000
,
1000
0000
0000
0000
,
1000
0000
0000
0000
,
1000
0000
0000
0000
,
0000
0000
0000
0000
,
0001
0000
0000
0000
,
0000
0000
0000
0000
,
0100
0000
0000
0000
,
0010
0000
0000
0000
,
0100
0000
0000
0000
,
0010
0000
0000
0000
,
0100
0000
0000
0000
,
0001
0000
0000
0000
,
0100
0000
0000
0000
,
0001
0000
0000
0000
,
1000
0000
0000
0000
,
0001
0000
0000
0000
,
1000
0000
0000
0000
,
0001
0000
0000
0000
,
1000
0000
0000
0000
,
0100
0000
0000
0000
,
0010
0000
0000
0000
,
0001
0000
0000
0000
,
1000
0000
0000
0000
,
0010
0000
0000
0000
,
0100
0000
0000
0000
,
0001
0000
0000
0000
,
1000
0000
0000
0000
,
0000
0000
0000
0000
,
0001
0000
0000
0000
,
0001
0000
0000
0000
,
0001
0000
0000
0000
,
0000
0000
0000
0000
,
1000
0000
0000
0000
,
0000
0000
0000
0000
,
0010
0000
0000
0000
,
0100
0000
0000
0000
,
0001
0000
0000
0000
,
1000
0000
0000
0000
;
