#TITLE:PLATINUM;
#SUBTITLE:;
#ARTIST:jioyi;
#TITLETRANSLIT:;
#SUBTITLETRANSLIT:;
#ARTISTTRANSLIT:;
#GENRE:;
#CREDIT:;
#BANNER:Platinum.png;
#BACKGROUND:Platinum-bg.png;
#LYRICSPATH:;
#CDTITLE:cuzco.png;
#MUSIC:Platinum.ogg;
#OFFSET:0.000000;
#SAMPLESTART:89.660721;
#SAMPLELENGTH:10.549454;
#SELECTABLE:YES;
#DISPLAYBPM:91.000000:182.000000;
#BPMS:0.000000=68.250000
,3.000000=91.000000
,5.000000=136.500000
,8.000000=182.000000
,11.000000=91.000000
,11.250000=273.000000
,12.000000=182.000000
,15.000000=91.000000
,15.250000=273.000000
,16.000000=182.000000
,19.000000=91.000000
,19.250000=273.000000
,20.000000=182.000000
,23.000000=91.000000
,23.250000=273.000000
,24.000000=182.000000
,38.000000=91.000000
,38.250000=273.000000
,39.000000=182.000000
,39.250000=91.000000
,39.500000=45.500000
,39.625000=91.000000
,40.000000=45.500000
,40.125000=136.500000
,40.500000=91.000000
,41.500000=45.500000
,41.625000=136.500000
,42.000000=91.000000
,42.500000=45.500000
,42.562500=136.500000
,42.937500=45.500000
,43.000000=91.000000
,45.000000=45.500000
,45.125000=136.500000
,45.500000=45.500000
,45.562500=136.500000
,45.750000=45.500000
,45.812500=136.500000
,46.000000=45.500000
,46.125000=136.500000
,46.500000=45.500000
,46.625000=136.500000
,47.000000=189.000000
,47.250000=91.000000
,47.375000=45.500000
,47.500000=91.000000
,48.000000=136.500000
,48.375000=45.500000
,48.500000=136.500000
,48.625000=68.250000
,48.875000=136.500000
,49.000000=91.000000
,49.500000=45.500000
,49.562500=136.500000
,49.750000=45.500000
,49.812500=136.500000
,50.000000=91.000000
,54.500000=45.500000
,54.625000=91.000000
,54.750000=182.000000
,55.000000=364.000000
,55.500000=182.000000
,55.750000=121.332993
,55.916668=60.666996
,56.000000=182.000000
,59.000000=45.500000
,59.062500=91.000000
,59.187500=273.000000
,59.812500=409.500000
,60.000000=182.000000
,61.000000=45.500000
,61.062500=91.000000
,61.187500=273.000000
,61.812500=409.500000
,62.000000=182.000000
,63.000000=364.000000
,63.500000=182.000000
,63.750000=121.332993
,63.916668=60.666996
,64.000000=182.000000
,68.000000=91.000000
,68.250000=273.000000
,69.000000=91.000000
,69.125000=273.000000
,69.875000=91.000000
,70.125000=273.000000
,70.875000=91.000000
,71.000000=409.500000
,71.187500=273.000000
,71.812500=91.000000
,71.937500=45.500000
,72.000000=182.000000
,75.000000=60.666996
,75.083336=121.332993
,75.250000=182.000000
,75.500000=364.000000
,76.000000=182.000000
,76.500000=91.000000
,76.625000=273.000000
,77.000000=91.000000
,77.250000=273.000000
,78.000000=182.000000
,79.000000=409.500000
,79.187500=273.000000
,79.812500=91.000000
,79.937500=45.500000
,80.000000=182.000000
,86.000000=364.000000
,87.000000=182.000000
,118.500000=273.000000
,120.000000=182.000000
,151.000000=91.000000
,167.000000=121.332993
,167.166672=242.667023
,167.500000=121.332993
,167.666672=242.667023
,168.000000=121.332993
,168.333328=242.667023
,169.000000=121.332993
,169.333328=242.667023
,170.000000=121.332993
,170.166672=242.667023
,170.500000=182.000000
,174.000000=121.332993
,174.166672=242.667023
,174.500000=121.332993
,174.666672=242.667023
,175.000000=121.332993
,175.333328=242.667023
,176.000000=121.332993
,176.333328=242.667023
,177.000000=121.332993
,177.166672=242.667023
,177.500000=182.000000
,181.000000=121.332993
,181.166672=242.667023
,181.500000=121.332993
,181.666672=242.667023
,182.000000=121.332993
,182.333328=242.667023
,183.000000=121.332993
,183.333328=242.667023
,184.000000=121.332993
,184.166672=242.667023
,184.500000=121.332993
,184.666672=242.667023
,185.000000=182.000000
,226.000000=91.000000
,226.250000=273.000000
,227.000000=182.000000
;
#STOPS:36.000000=0.333000,
86.000000=0.165000,
118.500000=0.164000,
170.500000=0.330000,
177.500000=0.330000,
192.500000=0.329000,
224.000000=0.330000
;
#BGCHANGES:;
#KEYSOUNDS:;
#ATTACKS:;

//---------------dance-single - Some step-jumps. I think you can handle them.----------------
#NOTES:
     dance-single:
     C 10 X 16:
     Hard:
     10:
     0.732487,1.078587,0.517050,0.215437,0.801427,595.000000,535.000000,60.000000,25.000000,79.000000,0.000000,0.732487,1.078587,0.517050,0.215437,0.801427,595.000000,535.000000,60.000000,25.000000,79.000000,0.000000:
// measure 0
0000
0000
0000
0000
,  // measure 1
0000
0000
0000
0000
,  // measure 2
1010
0000
0000
0010
0000
0000
0010
0000
0000
0010
0000
0000
0020
0000
0030
0000
,  // measure 3
0110
0000
0000
0100
0000
0000
0100
0000
0000
0100
0000
0000
0200
0000
0300
0000
,  // measure 4
0101
0000
0000
0001
0000
0000
0001
0000
0000
0001
0000
0000
0002
0000
0003
0000
,  // measure 5
1001
0000
0000
1000
0000
0000
1000
0000
0000
1000
0000
0000
2000
0000
3000
0000
,  // measure 6
0001
0000
0000
0011
0000
0000
0010
0000
0100
0000
0000
0110
0000
0000
0100
0000
,  // measure 7
1000
0000
0000
1100
0000
0000
1000
0000
0001
0000
0000
0101
0000
0000
0001
0000
,  // measure 8
0100
0001
0100
0010
1000
0010
0100
0001
1000
0100
0010
0001
0010
0100
1000
0001
,  // measure 9
10M0
0000
0M00
0000
00M0
0000
000M
0000
M000
0000
00M0
0000
0M00
0000
000M
0000
1100
0000
0000
0000
0000
0000
0000
0000
020M
0000
0000
0000
0000
0000
1300
0001
,  // measure 10
0020
0000
0000
0000
0032
0000
1003
0000
0010
1000
0010
1000
0040
0000
0000
0000
0130
0000
0001
0000
2000
0000
0000
0000
3010
0000
0000
1010
0000
0000
1000
0000
,  // measure 11
0010
0100
1000
0100
0001
0000
0001
1000
0001
0000
0001
0000
0201
0000
0310
1000
,  // measure 12
0020
0000
0000
0000
4030
0000
0000
0000
3001
0010
0100
0010
0004
0000
0000
0000
0013
0000
0100
0000
0001
0000
0100
0000
1100
0000
0000
0000
1100
0000
0000
0000
,  // measure 13
1100
0000
0000
0000
1100
0000
0000
0000
0001
0000
1000
0000
0001
0000
1000
0000
0010
0100
0010
0100
0010
0000
0000
0000
021M
0000
0000
0000
0000
0000
0000
0000
,  // measure 14
0301
0100
0010
1000
0100
0010
0002
0000
,  // measure 15
0013
0100
2000
0000
3100
0001
0200
0000
,  // measure 16
1300
0001
0100
0010
1000
0010
0100
0001
,  // measure 17
2000
0000
3400
0001
0000
1300
2100
0000
,  // measure 18
3001
0100
0010
1000
0010
0001
0020
0000
,  // measure 19
0130
0004
1000
0000
0013
1000
0020
0000
,  // measure 20
0130
1000
0100
0010
0001
1000
0040
0000
,  // measure 21
0000
0000
0400
0000
M33M
0000
0100
0010
,  // measure 22
0100
0001
0000
0001
1000
0000
0010
0000
1000
0100
0000
0100
0010
0000
0100
0010
,  // measure 23
0000
0100
1000
0000
0001
1000
0000
0001
0100
0000
0010
0000
0100
0000
0001
0000
,  // measure 24
0100
0010
0000
0010
1000
0000
0001
0000
0010
0001
0000
0001
1000
0000
0100
1000
,  // measure 25
0000
0001
0010
0000
0100
0010
0000
0001
0010
0000
0100
0000
1000
0000
0010
0000
,  // measure 26
1000
0001
0000
0001
1000
0000
0100
0000
1000
0100
0000
0100
0010
0000
0100
0010
,  // measure 27
0000
0001
1000
0000
0001
1000
0000
0010
0100
0000
0001
0000
1000
0000
0001
0000
,  // measure 28
0100
0010
0000
0010
0100
0000
0001
0000
1000
0100
0000
0100
0010
0000
0000
0011
,  // measure 29
0000
0000
1001
0000
0000
1010
0000
0000
1000
0000
M002
0000
0000
0000
0000
0000
,  // measure 30
1003
0010
0000
0010
0100
0000
0001
0000
1000
0010
0000
0010
0100
0000
0010
1000
,  // measure 31
0000
0010
0100
0000
0001
1000
0000
0001
0010
0000
0100
0000
0010
0000
0001
0000
,  // measure 32
1000
0010
0000
0010
1000
0000
0001
0000
0100
0001
0000
0001
0100
0000
0001
1000
,  // measure 33
0000
0001
0100
0000
0010
0100
0000
0001
1000
0000
0100
0000
0010
0000
0001
0000
,  // measure 34
1000
0100
0000
0100
1000
0000
0001
0000
0010
0001
0000
0001
1000
0000
0001
0010
,  // measure 35
0000
0001
1000
0000
0010
0100
0000
0010
1000
0000
0001
0000
0010
0001
0010
0001
,  // measure 36
1000
0010
1000
0010
0100
0001
0100
0001
1000
0100
1000
0100
0010
0000
0001
0000
,  // measure 37
0100
0000
0010
0000
1000
0000
0100
0000
0010
0000
0010
0000
010M
1000
0100
0000
,  // measure 38
0100
0000
0000
0000
1000
0000
0001
0000
0000
0000
0001
0000
0000
0000
0100
0000
0000
0000
0001
0000
0100
0000
0010
0000
0001
0000
0000
0010
0000
0000
0100
0000
,  // measure 39
0000
0010
0000
0000
1000
0000
0000
0000
0001
0000
0000
0010
0000
0000
1000
0000
0000
0010
0000
0000
0100
0000
0000
0000
1000
0000
0010
0000
0100
0000
0000
0000
,  // measure 40
0100
0000
0001
1000
0000
1000
0000
0100
0000
1000
0010
0001
0010
0000
1000
0100
,  // measure 41
0000
0000
0001
0000
0100
0000
0000
0000
1000
0000
0010
0000
0000
0000
0100
0000
0010
0100
0010
0000
1000
0000
0100
0000
011M
0000
0000
0000
0100
0000
0000
0000
,  // measure 42
1000
0000
0000
0000
0000
0000
0000
0000
0000
0000
0000
0000
0000
0000
0000
0000
1001
0000
0000
0000
0000
0000
0000
0000
0000
0000
0000
0000
0000
0000
0000
0000
0101
0000
0000
0000
0000
0000
0000
0000
0101
00M0
0000
0000
M000
0000
0000
0000
00M0
0000
0000
0000
M000
0000
0000
0000
000M
0000
0000
0000
0M00
0000
0000
0000
,  // measure 43
000M
00M0
0M00
M000
000M
M000
0M00
00M0
1001
0000
0001
0000
0100
0000
0000
0000
,  // measure 44
1010
0000
0000
0000
0000
0000
0000
0000
0000
0000
0000
0000
0000
0000
0000
0000
0110
0000
0000
0000
0000
0000
0000
0000
0110
000M
0000
0000
M000
0000
0000
0000
000M
0000
0000
0000
M000
0000
0000
0000
0M00
0000
0000
0000
00M0
0000
0000
0000
000M
0000
0000
0000
0M00
0000
0000
0000
00M0
0000
0000
0000
M000
0000
0000
0000
,  // measure 45
000M
0M00
00M0
M000
0101
0000
0001
0000
1000
0000
0000
0000
1100
0000
0000
0000
,  // measure 46
0011
0000
0011
0000
M000
0000
0M00
M000
MMMM
0000
0M00
M000
0M00
M000
MMMM
0000
,  // measure 47
0M00
0000
M000
0M00
0001
0000
1000
0000
0001
0000
0000
0000
0001
0000
0000
0000
,  // measure 48
1000
0000
0M02
0000
0000
0000
0103
0000
0010
0100
0010
0000
0100
0000
0001
0000
,  // measure 49
1000
1000
1000
1000
,  // measure 50
1000
0000
0000
0000
1000
0000
0000
0000
1000
0000
0000
0000
1000
0000
0100
0010
,  // measure 51
0001
0001
0001
0001
,  // measure 52
0001
0000
0000
0000
0001
0000
0000
0000
0001
0000
0000
0000
0001
0000
1000
0010
,  // measure 53
0100
0000
0010
0000
0100
0000
0010
0000
0100
0000
0010
0000
0100
0000
0001
1000
,  // measure 54
0100
0000
0010
0000
0100
0000
0010
0000
0100
0000
0010
0000
0100
0000
1000
0001
,  // measure 55
0100
0010
1000
0001
0010
0100
1000
0100
0010
0001
1000
0010
0100
0001
0100
0010
,  // measure 56
1000
000M
0000
0000
0M00
0000
0000
0000
000M
0000
0000
0000
00M0
0000
0000
0000
0M00
0000
0000
0000
M000
0000
0000
0000
00M0
0000
0000
0000
0M00
0000
0000
0000
201M
0000
0000
0000
0000
0000
0000
0000
0000
0000
0000
0000
0000
0000
0000
0000
3010
0000
0000
0000
0000
0000
0000
0000
0001
0000
0000
0000
0000
0000
0000
0000
,  // measure 57
0010
0000
1010
0000
1000
0001
0000
0011
,  // measure 58
0000
0000
0210
0000
0000
0000
1300
0000
0010
0000
0100
0000
1000
0000
0000
0100
,  // measure 59
0000
0000
0010
0000
0000
0100
0000
0000
0001
0000
0000
0000
0010
0000
0000
0100
,  // measure 60
0000
0000
0001
0000
0000
0100
0000
0000
0010
0000
0000
0000
0100
0000
0001
0000
,  // measure 61
0100
0000
1100
0000
1000
0001
0000
0101
,  // measure 62
0000
0110
0000
1000
0100
0010
0011
0000
,  // measure 63
0001
1001
0000
1000
1010
0000
0010
0110
,  // measure 64
0000
0000
0100
0000
0010
0100
0010
0000
1000
0000
0001
0000
0010
0000
1000
0000
,  // measure 65
0010
0000
0011
0000
0001
1000
0000
1010
,  // measure 66
0000
0000
0210
0000
0000
0000
0301
0000
0010
0000
0100
0000
0001
0000
0000
0100
,  // measure 67
0000
0000
1000
0000
0000
0100
0000
0000
0010
0000
0000
0000
0001
0000
0000
0100
,  // measure 68
0000
0000
1000
0000
0000
0100
0000
0000
0010
0000
0000
0000
0100
0000
1000
0000
,  // measure 69
0100
0000
0101
0000
0001
0010
0000
0011
,  // measure 70
0000
0000
0110
0000
0000
0000
0100
0000
0001
0000
0100
0000
0110
0000
0000
1100
,  // measure 71
0000
0000
1001
0000
0000
0011
0000
0000
1001
0000
0000
0101
0000
0000
1010
0000
,  // measure 72
0000
0010
0100
0000
0010
0100
0001
0000
1000
0000
0100
0000
M11M
0000
0000
0000
,  // measure 73
1MM1
0000
M11M
0000
2MM2
3003
0000
0000
;

//---------------dance-single - Watered down version of heavy. Might not be the best but...eh.----------------
#NOTES:
     dance-single:
     C 8 X 13:
     Medium:
     8:
     0.566293,0.901821,0.163732,0.224055,0.387787,460.000000,441.000000,19.000000,26.000000,4.000000,0.000000,0.566293,0.901821,0.163732,0.224055,0.387787,460.000000,441.000000,19.000000,26.000000,4.000000,0.000000:
// measure 0
0000
0000
0000
0000
,  // measure 1
0000
0000
0000
0000
,  // measure 2
1000
0000
0000
0100
0000
0000
1000
0000
0000
0100
0000
0000
2000
0000
0000
0000
,  // measure 3
3001
0000
0000
0100
0000
0000
0001
0000
0000
0100
0000
0000
0002
0000
0000
0000
,  // measure 4
1003
0000
0000
0010
0000
0000
1000
0000
0000
0010
0000
0000
2000
0000
0000
0000
,  // measure 5
3001
0000
0000
0010
0000
0000
0001
0000
0000
0010
0000
0000
0002
0000
0000
0000
,  // measure 6
1003
0000
0000
0010
0000
0000
0100
0000
0001
0000
0000
1000
0000
0000
0100
0000
,  // measure 7
0010
0000
0000
0001
0000
0000
0100
0000
0010
0000
0000
1000
0000
0000
0100
0000
,  // measure 8
0010
0001
1000
0010
0100
0001
1000
0100
,  // measure 9
0010
0000
0000
0000
0000
0000
0000
0000
1001
0000
0000
0000
20M0
0000
0000
3001
,  // measure 10
0010
0000
0000
0000
0100
0000
1000
0000
0001
0000
0100
0000
0001
0000
0000
0000
0010
0000
1000
0000
0010
0000
0000
0000
0100
0000
0000
0100
0000
0000
0100
0000
,  // measure 11
1000
0001
0100
1000
0100
0000
0010
0100
0010
0000
0110
0000
1002
0000
1003
0001
,  // measure 12
0010
0001
1000
0000
0010
1000
0010
0000
0001
0010
0100
0010
1000
0000
0001
0000
,  // measure 13
1000
0000
0001
0000
1000
0000
0001
0000
1000
0001
0100
0000
M120
0000
0000
0000
,  // measure 14
1030
0100
0010
0100
1000
0001
0200
0000
,  // measure 15
0310
1000
0200
0000
0320
0000
0130
0000
,  // measure 16
1000
0001
0100
0010
0100
0001
1000
0100
,  // measure 17
0020
0230
2300
3002
,  // measure 18
0103
0010
0100
0001
0100
0010
2000
0000
,  // measure 19
3001
0010
0200
0000
1300
0001
2000
0000
,  // measure 20
3010
0100
0010
1000
0001
0010
0200
0000
,  // measure 21
0000
0000
0000
0000
0020
0330
0000
0000
1001
0000
0000
0000
1000
0000
0010
0000
,  // measure 22
0000
0001
0000
0000
0010
0000
0100
0000
0000
0001
0000
0000
0010
0000
0000
0010
,  // measure 23
0000
0000
0100
0000
0000
0100
0000
0000
1000
0000
0001
0000
0100
0000
0010
0000
,  // measure 24
0000
0001
0000
0000
0010
0000
0100
0000
0000
0001
0000
0000
1000
0000
0000
1000
,  // measure 25
0000
0000
0001
0000
0000
0001
0000
0000
0010
0000
0100
0000
1000
0000
0100
0000
,  // measure 26
0000
0001
0000
0000
0100
0000
0010
0000
0000
0001
0000
0000
0100
0000
0000
0100
,  // measure 27
0000
0000
0010
0000
0000
0010
0000
0000
1000
0000
0001
0000
0100
0000
0010
0000
,  // measure 28
0000
0001
0000
0000
0010
0000
1000
0000
0000
0001
0000
0000
0011
0000
0000
0011
,  // measure 29
0000
0000
1001
0000
0000
1001
0000
0000
0010
0000
0100
0000
0000
0000
0000
0000
,  // measure 30
1001
0000
0000
0000
0001
0000
0010
0000
0000
0010
0000
0000
1000
0000
0000
0010
,  // measure 31
0000
0000
0100
0000
0000
1000
0000
0000
0100
0000
0010
0000
0001
0000
1000
0000
,  // measure 32
0000
1000
0000
0000
0010
0000
0100
0000
0000
0100
0000
0000
0010
0000
0000
0001
,  // measure 33
0000
0000
0010
0000
0000
0100
0000
0000
0001
0000
1000
0000
0100
0000
0000
0010
,  // measure 34
0000
0000
0010
0000
0100
0000
1000
0000
0000
1000
0000
0000
0010
0000
0000
0001
,  // measure 35
0000
0000
0010
0000
0000
0100
0000
0000
0001
0000
1000
0000
0100
0000
1000
0000
,  // measure 36
0100
0010
0001
1000
0001
0100
0020
0000
,  // measure 37
0000
0000
0100
0000
0000
0000
0000
0000
1030
0000
0001
0000
1M00
0001
1000
0000
,  // measure 38
1000
0000
0000
0000
1000
0000
0010
0000
0000
0000
0010
0000
0000
0000
0100
0000
0000
0000
0001
0000
0100
0000
0001
0000
0010
0000
0000
0100
0000
0000
1000
0000
,  // measure 39
0000
0100
0000
0000
0010
0000
0000
0000
0001
0000
0000
1000
0000
0000
0010
0000
0000
1000
0000
0000
0001
0000
0000
0000
0100
0000
0001
0000
0100
0000
0000
0000
,  // measure 40
0100
0000
0100
0001
0000
0001
0000
0100
0000
0001
1000
0100
0010
0000
0100
0010
,  // measure 41
0000
0100
1000
0000
0100
0001
0000
0100
1000
0001
1000
0001
10M0
0000
1000
0000
,  // measure 42
1000
0000
1001
0000
0001
0002
0000
0000
,  // measure 43
0000
0000
0000
0000
0103
0100
0100
0000
,  // measure 44
0110
0000
0010
0020
0000
0000
0000
0000
,  // measure 45
0000
0000
1030
0001
1000
0000
1010
0000
,  // measure 46
0010
0100
0010
0100
1000
0100
0001
0010
,  // measure 47
0100
1000
0002
0000
1000
0000
1000
0000
,  // measure 48
0000
2000
0000
0000
0000
0000
3003
0000
,  // measure 49
1000
0100
0010
0100
,  // measure 50
0001
0000
0100
0000
0010
0000
0100
0010
,  // measure 51
0001
0100
0010
0100
,  // measure 52
1000
0000
0100
0000
0010
0000
0100
0001
,  // measure 53
1000
0100
0010
0100
0001
0100
0010
0001
,  // measure 54
0100
1000
0100
0010
0100
0001
1000
0100
,  // measure 55
0010
0001
1000
0010
0100
0001
0010
0000
,  // measure 56
0110
0000
0000
0000
1001
0000
1000
0010
,  // measure 57
1000
0000
0001
0000
1000
0010
0000
0010
,  // measure 58
0000
0000
0100
0000
0000
0000
0001
0000
0010
0000
1000
0000
0010
0000
0000
0100
,  // measure 59
0000
0000
1000
0000
0000
0001
0000
0000
0100
0000
0000
0000
0010
0000
0000
0100
,  // measure 60
0000
0000
0001
0000
0000
1000
0000
0000
0100
0000
0000
0000
1000
0000
0001
0000
,  // measure 61
0100
0000
0100
0000
0010
1000
0000
1000
,  // measure 62
0000
0100
0000
0010
1000
0010
0100
0000
,  // measure 63
0100
1000
0000
1000
0001
0000
0001
0010
,  // measure 64
0000
0100
1000
0001
0100
0010
1000
0001
,  // measure 65
0010
0000
0010
0000
0100
1000
0000
1000
,  // measure 66
0000
0000
0001
0000
0000
0000
0100
0000
0010
0000
0001
0000
0010
0000
0000
1000
,  // measure 67
0000
0000
0001
0000
0000
0010
0000
0000
0100
0000
0000
0000
1000
0000
0000
0001
,  // measure 68
0000
0000
0100
0000
0000
0010
0000
0000
1000
0000
0000
0000
0001
0000
0010
0000
,  // measure 69
0001
0000
0001
0000
1000
0100
0000
0100
,  // measure 70
0000
0000
0010
0000
0000
0000
0010
0000
0001
0000
1000
0000
0100
0000
0000
0110
,  // measure 71
0000
0000
0010
0000
0000
0011
0000
0000
0001
0000
0000
1001
0000
0000
1000
0000
,  // measure 72
0000
1010
0000
0000
0010
0000
0100
0000
0010
0000
1000
0000
0001
0000
0010
0000
,  // measure 73
0001
1000
0100
1000
0002
2000
0000
0000
,  // measure 74
0000
0000
0000
3003
;

//---------------dance-single - Probably messy. Curse the complex rhythms here...----------------
#NOTES:
     dance-single:
     C 6 X 10:
     Easy:
     6:
     0.403791,0.539294,0.215437,0.120645,0.043087,328.000000,303.000000,25.000000,14.000000,4.000000,0.000000,0.403791,0.539294,0.215437,0.120645,0.043087,328.000000,303.000000,25.000000,14.000000,4.000000,0.000000:
// measure 0
0000
0000
0000
0000
,  // measure 1
0000
0000
0000
0000
,  // measure 2
1000
0100
1000
1000
,  // measure 3
0001
0100
0001
0001
,  // measure 4
1000
0010
1000
1000
,  // measure 5
0001
0010
0001
0001
,  // measure 6
1000
1001
0001
1001
,  // measure 7
0100
0110
0010
0110
,  // measure 8
1000
0100
1000
0001
0100
0001
0100
0010
,  // measure 9
1000
0000
0000
0000
1001
0000
00M2
0003
,  // measure 10
1000
0100
1000
0001
1000
0100
1000
0001
,  // measure 11
0100
0010
0100
0100
0100
0100
0220
0330
,  // measure 12
0010
1000
0001
1000
0100
0010
0002
0000
,  // measure 13
0000
0000
0003
0000
1000
1001
0M01
0000
,  // measure 14
0010
0100
0010
0002
,  // measure 15
0003
1000
0010
2000
,  // measure 16
3000
0010
0100
0001
,  // measure 17
0010
0200
0300
0220
,  // measure 18
0330
0010
0001
1000
,  // measure 19
0002
0003
1000
0010
,  // measure 20
0100
0001
1000
0002
,  // measure 21
0000
2000
3003
1000
,  // measure 22
0001
0100
0010
0001
,  // measure 23
0010
0100
0001
1000
,  // measure 24
0001
0010
0100
0001
,  // measure 25
0100
0010
0001
1000
,  // measure 26
0010
0100
1000
0100
,  // measure 27
0010
1000
0001
1000
,  // measure 28
0100
0000
0000
0000
0001
0000
0000
0000
0100
0000
0000
0000
1000
0000
0000
0001
,  // measure 29
0000
0000
1000
0000
0000
0001
0000
0000
1000
0000
0001
0000
0000
0000
0000
0000
,  // measure 30
1001
0001
0010
1000
,  // measure 31
0010
0100
1000
0001
,  // measure 32
1000
0010
0100
1000
,  // measure 33
0100
0010
1000
0001
,  // measure 34
0010
0100
0010
1000
,  // measure 35
0010
0000
0100
0000
1000
0000
0001
0100
,  // measure 36
0010
1000
0001
0010
0100
0010
0001
0000
,  // measure 37
0000
0001
0000
0000
1000
0000
00M1
0000
,  // measure 38
0100
0001
0000
0010
,  // measure 39
0100
1000
0000
0100
,  // measure 40
0010
0100
0000
1000
,  // measure 41
0010
0100
0000
10M1
,  // measure 42
0110
0000
1001
0000
1000
0001
0000
0000
,  // measure 43
0000
0000
0110
1001
,  // measure 44
0110
0000
0100
0010
0000
0000
0000
0000
,  // measure 45
0000
1001
0110
1001
,  // measure 46
0001
1000
0001
0000
0100
0010
0000
0100
,  // measure 47
0001
2000
0000
0000
,  // measure 48
0000
0000
3000
0000
,  // measure 49
0001
1000
0001
1000
,  // measure 50
0001
1000
0001
1000
,  // measure 51
0010
0100
0010
0100
,  // measure 52
0010
0100
0010
0100
,  // measure 53
0001
1000
0100
0010
,  // measure 54
0001
0010
0100
1000
,  // measure 55
0001
0100
0010
1000
0001
0100
0001
1000
,  // measure 56
0200
0300
0110
0010
,  // measure 57
0001
0000
1000
0000
0001
0100
0000
0010
,  // measure 58
0000
0000
0100
0000
0000
0000
0001
0000
1000
0000
0001
0000
0010
0000
0000
0100
,  // measure 59
0000
0000
1000
0000
0000
0100
0000
0000
0010
0000
0000
0000
0001
0000
0000
0100
,  // measure 60
0000
0000
0010
0000
0000
0100
0000
0000
0001
0000
0000
0000
1000
0000
0000
0000
,  // measure 61
0010
0000
1000
0000
0001
0010
0000
0100
,  // measure 62
0000
0010
0000
0001
1000
0010
1000
0000
,  // measure 63
1000
0001
0000
0001
0010
0000
0010
0100
,  // measure 64
0000
0100
1000
0010
1000
0001
0100
0000
,  // measure 65
0001
0000
1000
0000
0001
0010
0000
0010
,  // measure 66
0000
0000
0100
0000
0000
0000
0010
0000
0001
0000
0000
0000
1000
0000
0000
0010
,  // measure 67
0000
0000
0100
0000
0000
0010
0000
0000
1000
0000
0000
0000
0100
0000
0000
0010
,  // measure 68
0000
0000
0001
0000
0000
0010
0000
0000
0100
0000
0000
0000
1000
0000
0000
0000
,  // measure 69
0010
0000
0100
0000
1000
0001
0000
0001
,  // measure 70
0000
1000
0000
0100
0010
0000
0110
0000
,  // measure 71
0000
1100
0000
0000
1001
0000
0000
1010
,  // measure 72
0000
0000
0101
0000
0101
0000
0001
1000
,  // measure 73
0001
0100
0010
1000
0001
1000
0000
0000
;

//---------------dance-single - How to play.----------------
#NOTES:
     dance-single:
     C 2 X 3:
     Beginner:
     2:
     0.224055,0.317770,0.232672,0.000000,0.000000,182.000000,155.000000,27.000000,0.000000,4.000000,0.000000,0.224055,0.317770,0.232672,0.000000,0.000000,182.000000,155.000000,27.000000,0.000000,4.000000,0.000000:
// measure 0
0000
0000
0000
0000
,  // measure 1
0000
0000
0000
0000
,  // measure 2
1000
0000
0000
0000
,  // measure 3
0001
0000
0000
0000
,  // measure 4
1000
0000
0000
0000
,  // measure 5
0001
0000
0000
0000
,  // measure 6
0100
0000
0010
0000
,  // measure 7
0100
0000
0010
0000
,  // measure 8
0100
0100
0100
0000
,  // measure 9
0110
0000
0000
100M
,  // measure 10
0000
0001
0000
1000
,  // measure 11
1000
1000
0000
0001
,  // measure 12
0000
1000
0000
1001
,  // measure 13
0000
0000
0000
0M10
,  // measure 14
0000
0100
0000
0110
,  // measure 15
0000
0100
0000
0010
,  // measure 16
0000
0100
0000
0010
,  // measure 17
0000
0010
0010
0010
,  // measure 18
0000
0100
0000
0110
,  // measure 19
0000
0100
0000
0010
,  // measure 20
0000
0100
0100
0100
,  // measure 21
0000
0110
0000
1000
,  // measure 22
0000
0001
0000
1000
,  // measure 23
1000
1000
0000
0001
,  // measure 24
0000
1000
0000
0001
,  // measure 25
0001
0001
0000
0010
,  // measure 26
0000
0100
0000
0010
,  // measure 27
0010
0010
0000
0100
,  // measure 28
0000
0010
0000
0110
,  // measure 29
0000
1001
0000
0000
,  // measure 30
1000
0000
0001
0001
,  // measure 31
0001
0001
0000
1000
,  // measure 32
0000
0001
0000
1000
,  // measure 33
1000
1000
0000
0010
,  // measure 34
0000
0100
0000
0010
,  // measure 35
0010
0010
0000
1000
,  // measure 36
1000
1000
0000
1001
,  // measure 37
0000
0000
0000
1M00
,  // measure 38
0000
0000
0000
0001
,  // measure 39
0000
0000
0000
0010
,  // measure 40
0000
0000
0000
0100
,  // measure 41
0000
0000
0000
10M1
,  // measure 42
1001
1001
0000
0000
,  // measure 43
0000
0000
0110
0110
,  // measure 44
0110
0000
0000
0000
,  // measure 45
0000
1001
1001
1001
,  // measure 46
0000
1000
0000
0001
,  // measure 47
0000
1000
0000
0000
,  // measure 48
0000
0000
0000
0000
,  // measure 49
0001
0000
0001
0000
,  // measure 50
0001
0000
0001
0000
,  // measure 51
1000
0000
1000
0000
,  // measure 52
1000
0000
1000
0000
,  // measure 53
0001
0001
0001
0000
,  // measure 54
1000
1000
1000
0000
,  // measure 55
0010
0010
0010
0000
,  // measure 56
0110
0000
0001
0001
,  // measure 57
0001
0001
0000
1000
,  // measure 58
1000
1000
0000
0001
,  // measure 59
0000
1000
0000
0001
,  // measure 60
0001
0001
0000
0010
,  // measure 61
0010
0010
0000
0100
,  // measure 62
0000
0010
0000
0110
,  // measure 63
0000
1001
0000
0110
,  // measure 64
0000
1001
0000
1000
,  // measure 65
1000
1000
0000
0001
,  // measure 66
0001
0001
0000
0010
,  // measure 67
0000
0100
0000
0010
,  // measure 68
0000
0100
0000
1000
,  // measure 69
1000
1000
0000
0001
,  // measure 70
0001
0001
0000
0110
,  // measure 71
0000
1001
0000
0110
,  // measure 72
0000
1001
0000
1000
,  // measure 73
1000
1000
0000
1001
;
