#TITLE:On My Wings;
#SUBTITLE:(Hardstyle IIDX);
#ARTIST:kors k;
#TITLETRANSLIT:;
#SUBTITLETRANSLIT:;
#ARTISTTRANSLIT:;
#GENRE:;
#CREDIT:;
#BANNER:[Voiceless Week] - On My Wings(Hardstyle IIDX).png;
#BACKGROUND:[Voiceless Week] - On My Wings(Hardstyle IIDX)-bg.png;
#LYRICSPATH:;
#CDTITLE:;
#MUSIC:On My Wings(Hardstyle IIDX).mp3;
#OFFSET:0.579000;
#SAMPLESTART:26.602001;
#SAMPLELENGTH:11.200001;
#SELECTABLE:YES;
#BPMS:0.000000=150.000000
;
#STOPS:
;
#BGCHANGES:;
#KEYSOUNDS:;
#ATTACKS:;

//---------------dance-single - ----------------
#NOTES:
     dance-single:
     :
     Hard:
     8:
     0.448454,0.556782,0.240857,0.080286,0.144514,391.000000,361.000000,30.000000,10.000000,0.000000,0.000000,0.448454,0.556782,0.240857,0.080286,0.144514,391.000000,361.000000,30.000000,10.000000,0.000000,0.000000:
0000
0000
0000
0000
,
0000
0000
0000
0000
,
0000
0000
0000
0000
,
0000
0000
0000
0000
,
0000
0000
0000
0000
,
0000
0000
0000
0000
,
0000
0000
0000
0000
,
0000
0000
0000
0000
,
0000
0000
0000
0000
,
1001
0000
0000
1000
0010
1000
0000
0000
,
0000
0000
0000
1000
0010
1000
0000
0000
,
0000
0000
0000
1000
0001
0100
0000
0000
,
0000
0000
0000
0001
1000
0010
1000
0100
,
1001
0000
0110
0000
,
1001
0000
0110
0000
,
0101
1010
1100
0011
,
0001
0010
0100
1000
0001
1000
0010
0100
0001
1000
0000
0000
,
0001
0000
0010
0000
0001
0000
0000
1000
0000
1000
0000
0000
0101
0000
0000
0000
,
0000
0000
1000
0010
0000
0000
0010
1000
0001
0000
0010
0000
0100
0000
1000
0000
,
0001
0000
0010
0000
0001
0000
0000
1000
0000
1000
0000
0000
0101
0000
0000
0000
,
2100
0000
3000
0100
0020
0000
0031
1000
,
0001
0000
0100
0000
0001
0000
0000
0010
0000
0010
0000
0000
1100
0000
0000
0000
,
0000
0000
1000
0001
0000
0000
0001
1000
0001
0000
0010
0000
0001
0000
1000
0000
,
0100
0000
1000
0000
0100
0000
0000
0010
0000
0010
0000
0000
0011
0000
0000
0000
,
1001
0000
0000
1000
0010
1000
0001
0000
,
1000
0100
1000
0100
1000
0100
1000
0100
,
0010
0001
0010
0100
0010
0001
0100
0010
,
1000
0001
1000
0001
1000
0001
1000
0001
,
0101
0000
0000
0010
2000
0000
3010
0000
,
0100
0010
0100
0010
0100
0010
0100
0010
,
0100
0001
1000
0010
0100
0001
1000
0010
,
1000
0100
1000
0100
1000
0100
1000
0100
,
1100
0000
0001
0101
0000
0010
1001
0000
,
0001
1000
0010
1000
0001
0010
0001
1000
,
0001
1000
0010
1000
0001
0010
0100
1000
,
0001
1000
0100
1000
0001
0100
0001
1000
,
0001
0000
1000
0000
0100
0000
1000
0000
0001
0000
0000
0100
0000
0000
0010
0000
,
1001
1001
0000
0000
0000
1000
0010
0110
,
0110
0000
0000
0000
0000
0000
0100
0000
0001
0000
0000
0010
0000
0000
0001
0000
,
1001
0000
0000
0000
2000
0000
0000
0000
3001
0000
0000
0010
0000
0000
1000
0000
,
0020
0000
0000
0230
,
1300
1000
0100
1000
0010
0010
0100
0001
,
0000
1000
0001
0001
0010
0000
0100
0000
,
0000
0010
0001
0001
0010
0000
0100
1000
,
0000
0001
1000
1000
0010
0000
0100
0000
,
0000
0010
1000
1000
0010
0100
0001
0010
,
0000
0010
0100
0100
1000
0000
0001
0000
,
0000
1000
0010
0010
0100
0010
1000
0001
,
0000
0010
0100
0100
1000
0000
0010
0000
,
0101
0001
0001
0001
,
1000
1000
1000
1000
,
0010
0010
0010
0010
,
0100
0100
0100
0100
,
0001
0000
0000
0100
0000
0000
1000
0000
0000
0100
0000
0000
0001
0000
0000
0010
,
0000
0000
1000
0000
0000
0010
0000
0000
0100
0000
0000
1000
0000
0000
0001
0000
,
1000
0010
0100
0001
0010
0100
1000
0010
,
2002
0000
0000
3003
,
1000
0000
0000
0010
0000
0000
0100
0000
0001
0000
0000
0010
0000
0000
0100
0000
,
1000
0000
0000
0100
0000
0000
1000
0000
0010
0000
0000
0100
0000
0000
0001
0000
,
1000
0000
0000
0001
0000
0000
1000
0000
0010
0000
0000
1000
0000
0000
0001
0000
,
1000
0000
0000
0010
0000
0000
1000
0000
0010
0000
0000
0100
0000
0000
0001
0000
,
1000
0000
0100
0000
1000
0000
0010
0000
0100
0000
0000
0010
0000
0000
1000
0000
,
0001
0000
0010
0000
0001
0000
1000
0000
0100
0000
0000
1000
0000
0000
0100
0000
,
1000
0000
0000
0010
0000
0100
0000
0001
,
0000
1000
1000
0000
0100
0000
0010
0000
,
1002
1000
1000
1000
,
0100
0100
0100
0103
,
1001
1000
0100
0100
1000
0001
0100
0010
,
0000
1000
0001
0001
0100
0000
0010
0000
,
1002
1000
1000
1000
,
0100
0100
0100
0103
,
0001
0100
0100
0010
1000
1000
0100
1000
,
0000
0100
0010
0010
0001
0000
0100
0000
,
1001
0000
0000
0000
;

//---------------dance-single - ----------------
#NOTES:
     dance-single:
     :
     Medium:
     5:
     0.347523,0.527478,0.489743,0.144514,0.032114,303.000000,242.000000,61.000000,18.000000,0.000000,0.000000,0.347523,0.527478,0.489743,0.144514,0.032114,303.000000,242.000000,61.000000,18.000000,0.000000,0.000000:
0000
0000
0000
0000
,
0000
0000
0000
0000
,
0000
0000
0000
0000
,
0000
0000
0000
0000
,
0000
0000
0000
0000
,
0000
0000
0000
0000
,
0000
0000
0000
0000
,
0000
0000
0000
0000
,
0000
0000
0000
0000
,
1001
0000
0000
0001
1000
0001
0000
0000
,
0000
0000
0000
1000
0001
1000
0000
0000
,
0000
0000
0000
0010
0100
0010
0000
0000
,
0000
0000
0000
0100
0010
1000
0001
0000
,
1001
0000
0110
0000
,
1010
0000
0101
0000
,
0011
0110
1100
1010
,
2002
0000
0000
3003
,
1001
0001
0010
0011
,
0001
0001
1000
1000
,
0010
0100
0001
0011
,
2100
0000
0000
3001
0200
0000
0310
0000
,
0110
0010
1000
1001
,
0001
0001
1000
1000
,
0010
1000
0010
0110
,
1001
0000
0000
0001
0010
0100
0010
0000
,
1001
0001
0001
0001
,
1000
0010
0100
0001
,
1001
1000
1000
1000
,
0101
0000
0000
0001
0020
0000
0130
0000
,
0011
0010
0010
0010
,
0100
1000
0010
0100
,
1001
1000
1000
1000
,
0101
0000
0000
1010
0000
0000
0101
0000
,
0001
0011
0010
0110
,
0100
0000
1100
0000
1000
0100
0010
0001
,
1000
1001
0001
0101
,
0100
0000
0000
0000
0110
0000
0000
0000
0100
0000
0000
0010
0000
0000
1000
0000
,
0001
1000
0000
0000
0000
0010
0000
0100
,
0010
0000
0000
0000
0000
0000
0000
0000
0100
0000
0000
0010
0000
0000
1000
0000
,
0001
0000
0000
0000
1000
0000
0000
0000
0100
0000
0000
0010
0000
0000
0002
0000
,
2000
0000
0000
0000
0000
0000
0000
3003
,
1000
0010
0100
0001
,
0100
0010
2000
3002
,
0003
0010
0001
0100
,
0010
1000
0200
0320
,
0030
0100
1000
0001
,
0100
0010
2000
3002
,
0003
0010
0001
0100
,
0010
1000
0200
2300
,
3010
1000
0010
1000
,
0001
0100
0001
0100
,
1000
0100
0001
0010
,
1000
0010
0001
1000
,
0010
0000
0000
0010
0000
0000
0100
0000
0000
0100
0000
0000
0001
0000
0000
0001
,
0000
0000
1000
0000
0000
1000
0000
0000
0001
0000
0000
0010
0000
0000
0100
0000
,
1000
0001
1000
0001
1000
0001
1000
0001
,
0200
0000
0000
0300
,
0110
0110
0110
0110
,
1010
1010
1010
1010
,
1100
1100
1100
1100
,
0011
0011
0011
0011
,
0101
0101
0101
0101
,
1010
1010
1010
1010
,
1001
0000
0000
0110
0000
1000
0000
0001
,
0000
0100
0010
0000
1000
0000
0001
0000
,
0201
0000
0000
0000
,
0000
0000
0000
0300
,
0001
0000
0100
0000
0010
0000
1000
0100
,
0000
0010
0100
0000
1000
0000
0001
0000
,
2010
0000
0000
0000
,
0000
0000
0000
0000
,
3001
1000
0010
1000
0100
1000
0010
1000
,
0000
0001
0010
0100
1000
0000
0010
0000
,
1001
0000
0000
0000
;

//---------------dance-single - ----------------
#NOTES:
     dance-single:
     :
     Easy:
     3:
     0.228241,0.322348,0.136486,0.032114,0.000000,199.000000,182.000000,17.000000,4.000000,0.000000,0.000000,0.228241,0.322348,0.136486,0.032114,0.000000,199.000000,182.000000,17.000000,4.000000,0.000000,0.000000:
0000
0000
0000
0000
,
0000
0000
0000
0000
,
0000
0000
0000
0000
,
0000
0000
0000
0000
,
0000
0000
0000
0000
,
0000
0000
0000
0000
,
0000
0000
0000
0000
,
0000
0000
0000
0000
,
0000
0000
0000
0000
,
1001
0000
0001
0000
,
0000
0000
0001
0000
,
0000
0000
1000
0000
,
0000
0000
0100
1000
,
1001
0000
0001
0000
,
0001
0000
1000
0000
,
0001
0010
0100
1000
,
0020
0000
0000
0030
,
1000
0010
1000
1010
,
1000
0000
0001
0000
,
0100
0001
0100
0101
,
1001
0000
0110
0000
,
0010
0100
0010
0110
,
0100
0000
0100
0000
,
0001
1000
0001
1001
,
0110
0000
0000
0000
,
1000
0010
1000
0010
,
1000
0010
1000
0010
,
0100
0001
0100
0001
,
0100
0001
0010
0001
,
1000
0001
1000
0001
,
1000
0001
1000
0001
,
0100
0010
0100
0010
,
0100
0000
0000
0010
0000
0000
1000
0000
,
0001
1001
1000
0010
,
1000
0001
0010
0001
,
1000
0100
1000
0001
,
0100
0001
1000
0100
,
1000
0000
0000
0010
,
0100
0000
0001
0000
,
0010
0001
1000
0010
,
0200
0000
0000
0000
,
0310
0000
1000
0000
,
0001
0000
1000
1000
,
0001
0000
0100
0000
,
0010
0000
0100
0001
,
1000
0000
0100
0000
,
1000
0000
0010
0100
,
0010
0000
1000
0000
,
0001
0000
1000
0001
,
1001
0000
0001
0000
,
1000
0000
0010
0000
,
1000
0000
0001
0000
,
0100
0000
0001
0000
,
1001
0000
0001
0000
,
1001
0000
1000
0000
,
0001
0100
0010
1000
,
2002
0000
0000
3003
,
0001
0100
0010
1000
,
0001
0010
1000
0010
,
0001
1000
0100
0010
,
0001
0100
1000
0100
,
0010
0010
0100
0001
,
1000
1000
0100
0010
,
0001
0000
0000
0010
0000
0001
0000
1000
,
0000
0010
0100
0000
0001
0000
1000
0000
,
1001
0000
0000
0000
,
0000
0000
0000
0000
,
0001
1000
0010
1000
,
0100
0010
0100
0100
,
1001
0000
0000
0000
,
0000
0000
0000
0000
,
0001
0010
0001
0100
,
0001
1000
0100
0100
,
1001
0000
0000
0000
;

//---------------dance-single - ----------------
#NOTES:
     dance-single:
     :
     Beginner:
     1:
     0.106665,0.234435,0.112400,0.000000,0.000000,93.000000,79.000000,14.000000,0.000000,0.000000,0.000000,0.106665,0.234435,0.112400,0.000000,0.000000,93.000000,79.000000,14.000000,0.000000,0.000000,0.000000:
// measure 0
0000
0000
0000
0000
,  // measure 1
0000
0000
0000
0000
,  // measure 2
0000
0000
0000
0000
,  // measure 3
0000
0000
0000
0000
,  // measure 4
0000
0000
0000
0000
,  // measure 5
0000
0000
0000
0000
,  // measure 6
0000
0000
0000
0000
,  // measure 7
0000
0000
0000
0000
,  // measure 8
0000
0000
0000
0000
,  // measure 9
1001
0000
1000
0000
,  // measure 10
0000
0000
1000
0000
,  // measure 11
0000
0000
0100
0000
,  // measure 12
0000
0000
1000
0000
,  // measure 13
0001
0000
0001
0000
,  // measure 14
1000
0000
1000
0000
,  // measure 15
0010
0000
0100
0000
,  // measure 16
1001
0000
0000
0000
,  // measure 17
1001
0000
0000
0000
,  // measure 18
1000
0000
0000
0000
,  // measure 19
0010
0000
0000
0000
,  // measure 20
0100
0000
0100
0000
,  // measure 21
0100
0000
0000
0000
,  // measure 22
0010
0000
0000
0000
,  // measure 23
1000
0000
0000
0000
,  // measure 24
0001
0000
0000
0000
,  // measure 25
1000
0000
0000
0000
,  // measure 26
1000
0000
0000
0000
,  // measure 27
0001
0000
0000
0000
,  // measure 28
0001
0000
0000
0000
,  // measure 29
0100
0000
0000
0000
,  // measure 30
0100
0000
0000
0000
,  // measure 31
0010
0000
0000
0000
,  // measure 32
0110
0000
0000
0000
,  // measure 33
0000
1001
0000
0000
,  // measure 34
1000
0000
0000
0000
,  // measure 35
0010
0000
0000
0000
,  // measure 36
0100
0000
0000
0000
,  // measure 37
1001
0000
0000
0000
,  // measure 38
0001
0000
0000
0000
,  // measure 39
1000
0000
0001
0000
,  // measure 40
1001
0000
0000
0000
,  // measure 41
0110
0000
0000
0000
,  // measure 42
0100
0000
0000
0000
,  // measure 43
0001
0000
0000
0000
,  // measure 44
1000
0000
0000
0000
,  // measure 45
1000
0000
0000
0000
,  // measure 46
0100
0000
0000
0000
,  // measure 47
1000
0000
0000
0000
,  // measure 48
0001
0000
0000
0000
,  // measure 49
1001
0000
0000
0000
,  // measure 50
0001
0000
0000
0000
,  // measure 51
1000
0000
0000
0000
,  // measure 52
0010
0000
0000
0000
,  // measure 53
0100
0000
0000
0000
,  // measure 54
0010
0000
0000
0000
,  // measure 55
1000
0000
0001
0000
,  // measure 56
1001
0000
0000
0000
,  // measure 57
0010
0000
0010
0000
,  // measure 58
0010
0000
0010
0000
,  // measure 59
0100
0000
0100
0000
,  // measure 60
0100
0000
0100
0000
,  // measure 61
0001
0000
1000
0000
,  // measure 62
0001
0000
1000
0000
,  // measure 63
1001
0000
0000
0000
,  // measure 64
0000
0000
0000
0000
,  // measure 65
0010
0000
0000
0000
,  // measure 66
0000
0000
0000
0000
,  // measure 67
1001
0000
1000
0000
,  // measure 68
0001
0000
0000
0000
,  // measure 69
0010
0000
0000
0000
,  // measure 70
0000
0000
0000
0000
,  // measure 71
0110
0000
0100
0000
,  // measure 72
0010
0000
0001
1000
,  // measure 73
1001
0000
0000
0000
;
