#TITLE:Oceanus;
#SUBTITLE:;
#ARTIST:cosMo@暴走P;
#TITLETRANSLIT:;
#SUBTITLETRANSLIT:;
#ARTISTTRANSLIT:;
#GENRE:;
#CREDIT:;
#BANNER:Oceanus-banner.png;
#BACKGROUND:Oceanus-bg.png;
#LYRICSPATH:;
#CDTITLE:;
#MUSIC:Oceanus.ogg;
#OFFSET:0.420000;
#SAMPLESTART:49.785969;
#SAMPLELENGTH:12.000000;
#LASTBEATHINT:351.000244;
#SELECTABLE:YES;
#BPMS:0.000000=98.000000
,18.000000=196.000000
,82.000000=195.979996
,178.000000=196.000000
,338.000000=98.000000
,340.000000=97.000076
,341.500000=96.000092
,343.000000=95.000259
,344.000000=94.500282
,345.000000=94.500359
,345.500000=95.500343
;
#STOPS:
;
#BGCHANGES:;
#KEYSOUNDS:;
#ATTACKS:;

//---------------dance-single - ----------------
#NOTES:
     dance-single:
     :
     Hard:
     9:
     0.627381,0.721354,0.433333,0.383333,0.129167,527.000000,475.000000,52.000000,46.000000,0.000000,0.000000,0.627381,0.721354,0.433333,0.383333,0.129167,527.000000,475.000000,52.000000,46.000000,0.000000,0.000000:
0000
0000
0000
0000
,
0000
0000
0000
0000
,
0000
0000
0000
0000
,
0000
0000
2001
3001
,
1001
0000
1001
0000
1000
0001
1000
0001
1000
0000
0010
0000
0100
0000
0001
0000
,
1000
0100
0000
0011
0000
0100
1000
0001
,
0010
0100
0010
0001
1000
0100
0010
0200
,
0000
0310
0001
0010
0100
1000
0010
1000
,
0000
0001
0100
0010
1000
0001
0010
0100
,
0010
0001
1000
0100
0010
0100
1000
0100
,
0010
0001
1000
0001
0010
0000
0010
0100
,
0000
0100
1000
0000
1000
0001
0000
0001
,
1000
0000
1001
0000
1000
0001
0100
0010
,
1000
0010
0100
0001
1000
0010
1000
0001
,
0100
0010
1000
0001
0010
0000
0010
0001
,
0000
0001
0010
0100
1000
0001
0100
0101
,
0000
0100
0001
1000
0001
0010
0001
0010
,
0100
0000
1000
0000
0100
0000
1000
0000
0001
0000
0100
0010
0000
1000
0001
0000
,
0010
0000
0100
0000
1000
0000
0001
0000
1001
0000
0000
0110
0000
0000
1001
0000
,
0000
0000
1000
0000
0100
0000
1000
0000
0010
0000
0100
0001
0100
0000
0010
0000
,
1000
0100
0010
0001
2000
0000
0000
0000
,
0100
0001
3020
0000
,
0001
0000
2030
0000
,
3200
0001
0320
0000
,
0100
0000
0032
0000
,
0100
1000
0023
0000
,
1000
0100
0032
0000
,
0203
1000
0320
0000
,
0001
0100
2030
0100
,
0001
0010
3200
0001
,
0010
1300
0002
0100
,
1000
0010
2003
0100
,
0001
0010
3200
0010
,
2300
0010
3002
0100
,
1003
0001
1001
1000
,
0100
0000
0010
0000
0001
0100
0001
0010
,
0100
1000
1001
0000
1000
0001
1000
0001
,
0100
0010
0100
0010
1000
0100
0001
0100
,
1000
0100
0001
0100
1000
0010
0100
0010
,
1000
0001
0100
0001
1000
0100
0010
0100
,
1000
0001
1000
0001
1000
0010
0101
0000
,
0001
0000
0010
0000
1100
0000
0000
0000
0001
0000
0000
0010
0000
0000
0100
0000
,
0010
0001
1001
1000
0100
0010
0001
1000
,
0100
1000
0001
0010
0200
0000
1000
0000
,
0000
0000
0300
0000
1001
0000
0001
1000
,
0010
0100
0001
0100
0010
1000
0001
1000
,
0010
0100
0001
1000
0001
0000
1001
0000
,
1000
0100
0010
0001
0000
0001
0010
0100
,
1000
0001
1000
0100
0020
0000
0130
0000
,
1001
0000
0000
0000
0110
0000
0000
0000
1000
0000
0000
0010
0000
0000
0100
0000
,
0001
0000
0000
0000
1001
0000
0000
1000
0100
0000
0000
0100
0010
0000
0000
0010
,
0001
0000
0000
0001
1000
0000
0000
1000
0010
0000
0000
0100
0000
0000
0010
0000
,
1000
0001
0010
0001
1000
0000
1001
0000
,
1000
0001
0010
0100
1000
0001
1000
0100
,
0010
0000
0001
0000
1000
0000
0001
0000
0010
0000
0000
0100
0000
0000
1000
0000
,
0000
0010
0000
0000
0101
0000
0000
1100
0000
0000
0000
0000
0001
0000
0100
0000
,
0010
1000
0001
1000
0020
0000
0130
0000
,
1001
0000
0000
0000
0110
0000
0000
0000
0001
0000
0000
0010
0000
0000
0100
0000
,
2000
0000
0000
0000
3001
0000
0000
0100
0010
0000
0100
0000
0010
0000
0100
0000
,
0001
0010
0100
1000
0001
0100
1000
0100
,
0002
0000
1003
0100
0011
0000
1001
0000
,
1000
0001
0010
0100
1000
0001
1000
0100
,
0010
0001
1000
0010
0100
0000
1001
0000
,
0001
0100
0010
1000
0000
1000
0010
0100
,
0001
0100
0010
1000
0020
0000
0130
0000
,
0110
0000
0000
0000
1001
0000
0000
0000
0001
0000
0000
1000
0000
0000
0100
0000
,
0010
0000
0000
0000
0110
0000
0000
0010
0001
0000
0000
0001
1000
0000
0000
1000
,
0010
0000
0000
0010
0100
0000
0000
0100
0001
0000
0000
1000
0000
0000
0100
0000
,
0010
0100
1000
0001
0100
0000
1001
0000
,
0001
0100
0001
1000
0100
0010
0001
1000
,
0001
0000
0010
0000
0100
0000
1000
0000
0010
0000
0000
0100
0000
0000
0001
0000
,
0000
0010
0000
0000
1100
0000
0000
0101
0000
0000
0000
0000
1000
0000
0001
0000
,
0010
0100
1000
0100
0020
0000
0130
0000
,
0110
0000
0000
0000
1001
0000
0000
0000
1000
0000
0000
0100
0000
0000
0010
0000
,
0002
0000
0000
0000
1003
0000
0000
0010
0100
0000
0010
0000
0100
0000
0010
0000
,
1000
0100
0010
0001
0010
0100
1000
0002
,
0000
1003
0001
0010
0012
0000
0103
0000
,
2100
3010
0012
0103
,
2100
3010
0102
1003
,
2100
3001
0012
1003
,
2010
3001
0102
0013
,
2010
3100
0102
0013
,
2010
3100
0012
1003
,
2010
3001
0102
1003
,
2100
3001
2200
0000
,
0000
0000
0300
0000
,
0000
0000
0000
0000
0000
0000
0000
0000
0000
3000
0000
0000
0000
0000
0000
0000
;

//---------------dance-single - ----------------
#NOTES:
     dance-single:
     :
     Medium:
     7:
     0.429762,0.563333,0.125000,0.425000,0.020833,361.000000,346.000000,15.000000,51.000000,0.000000,0.000000,0.429762,0.563333,0.125000,0.425000,0.020833,361.000000,346.000000,15.000000,51.000000,0.000000,0.000000:
0000
0000
0000
0000
,
0000
0000
0000
0000
,
0000
0000
0000
0000
,
0000
0000
1000
0001
,
0100
0100
0010
0010
1000
0000
1000
0000
,
0001
0010
0001
0000
1000
0000
0100
0000
,
0010
0000
0001
0000
1000
0010
1000
0010
,
0000
1000
0001
1000
0001
0010
0001
0010
,
0000
1001
0001
0100
,
0010
1000
0010
0000
0100
0000
0001
0000
,
0010
0000
0100
0000
1000
0000
1000
0001
,
0000
0001
1000
0000
1000
0010
0000
0010
,
0100
0100
1001
1000
,
0010
0100
0001
0000
1000
0000
0010
0000
,
0100
0000
0001
0000
0010
0100
0010
0200
,
0000
1300
0001
1000
0010
0100
0010
0200
,
0000
0301
1000
0001
0010
0000
0010
0000
,
0100
0100
1000
0001
,
1001
0000
0000
0000
1001
0000
0000
0000
0010
0000
0000
0010
0000
0000
0010
0000
,
0000
0100
0010
0000
0200
0000
0010
0000
,
0010
0310
2000
0000
,
0000
0000
0002
0000
,
3000
0000
0020
0000
,
0003
0000
0200
0000
,
0030
0000
2000
0000
,
0300
0000
0002
0000
,
3000
0000
0200
0000
,
0003
0000
0020
0000
,
0300
0000
2030
0000
,
0001
0000
3002
0000
,
0010
0000
0023
0000
,
0100
0000
0230
0000
,
1000
0000
2300
0000
,
0001
0000
3002
0000
,
0100
0000
1003
0100
,
0010
0000
0001
0000
1000
0001
1000
0001
,
0100
0010
0100
0000
0001
0000
0001
0000
,
0001
0100
0010
0000
1000
0000
1000
0000
,
1000
0010
0100
0001
1000
0000
0100
0000
,
0010
0000
0001
0000
1000
0100
0010
0001
,
1000
1001
0002
0010
,
2003
0000
0000
0000
0010
0000
0000
0000
3001
0000
0000
0001
0000
0000
0001
0000
,
0000
1000
0001
1000
0010
0100
0010
0100
,
0010
1000
0010
1000
0002
0000
1003
0000
,
0000
0000
1001
1000
,
0010
0000
0100
0001
0100
0000
0010
0000
,
1000
0001
0020
0100
,
1000
0000
0100
0000
0031
1000
0001
0000
,
1000
0100
0010
0000
0001
0000
0100
0000
,
0010
1000
0010
0000
0100
0000
0001
0000
,
1000
0100
0020
0032
,
2003
0000
0000
0000
3020
0000
0000
0000
0130
0000
0000
0100
0000
0000
0100
0000
,
0001
1001
1000
1000
,
1000
0000
1000
0100
0010
0000
0010
0000
,
0010
0000
0010
0001
1000
0000
0010
0000
,
0100
0001
0021
0100
,
1000
0100
0031
1000
,
0010
0100
0010
0000
1000
0000
0100
0000
,
0010
0000
0001
0000
1000
0010
1000
0010
,
0100
0010
0100
0010
1000
0010
0100
0010
,
2000
3001
0010
0100
,
1000
0000
0001
0100
0010
0000
0100
0000
,
0010
0000
1000
0001
0010
0000
0100
0000
,
0010
0000
0001
1000
0020
0000
0100
0000
,
0001
0100
1030
0001
,
0010
0100
1000
0000
0010
0000
0100
0000
,
0001
1000
1001
1001
,
0110
0000
0000
0000
0110
0000
0000
0000
0001
0000
0000
1000
0000
0000
0001
0000
,
0100
1001
2000
0100
,
3010
0100
0002
0010
,
0103
0000
0010
0000
1000
0001
1000
0000
,
0001
1000
1020
0100
,
0001
0100
1030
0001
,
0010
0000
0000
0000
0100
0000
0000
0000
0010
0000
0000
1000
0000
0000
0010
0000
,
0100
0000
1001
0000
0001
0100
0001
0100
,
0010
0100
0010
0100
0001
0100
0001
0100
,
0010
0100
0002
0013
,
0200
1300
0002
0103
,
0020
1030
0002
0103
,
0020
0130
0002
0013
,
0200
1300
0002
0010
,
2003
0100
3002
0100
,
2003
0010
3002
0023
,
0230
2300
3002
0203
,
0320
2030
3001
0000
;

//---------------dance-single - ----------------
#NOTES:
     dance-single:
     :
     Easy:
     5:
     0.339286,0.387292,0.041667,0.316667,0.000000,285.000000,280.000000,5.000000,38.000000,0.000000,0.000000,0.339286,0.387292,0.041667,0.316667,0.000000,285.000000,280.000000,5.000000,38.000000,0.000000,0.000000:
0000
0000
0000
0000
,
0000
0000
0000
0000
,
0000
0000
0000
0000
,
0000
0000
0002
0000
,
1000
1000
1000
1003
1000
0000
0001
0000
,
0100
0010
1000
0100
,
0010
0001
1000
0010
,
1000
0001
0100
0010
,
0100
0001
1000
0100
,
0010
0001
0010
0100
,
0010
0001
1000
0100
,
1000
0001
0100
0010
,
0100
0001
1000
1001
,
0001
0010
0100
0100
,
1000
1000
0001
0100
,
0010
0100
0001
1000
,
0100
1000
0001
0001
,
1000
1000
0010
0100
,
0010
0100
0002
1000
,
1000
1003
0010
0100
,
0001
0001
2000
0000
,
3000
0000
0020
0000
,
0030
0000
0200
0000
,
0300
0000
0020
0000
,
0030
0000
2000
0000
,
3000
0000
0200
0000
,
0300
0000
0020
0000
,
0030
0000
0002
0000
,
0003
0000
2000
0000
,
3001
0000
0200
0000
,
0301
0000
2000
0000
,
3100
0000
0020
0000
,
0031
0000
2000
0000
,
3020
0000
0230
0000
,
0302
0000
1003
1000
,
1000
1000
0001
0010
,
0100
1000
0001
0001
,
0100
0010
1000
1000
,
0010
0100
0001
0010
,
0100
1000
0001
1000
,
0100
0010
0001
1001
,
1000
1001
2000
0001
,
0001
3001
1000
0010
,
1000
0001
0200
0310
,
0000
0000
1001
1000
,
0001
1000
0010
0100
,
0001
0100
0010
1000
,
0100
0010
0001
0010
,
0100
1000
0001
0010
,
0001
1000
0100
0010
,
0001
1000
0010
0010
,
0100
0100
0001
1000
,
0001
1000
0001
0010
,
0100
1000
0001
0010
,
0100
0010
0002
1000
,
1000
1003
0001
0100
,
0010
1000
0010
0010
,
0100
0100
0001
1000
,
0001
1000
0100
0010
,
0100
1000
0001
0010
,
0001
1000
1001
0001
,
0100
0001
1000
0001
,
0100
0010
1000
0100
,
1000
0010
1000
0100
,
0010
0001
0100
0001
,
0010
0001
1000
0010
,
0100
0010
1000
0100
,
0010
0001
2000
0001
,
0001
3001
0100
0010
,
1000
0001
1000
0010
,
0100
0001
1000
0010
,
0100
0010
1000
0100
,
0010
0001
1000
1000
,
0001
0001
0100
0010
,
1000
0001
0010
0010
,
0100
0100
1000
0001
,
1000
0001
0200
0300
,
0200
0300
0002
0003
,
0002
0003
0020
0030
,
0020
0030
0002
0003
,
0002
0003
2000
3010
,
2000
3010
0200
0301
,
0200
0301
2000
3001
,
0002
1003
0020
0130
,
0200
0310
1000
0000
;

//---------------dance-single - ----------------
#NOTES:
     dance-single:
     :
     Challenge:
     11:
     0.829762,0.942500,0.566667,0.341667,0.458333,697.000000,629.000000,68.000000,41.000000,0.000000,0.000000,0.829762,0.942500,0.566667,0.341667,0.458333,697.000000,629.000000,68.000000,41.000000,0.000000,0.000000:
// measure 0
0000
0000
0000
0000
,  // measure 1
0000
0000
0000
0000
,  // measure 2
0000
0000
0000
0000
,  // measure 3
0000
0000
0000
0000
2001
3010
1002
0013
,  // measure 4
1010
0101
1100
0011
1000
0100
0001
1000
,  // measure 5
0010
0100
1000
0001
0100
1000
0100
0010
,  // measure 6
1000
0100
0001
0100
0010
0001
0100
1000
,  // measure 7
0001
0010
0100
0001
1000
0100
0010
1000
,  // measure 8
0001
0000
0100
0000
1000
0000
0001
0000
0100
0000
0010
1000
0010
0000
0100
0000
,  // measure 9
0001
1000
0001
0000
0100
0000
0010
0000
1000
0000
0100
0000
1000
0000
0100
0000
,  // measure 10
0010
0001
0010
0001
1001
0000
1000
1010
,  // measure 11
0000
0010
0110
0000
0100
0101
0000
0001
,  // measure 12
1001
0000
0000
0000
1001
0000
0000
0000
1000
0000
0001
0010
0100
0000
1000
0000
,  // measure 13
0001
0000
0010
0000
0001
0000
1000
0000
0010
0000
0100
0000
0010
1000
0001
0000
,  // measure 14
0100
0000
0010
0000
0100
0000
0001
0000
1000
0100
0010
0000
0001
0000
0010
0100
,  // measure 15
1000
0000
0001
0000
0100
0001
1000
0000
1001
0000
1000
0000
0010
0000
1010
0000
,  // measure 16
0000
0000
1000
0000
0001
0000
1000
0000
0100
0000
0010
0001
0100
0000
0001
0000
,  // measure 17
0010
0000
0100
1000
0010
0000
0100
0000
0001
0000
0001
0010
0000
0010
0100
0000
,  // measure 18
1000
0000
0001
0100
0001
0000
1000
0000
1100
0000
0000
0101
0000
0000
1010
0000
,  // measure 19
0000
0000
0010
0000
0100
0000
0001
0000
1000
0000
0100
0010
0001
0000
1000
0000
,  // measure 20
0001
0010
0100
0000
1000
0000
0001
0000
2000
0000
0000
0000
0001
0000
0000
0000
,  // measure 21
0100
0010
3002
0100
,  // measure 22
1000
0000
0023
1000
,  // measure 23
0001
1000
0230
1000
,  // measure 24
0010
0000
2300
0010
,  // measure 25
0100
0001
3020
0001
,  // measure 26
0100
1000
0230
0001
,  // measure 27
1000
0010
0302
0000
,  // measure 28
0010
1000
0023
0100
,  // measure 29
0001
0100
2030
0001
,  // measure 30
0100
0001
3200
0010
,  // measure 31
1000
0010
0302
1000
,  // measure 32
0100
1000
0023
1000
,  // measure 33
0001
1000
0032
0100
,  // measure 34
0010
0000
0100
0000
1003
0010
1000
0010
,  // measure 35
0100
0000
0001
0000
0100
0000
0001
0000
1000
0100
0010
0000
0001
0000
1000
0001
,  // measure 36
0100
0000
0010
1000
0010
0000
1000
0000
0001
0000
0010
0000
0001
0000
0010
0000
,  // measure 37
0100
1000
0100
1000
0001
0100
0001
0100
,  // measure 38
0010
0000
1000
0000
0010
0000
1000
0000
0001
0000
0010
0100
0010
0000
0001
0000
,  // measure 39
1000
0100
1000
0000
0001
0000
1000
0000
0010
0000
0100
0001
0100
0000
0010
0000
,  // measure 40
1000
0001
1000
0001
0100
0000
0001
0000
1000
0000
0100
0000
0011
0000
0000
0000
,  // measure 41
0001
0000
0100
0000
1010
0000
0000
0000
1001
0000
0000
0110
0000
0000
1001
0000
,  // measure 42
1000
0000
0001
0100
0001
0000
1000
0000
0100
0000
0010
0001
1000
0000
0010
1000
,  // measure 43
0001
0000
0010
0100
1000
0000
0001
1000
0020
0000
0000
0000
0130
0000
0000
0000
,  // measure 44
0110
0000
0000
0000
0010
1000
0001
0100
0010
0000
1000
0000
0001
0000
0100
0010
,  // measure 45
1000
0000
0001
0000
0010
0000
0000
0010
0100
0000
1000
0001
0100
0000
0010
1000
,  // measure 46
0001
0000
0100
0010
1000
0000
0001
1000
0100
0000
0010
0000
0100
0000
1000
0000
,  // measure 47
0100
0000
0010
0000
0001
0000
0100
0000
0001
0000
0100
0010
1000
0001
0100
0000
,  // measure 48
0010
0000
1000
0100
1000
0000
0010
0000
0100
0000
0001
0010
0001
0000
0100
0000
,  // measure 49
0010
0000
1000
0000
0001
0000
0000
0000
1001
0000
0000
0011
0000
0000
1010
0000
,  // measure 50
0110
0000
0000
0000
0010
0000
0000
1000
0001
0000
0010
0100
1000
0000
0001
1000
,  // measure 51
0010
0000
0100
0001
1000
0000
0100
0000
0110
0000
0000
0011
0000
0000
1001
0000
,  // measure 52
1000
0000
0010
0000
0100
0001
0100
0000
0010
0000
0100
0001
1000
0000
0100
0000
,  // measure 53
0010
0001
1000
0000
0100
0000
0010
0000
0001
0000
1000
0001
0100
0000
0001
0000
,  // measure 54
0100
0010
1000
0000
0001
0000
1000
0000
0020
0000
0100
0000
0100
0000
0130
0000
,  // measure 55
0000
0101
0000
0000
1010
0000
0000
0011
0000
0000
0100
1000
0001
0000
0100
0000
,  // measure 56
0010
1000
0010
0000
0100
0000
0001
0000
1000
0000
0100
0010
0001
0000
1000
0000
,  // measure 57
0001
0000
1000
0000
0100
0000
0010
0000
0011
0000
0000
0110
0000
0000
1001
0000
,  // measure 58
0002
0000
0000
0000
1003
0000
0000
0001
0010
0100
0010
0000
0100
1000
0100
0000
,  // measure 59
1000
0000
0100
0010
0001
0000
1000
0000
0001
0010
0001
0000
1000
0000
0100
0010
,  // measure 60
0001
0000
1000
0000
0001
1000
0001
1000
0010
0000
0100
0000
0001
0000
1000
0010
,  // measure 61
1000
0000
0001
0000
0100
0000
0010
1000
0010
0000
1000
0000
0001
0000
0100
0000
,  // measure 62
0001
0000
1000
0100
0010
0000
0001
0000
1000
0000
0001
0100
0001
0000
1000
0000
,  // measure 63
0010
0000
0100
0001
1000
0000
0001
0000
0100
0000
0010
1000
0001
0100
0001
0000
,  // measure 64
1000
0000
0100
0000
0010
0000
0001
0000
1000
0000
0001
0100
0001
0000
1000
0000
,  // measure 65
0010
0100
0001
0000
1000
0000
0010
0000
1010
0000
0000
0101
0000
0000
1100
0000
,  // measure 66
0110
0000
0000
0000
0010
0000
0000
0001
1000
0000
0010
0100
0010
0000
0100
0001
,  // measure 67
0100
0000
0010
1000
0010
0000
1000
0000
1010
0000
0000
0101
0000
0000
1100
0000
,  // measure 68
0110
0000
0010
0000
0001
0000
1000
0000
0010
0000
0100
0001
0100
0000
0010
0000
,  // measure 69
1000
0000
0001
0000
0100
0000
0001
0000
1000
0000
0100
0010
0100
0000
1000
0000
,  // measure 70
0001
0000
0010
0000
0100
0000
0010
0000
0001
0000
1000
0010
1000
0000
0001
0000
,  // measure 71
0000
1010
0000
0000
1001
0000
0000
0011
0000
0000
0000
0010
0100
1000
0001
0000
,  // measure 72
0100
0000
0001
0000
1000
0000
0001
0000
0010
0000
0100
0000
1000
0000
0001
0100
,  // measure 73
0001
0000
1000
0000
0100
0000
0010
0000
1100
0000
0000
0110
0000
0000
0011
0000
,  // measure 74
1001
0000
0000
0000
1000
0000
0000
0001
0100
0010
0100
0010
0100
0010
0100
0010
,  // measure 75
0100
0001
1000
0010
0100
0001
0100
0010
,  // measure 76
1000
0001
0100
0010
1020
0000
0130
0000
,  // measure 77
0021
0130
2100
3010
,  // measure 78
0102
0013
1020
0031
,  // measure 79
0021
1030
1200
0301
,  // measure 80
0201
1300
0021
1030
,  // measure 81
2100
3010
0201
1300
,  // measure 82
0012
1003
2001
3100
,  // measure 83
0120
0031
0210
1300
,  // measure 84
1002
0000
0000
0000
0013
0000
0000
0000
1000
0100
1000
0001
0100
0020
0000
0230
,  // measure 85
0000
0301
1000
0001
0100
0010
1000
0100
1000
0010
0001
0020
0000
1030
0100
0001
,  // measure 86
0100
1000
0100
0020
0000
0000
0000
0030
0000
2002
0000
0000
0000
0000
0000
0000
,  // measure 87
3003
0000
0000
0000
;

//---------------dance-single - ----------------
#NOTES:
     dance-single:
     :
     Beginner:
     3:
     0.216667,0.281667,0.050000,0.191667,0.000000,182.000000,176.000000,6.000000,23.000000,0.000000,0.000000,0.216667,0.281667,0.050000,0.191667,0.000000,182.000000,176.000000,6.000000,23.000000,0.000000,0.000000:
0000
0000
0000
0000
,
0000
0000
0000
0000
,
0000
0000
0000
0000
,
0000
0000
0001
0000
,
1000
0000
1000
1000
,
1000
0000
0001
0001
,
0001
0000
1000
1000
,
1000
0000
0010
0010
,
0010
0000
1000
1000
,
1000
0000
0100
0100
,
0100
0000
1000
0000
,
1000
0000
0001
0000
,
0001
0000
0010
0010
,
0010
0000
0001
0001
,
0001
0000
1000
1000
,
1000
0000
0001
0000
,
1001
0000
1000
1000
,
1000
0000
0001
0000
,
0001
0000
2002
0000
,
3003
0000
0001
0000
,
1000
0000
0002
0000
,
0000
0000
0003
0000
,
0000
0000
2000
0000
,
0000
0000
3000
0000
,
0000
0000
0020
0000
,
0000
0000
0030
0000
,
0000
0000
0200
0000
,
0000
0000
0300
0000
,
0000
0000
0002
0000
,
0000
0000
0003
0000
,
0001
0000
2000
0000
,
0000
0000
3000
0000
,
1000
0000
0020
0000
,
0000
0000
0030
0000
,
0100
0000
0001
0000
,
0001
0000
1000
1000
,
1000
0000
0010
0010
,
0010
0000
0100
0100
,
0100
0000
0001
0001
,
0001
0001
0010
0010
,
0010
0000
0100
0000
,
1000
0000
2002
0000
,
3003
0000
1000
0000
,
1000
0000
2002
0000
,
3003
0000
1000
1000
,
1000
0000
0001
0001
,
0001
0000
0010
0010
,
0010
0000
0100
0100
,
0100
0000
1000
1000
,
1000
0000
0001
0001
,
0001
0000
0100
0100
,
0100
0000
0001
0000
,
1000
0000
0001
0001
,
0001
0000
1000
1000
,
1000
0000
0010
0010
,
0010
0000
0100
0000
,
0010
0000
1000
1000
,
1000
0000
0001
0001
,
0001
0000
0100
0000
,
0010
0000
1001
0000
,
0001
0000
1000
1000
,
1000
0000
0010
0010
,
0010
0000
0100
0100
,
0100
0000
0001
0001
,
0001
0000
1000
1000
,
1000
0000
0001
0001
,
0001
0000
0010
0000
,
0100
0000
2002
0000
,
3003
0000
1000
1000
,
1000
0000
0001
0001
,
0001
0000
0010
0000
,
0100
0000
1000
0000
,
0001
0000
1000
1000
,
1000
0000
0010
0010
,
0010
0000
1000
1000
,
1000
0000
0001
0000
,
1000
0000
2000
0000
,
3000
0000
0002
0000
,
0003
0000
0002
0000
,
0003
0000
2000
0000
,
3000
0000
2000
0000
,
3001
0000
0002
0000
,
1003
0000
0020
0000
,
0130
0000
0200
0000
,
0310
0000
1000
0000
;
