#TITLE:Meat Beat Mania - FLAMBÉE!;
#SUBTITLE:;
#ARTIST:Aivi & Surasshu;
#TITLETRANSLIT:;
#SUBTITLETRANSLIT:;
#ARTISTTRANSLIT:;
#CREDIT:;
#BANNER:Meat Beat Mania - FLAMBÉE!.png;
#BACKGROUND:Meat Beat Mania - FLAMBÉE! - bg.png;
#LYRICSPATH:;
#CDTITLE:cdtitle.png;
#MUSIC:Meat Beat Mania - FLAMBÉE!.ogg;
#OFFSET:-1.020;
#SAMPLESTART:9.360;
#SAMPLELENGTH:12.000;
#SELECTABLE:YES;
#BPMS:0.000=172.000;
#STOPS:;
#BGCHANGES:;

//---------------dance-single - ----------------
#NOTES:
     dance-single:
     :
     Hard:
     9:
     0.629,0.631,0.289,0.278,0.326: // measure 1
0000
0000
0000
0000
,  // measure 2
0000
0000
0000
0000
,  // measure 3
1000
0000
0001
0100
0000
0001
0100
0000
0110
0000
0000
0000
0110
0000
0000
0000
,  // measure 4
0001
0000
1000
0100
0000
1000
0100
0000
1001
0000
0001
0000
0100
0000
0000
0000
,  // measure 5
1000
0000
0001
0010
0000
0001
0010
0000
0110
0000
0000
0000
0110
0000
0000
0000
,  // measure 6
0001
1000
0001
1000
0001
1000
0100
0000
0000
0000
0000
0000
,  // measure 7
1001
1000
0100
1000
0010
1000
0100
0000
,  // measure 8
0001
0100
0001
0100
0010
1000
0010
1000
,  // measure 9
0001
0010
0001
0100
0001
0010
0001
0000
,  // measure 10
0020
0000
0000
0130
0000
0000
0001
0000
0010
0000
0100
0000
1000
0000
0100
0000
,  // measure 11
0011
0001
0010
0001
0100
0001
0010
0000
,  // measure 12
0100
1000
0100
1000
0001
0010
0001
0010
,  // measure 13
0100
1000
0010
1000
0100
1000
0010
0000
,  // measure 14
1000
0100
0010
0100
1000
0100
0010
0000
0000
0000
0000
0000
,  // measure 15
0001
0000
1000
0100
0000
1000
0100
0000
0110
0000
0000
0000
0110
0000
0000
0000
,  // measure 16
1000
0000
0001
0100
0000
0001
0100
0000
1001
0000
1000
0000
0100
0000
0000
0000
,  // measure 17
0001
0000
1000
0010
0000
1000
0010
0000
0110
0000
0000
0000
0000
0000
0000
0000
,  // measure 18
1000
0001
1000
0001
1000
0001
0100
0000
0000
0000
0000
0000
,  // measure 19
2001
0000
0000
3010
0000
0000
0001
0000
0100
0000
0010
0000
0100
0000
0001
0000
,  // measure 20
0020
0000
0000
0130
0000
0000
1000
0000
0010
0000
0100
0000
0010
0000
1000
0000
,  // measure 21
0200
0000
0000
0310
0000
0000
0010
0000
0002
0000
0000
0103
0010
0100
0010
0000
,  // measure 22
1000
0010
1000
0010
0100
0001
0100
0001
,  // measure 23
0011
0000
0000
0001
0000
0000
1000
0010
2000
0000
0000
0000
3000
0000
0100
1000
,  // measure 24
0200
0000
0300
1000
0100
0001
0100
1000
,  // measure 25
0001
0100
0001
0100
0010
0100
0010
0100
,  // measure 26
0002
0000
1003
0000
1000
0000
1000
0010
,  // measure 27
2010
0000
0000
0010
3000
0000
0001
0000
0100
0000
0010
0000
0100
0000
0001
0000
,  // measure 28
0020
0032
2003
3200
,  // measure 29
2300
0000
0000
0000
3000
0000
0000
0000
0002
0000
0000
0100
0000
0000
0103
0000
,  // measure 30
0020
0000
0000
0000
2000
3030
0010
1000
,  // measure 31
1001
0000
0000
0000
0000
0000
1000
0100
0020
0000
0000
0000
0031
0000
1000
0000
,  // measure 32
0020
2030
3002
0203
,  // measure 33
0301
0100
0001
0100
0010
0100
0010
0100
,  // measure 34
0202
0000
0000
0303
,  // measure 35
1000
0000
0001
0100
0000
0001
0100
0000
0101
0000
0000
0000
0101
0000
0000
0000
,  // measure 36
0001
0000
0100
0010
0000
0100
0010
0000
1010
0000
1000
0000
0100
0000
0000
0000
,  // measure 37
1000
0000
0010
0100
0000
0010
0100
0000
0101
0000
0000
0000
0000
0000
0000
0000
,  // measure 38
0001
0010
0100
0010
0001
0010
0100
0000
0000
0000
0000
0000
,  // measure 39
1001
0000
0000
0000
0000
0000
1000
0100
1000
0000
0000
0000
0000
0000
0000
0010
,  // measure 40
0100
0000
0000
0100
0000
0000
0100
0000
0010
0000
0010
0000
1000
0000
0000
0000
,  // measure 41
0000
0000
1000
0000
0000
0010
0000
0000
0001
0000
0000
0000
0001
0000
0000
0000
,  // measure 42
0100
0000
0100
0000
1000
0000
1000
0001
,  // measure 43
1100
0000
0000
0000
0000
0000
0001
0100
0001
0000
0000
0000
0000
0000
0000
0001
,  // measure 44
0010
0000
0000
0010
0000
0000
0010
0000
0001
0000
0001
0000
0100
0000
0000
0000
,  // measure 45
0000
0000
0100
0000
0000
0001
0000
0000
1000
0000
0000
0000
1000
0000
0000
0000
,  // measure 46
0010
0000
0010
0000
0100
0000
0010
1000
,  // measure 47
1100
0000
0000
0000
0001
0000
0100
0000
1000
0000
0000
0000
1000
0000
0000
0001
,  // measure 48
0100
0000
0000
0100
0000
0000
0100
0000
0001
0000
0100
0000
0001
0000
0100
0000
,  // measure 49
0001
0010
0001
0010
0001
0010
0100
1000
,  // measure 50
0020
0000
0000
0000
0000
0000
0000
0030
,  // measure 51
1001
0000
0000
0000
,  // measure 52
1001
1000
0100
1000
0010
1000
0100
0000
,  // measure 53
0001
0100
0001
0100
0010
1000
0010
1000
,  // measure 54
0001
0010
0001
0100
0001
0010
0001
0000
,  // measure 55
0020
0000
0000
0130
0000
0000
0001
0000
0010
0000
0100
0000
1000
0000
0100
0000
,  // measure 56
0011
0001
0010
0001
0100
0001
0010
0000
,  // measure 57
0100
1000
0100
1000
0001
0010
0001
0010
,  // measure 58
0100
1000
0010
1000
0100
1000
0010
0000
,  // measure 59
1000
0100
0010
0001
0100
0010
1000
0000
0000
0000
0000
0000
,  // measure 60
1001
0000
0000
0000
;

//---------------dance-single - ----------------
#NOTES:
     dance-single:
     :
     Medium:
     7:
     0.418,0.505,0.267,0.310,0.000:
0000
0000
0000
0000
,
0000
0000
0000
0000
,
0001
1000
1100
1100
,
1000
0000
0001
0000
0100
0001
0100
0000
,
0001
1000
1100
1100
,
1000
0100
1001
0000
,
1001
0100
1000
0100
,
0001
0100
0001
0000
1000
0010
1000
0000
,
1000
0010
0001
0010
,
2000
0000
0010
0000
3010
0100
0010
0000
,
1010
1000
0100
0010
,
0100
1000
0100
0000
0010
0001
0010
0000
,
0010
0001
0100
0010
,
1000
0100
0001
0000
,
1000
0001
0101
0101
,
0001
0000
1000
0000
0100
1000
0100
0000
,
1000
0001
0101
0000
,
0001
0100
1001
0000
,
1002
0103
0001
0010
,
0200
0310
0010
0100
,
2000
3010
0002
0013
,
0001
0000
0001
0000
1000
0000
1000
0100
,
0020
0030
0002
0003
,
0200
0000
0300
0000
0100
0001
0100
0000
,
0001
0001
0010
0010
,
0020
0100
0100
0130
,
0012
0000
1003
0000
1000
0001
1000
0000
,
2000
3200
0320
0032
,
0023
0030
0001
0001
,
2000
0000
0200
3300
,
1001
0000
1000
0000
0001
1000
0001
0000
,
0002
0023
0230
2300
,
3001
0001
0010
0010
,
0220
0000
0000
0330
,
0001
1000
1100
1100
,
1000
0000
0001
0000
0100
0001
0100
0000
,
0001
1000
1100
0000
,
1000
0100
1001
0000
,
2001
0000
0010
0000
,
0100
0000
0010
3000
,
0002
0000
0010
0000
,
0100
0100
1000
1003
,
1200
0000
0010
0000
,
1000
0000
0010
0300
,
0020
0000
0001
0000
,
0100
0100
0001
0031
,
0011
0000
0001
0010
0001
0000
1000
0010
,
1000
0000
0001
0100
0001
0000
1000
0100
,
1000
0100
0010
0100
0010
0100
0010
0100
,
0020
0000
0000
0000
,
0031
0000
0000
0000
,
1001
0100
1000
0100
,
0001
0100
0001
0000
1000
0010
1000
0000
,
1000
0010
0001
0010
,
2000
0000
0010
0000
3010
0100
0010
0000
,
1010
1000
0100
0010
,
0100
1000
0100
0000
0010
0001
0010
0000
,
0010
0001
0100
0010
,
1000
0100
0001
0000
,
1001
0000
0000
0000
;

//---------------dance-single - ----------------
#NOTES:
     dance-single:
     :
     Easy:
     5:
     0.350,0.410,0.267,0.192,0.000:
0000
0000
0000
0000
,
0000
0000
0000
0000
,
1000
0100
0110
0110
,
0010
0001
1001
1001
,
0001
0010
0110
0110
,
0100
0100
0100
0000
,
1001
1000
0100
0010
,
0001
0001
0010
0010
,
0001
0100
0010
1000
,
0010
0100
0001
0000
,
1001
0001
0010
0100
,
1000
1000
0100
0100
,
1000
0010
0100
0001
,
0100
0010
1000
0000
,
1000
0100
0110
0110
,
0010
0001
1001
1001
,
0001
0010
0110
0000
,
0010
0010
0010
0000
,
0002
0103
0100
0010
,
2000
3100
0100
0010
,
0002
0003
2000
3000
,
0020
0030
1000
1000
,
2000
3010
0010
0100
,
0002
0013
0010
0100
,
1000
1000
0010
0010
,
0020
0000
0000
0030
,
0002
0103
0100
0010
,
2000
3100
0100
0010
,
0002
0003
2000
3000
,
0020
0030
1000
1000
,
2000
3010
0010
0100
,
0002
0013
0010
0100
,
1000
1000
0010
0010
,
0220
0000
0000
0330
,
0001
0010
0110
0110
,
0100
1000
1001
1001
,
1000
0100
0110
0000
,
0100
0100
0100
0000
,
1001
0000
0100
0000
,
0010
0000
0100
0000
,
0001
0000
1000
0000
,
0001
0000
0010
0000
,
0110
0000
0100
0000
,
0010
0000
0100
0000
,
1000
0000
0001
0000
,
1000
0000
0001
0000
,
1001
1000
0010
0100
,
0001
0010
0100
1000
,
0100
0010
0001
0100
,
0020
0000
0000
0000
,
0130
0000
0000
0000
,
1001
1000
0100
0010
,
0001
0001
0010
0010
,
0001
0100
0010
1000
,
0010
0100
0001
0000
,
1001
0001
0010
0100
,
1000
1000
0100
0100
,
1000
0010
0100
0001
,
0100
0010
1000
0000
,
1001
0000
0000
0000
;
