#TITLE:Masked Heart (Benpai);
#SUBTITLE:;
#ARTIST:Ujico/Snail’s House;
#TITLETRANSLIT:;
#SUBTITLETRANSLIT:;
#ARTISTTRANSLIT:;
#GENRE:EDM;
#CREDIT:;
#BANNER:Maskedheart_Banner_Benpai.png;
#BACKGROUND:Maskedheart_Background_Benpai.png;
#LYRICSPATH:;
#CDTITLE:;
#MUSIC:Maskedheart_Benpai.ogg;
#OFFSET:0.650000;
#SAMPLESTART:47.170120;
#SAMPLELENGTH:12.000000;
#SELECTABLE:YES;
#BPMS:0.000000=128.000000
;
#STOPS:
;
#BGCHANGES:;
#KEYSOUNDS:;
#ATTACKS:;

//---------------dance-single - ----------------
#NOTES:
     dance-single:
     :
     Hard:
     9:
     0.549942,0.587634,0.046605,0.400805,0.438090,413.000000,408.000000,5.000000,43.000000,0.000000,0.000000,0.549942,0.587634,0.046605,0.400805,0.438090,413.000000,408.000000,5.000000,43.000000,0.000000,0.000000:
0000
0000
0000
0000
,
0000
0000
0000
0000
0000
0000
0000
0000
0001
0000
1000
0000
1000
0000
0010
0100
,
0001
0000
0010
0000
0010
0000
0001
0100
0010
0000
0100
0000
0100
0000
0001
0010
,
0100
0000
1000
0000
1000
0000
0000
0000
0001
0000
0100
0000
0100
0000
0010
1000
,
0100
0000
1000
0000
1000
0000
0100
0010
0001
0000
0010
0000
0010
0000
0100
0010
,
0100
0000
1000
0000
1000
0000
0000
0000
0010
0000
0100
0000
0100
0000
0001
1000
,
0100
0000
0010
0000
0010
0000
0100
1000
0001
0000
0100
0000
0100
0000
0010
1000
,
0100
0000
1000
0000
1000
0000
0000
0000
0100
0000
0010
0000
0010
0000
0001
1000
,
0010
0000
1000
0000
1000
0000
0100
0010
0001
0000
0010
0000
0010
0000
0001
0100
,
0010
0000
0100
0000
0100
0000
0000
0000
0010
0000
1000
0000
1000
0000
0001
0010
,
0100
0000
0010
0000
0010
0000
0001
0010
0001
0000
1000
0000
1000
0000
0010
1000
,
0001
0000
0100
0000
0100
0000
0000
0000
0001
0000
0010
0000
0010
0000
0001
0100
,
0010
0000
0100
0000
0100
0000
0001
0010
0100
0000
1000
0000
1000
0000
0010
0100
,
0001
0000
0100
0000
0100
0000
0000
0000
0001
0000
0010
0000
0010
0000
0100
1000
,
0100
0000
1000
0000
1000
0000
0001
0100
0010
0000
0100
0000
0100
0000
0010
1000
,
0100
0000
1000
0000
1000
0000
0100
0010
0001
0000
0010
0000
0010
0000
0001
0100
,
0010
0000
1000
0000
1000
0000
0001
0000
0010
0000
0100
0000
1000
0001
0000
1001
,
0000
0000
0000
0000
0000
0000
0000
0000
0001
0000
0000
0001
0000
0000
0010
0000
,
0100
0000
0000
0100
0000
0000
1000
0000
0010
0000
0000
0100
0000
0000
0001
0000
,
2000
0000
0000
0000
3001
0000
0000
0000
0100
0000
0000
0100
0000
0000
0010
0000
,
1000
0000
0000
1000
0000
0000
0100
0000
0020
0000
0000
0000
0032
0000
0000
0000
,
0203
0000
0000
0000
0320
0000
0000
0000
1030
0000
0000
0010
0000
0000
0100
0000
,
0001
0000
0000
0001
0000
0000
0010
0000
0100
0000
0000
1000
0000
0000
0001
0000
,
0200
0000
0000
0000
0310
0000
0000
0000
1000
0000
0000
0100
0000
0000
0010
0000
,
0001
0000
0000
0100
0000
0000
0010
0000
2000
0000
0000
0000
3002
0000
0000
0000
,
0013
0000
0000
0210
0000
0000
0300
0000
1000
0000
0000
0001
0000
0000
0010
0000
,
0100
0000
0000
0010
0000
0000
0001
0000
1000
0000
0000
0010
0000
0000
0100
0000
,
0020
0000
0000
0000
2030
0000
0000
0000
3010
0000
0000
0100
0000
0000
0010
0000
,
1000
0000
0000
0100
0000
0000
0010
0000
0200
0000
0000
0000
2300
0000
0000
0000
,
3002
0000
0000
0000
0203
0000
0000
0000
0301
0000
0000
0010
0000
0000
0001
0000
,
1000
0000
0000
0010
0000
0000
1000
0000
0100
0000
0000
0010
0000
0000
0100
0000
,
0020
0000
0000
0000
0032
0000
0000
0000
1003
0000
0000
1000
0000
0000
0010
0000
,
0100
0000
0000
0100
0000
0000
0001
0000
0020
0000
0000
0000
0032
0000
0000
0000
,
1003
0000
0000
2000
0000
3000
0000
0000
0001
0000
0000
0010
0001
0000
0100
0010
,
0100
0000
0000
0001
0000
0000
1000
0000
0100
0000
0000
0100
0010
0000
0001
1000
,
0002
0000
0000
0000
0023
0000
0000
0000
0031
0000
0000
0100
0010
0000
1000
0000
,
0001
0000
0000
0010
0000
0001
0000
2000
0001
0000
0000
0000
0010
3000
0000
0000
,
0200
0000
0300
0000
0020
0000
0030
0000
1000
0000
0000
0010
1000
0000
0010
0100
,
0001
0000
0000
0010
0000
0000
0001
0000
2000
3000
0000
0100
0010
0000
0001
0000
,
0020
0000
0000
0000
0032
0000
0000
0000
1003
0000
0000
0001
0100
0000
0010
0000
,
1000
0000
0000
1000
0000
0000
0001
0000
0200
0000
0000
0000
0320
0000
0000
0000
,
1030
0000
0000
0200
0000
0300
0000
0000
1000
0000
0001
0000
0001
0000
0100
0010
,
1000
0000
0100
0000
0100
0000
0010
0001
1000
0000
0010
0000
0010
0000
0100
0010
,
1000
0000
0001
0000
0001
0000
0000
0000
0010
0000
0100
0000
0100
0000
1000
0010
,
0100
0000
0001
0000
0001
0000
0010
0100
1000
0000
0100
0000
0100
0000
1000
0010
,
0100
0000
0010
0000
0010
0000
0000
0000
0100
0000
0001
0000
0001
0000
0010
0001
,
0100
0000
0010
0000
0010
0000
1000
0100
1000
0000
0001
0000
0001
0000
0100
0010
,
0100
0000
0001
0000
1000
0000
0100
0010
0001
0000
1000
0000
1000
0000
0010
0100
,
0010
0000
0100
0000
0100
0000
0001
0010
0100
0000
0010
0000
0001
0010
0000
0021
,
0000
0000
0030
0000
0000
0000
0000
0000
0001
0000
0000
1000
0001
0000
0100
0010
,
0100
0000
0000
0001
0000
1000
0010
0000
0100
0000
0000
0100
0010
0000
1000
0100
,
2000
0000
0000
0000
3002
0000
0000
0000
0013
0000
0000
0001
1000
0000
0010
0000
,
0100
0000
0000
0001
0010
0000
0001
0020
0100
0000
0000
0000
0032
0000
0003
0000
,
2000
0000
3000
0000
0020
0000
0030
0000
1000
0000
0000
0100
0010
0000
0010
0100
,
1000
0000
0000
0010
0100
0000
0001
0000
0001
0000
0000
0010
0001
0000
0100
0000
,
0020
0000
0000
0000
0230
0000
0000
0000
0301
0000
0000
1000
0100
0000
0010
0000
,
0001
0000
0000
0100
0010
0000
1000
0000
0002
0000
0013
0000
0001
0100
0010
0000
,
1010
0000
0000
2002
0000
3003
0000
0000
0000
0000
0000
0000
0000
0000
0000
0000
;

//---------------dance-single - ----------------
#NOTES:
     dance-single:
     :
     Medium:
     5:
     0.296942,0.373133,0.018642,0.391484,0.000000,223.000000,221.000000,2.000000,42.000000,0.000000,0.000000,0.296942,0.373133,0.018642,0.391484,0.000000,223.000000,221.000000,2.000000,42.000000,0.000000,0.000000:
// measure 0
0000
0000
0000
0000
,  // measure 1
0000
0000
0000
0000
,  // measure 2
0000
0000
0000
0000
,  // measure 3
0000
0000
0000
0000
,  // measure 4
0000
0000
0000
0000
,  // measure 5
0000
0000
0002
0000
,  // measure 6
0000
0000
0000
0013
0200
0000
0000
0000
,  // measure 7
0300
1000
0010
0100
0002
0000
0000
0000
,  // measure 8
0000
0000
0000
1003
0200
0000
0000
0000
,  // measure 9
0000
0300
1000
0010
1000
0000
0001
0000
,  // measure 10
0000
0010
0001
1000
0100
0000
0010
0000
,  // measure 11
0000
0100
1000
0000
0001
0000
0100
0000
,  // measure 12
0000
0010
0100
0001
0020
0000
0000
0000
,  // measure 13
0000
0031
1000
0000
0020
0000
0130
0000
,  // measure 14
0000
0001
0010
0000
0200
0000
1300
0000
,  // measure 15
0000
0100
0010
0001
2000
0000
3010
0000
,  // measure 16
0000
0100
0001
0000
0010
0000
0010
0000
,  // measure 17
0010
0000
0000
0000
0001
0000
0000
0100
,  // measure 18
0010
0000
0000
1000
0100
0000
1000
0000
,  // measure 19
0010
0000
0100
0000
0001
0000
0000
0010
,  // measure 20
0001
0000
0000
0100
0020
0000
2030
0000
,  // measure 21
3200
0000
0320
0000
0031
0000
0000
0100
,  // measure 22
0001
0000
0000
0010
0100
0000
1000
0000
,  // measure 23
0020
0000
0130
0000
0001
0000
0000
0010
,  // measure 24
0100
0000
0010
0000
0002
0003
2000
3000
,  // measure 25
0010
0000
0110
0000
0100
0000
0000
0010
,  // measure 26
0100
0000
0000
0001
1000
0000
0000
0100
,  // measure 27
0020
0000
0032
0000
0103
0000
0000
0010
,  // measure 28
1000
0000
0000
0010
0200
0000
0320
0000
,  // measure 29
2030
0000
3200
0000
0310
0000
0000
0100
,  // measure 30
1000
0000
0000
0001
0100
0000
0000
0010
,  // measure 31
2000
0000
3002
0000
1003
0000
0000
0010
,  // measure 32
0100
0000
0000
0001
0020
0000
0032
0000
,  // measure 33
1003
0000
1001
0000
1000
0000
0001
0010
,  // measure 34
0100
0000
0000
1000
0001
0000
0010
0000
,  // measure 35
0001
0100
0010
1000
,  // measure 36
0100
0000
0010
0000
0002
0003
0020
0030
,  // measure 37
0200
0300
0020
0030
0001
0000
1000
0010
,  // measure 38
0100
0010
1000
0100
,  // measure 39
0020
0032
1003
0100
,  // measure 40
1000
0000
0001
0100
0002
0000
0023
0000
,  // measure 41
0130
0000
0100
0000
1000
0000
0001
0100
,  // measure 42
0001
0000
0010
0000
0100
0000
0010
0001
,  // measure 43
1000
0000
0001
0000
0010
0000
0001
1000
,  // measure 44
0010
0000
0100
0010
1000
0000
0100
1000
,  // measure 45
0100
0000
0010
0000
0001
0000
1000
0100
,  // measure 46
0010
0000
0001
0100
0001
0000
1000
0100
,  // measure 47
0010
0000
0001
0010
0001
0000
0100
0010
,  // measure 48
1000
0000
0100
0010
0001
0010
0001
0000
,  // measure 49
1000
0000
0000
0000
0001
0000
0010
0100
,  // measure 50
0010
0001
1000
0010
,  // measure 51
1000
0100
0010
0001
,  // measure 52
1000
0000
0010
0000
0200
0300
0002
0003
,  // measure 53
2000
3000
0200
0300
1000
0000
0010
0100
,  // measure 54
0001
0010
0001
1000
,  // measure 55
0020
0000
0230
0000
0301
0000
0010
0001
,  // measure 56
1000
0000
0010
1000
0002
0000
0023
0000
,  // measure 57
0230
0000
0000
0300
0000
0000
0000
0000
0000
0000
0000
0000
0000
0000
0000
0000
;

//---------------dance-single - ----------------
#NOTES:
     dance-single:
     :
     Easy:
     3:
     0.175768,0.239609,0.000000,0.400805,0.000000,132.000000,132.000000,0.000000,43.000000,0.000000,0.000000,0.175768,0.239609,0.000000,0.400805,0.000000,132.000000,132.000000,0.000000,43.000000,0.000000,0.000000:
0000
0000
0000
0000
,
0000
0000
0000
0000
,
0000
0000
0000
0000
,
0000
0000
0000
0000
,
0000
0000
0000
0000
,
0000
0000
0001
0000
,
0000
0000
1000
0000
,
0000
0010
0100
0000
,
0000
0000
0002
0000
,
0003
0000
0010
0001
,
0000
1000
0010
0100
,
0000
0001
1000
0100
,
0000
1000
0020
0000
,
0000
0030
0000
0000
0200
0000
0000
0000
,
0300
0010
0200
0000
,
0300
0000
0001
0000
2000
0000
0000
3000
,
0200
0000
0000
0300
0010
0000
0002
0003
,
0000
0000
1000
0000
,
0100
0000
1000
0000
,
0001
0010
0001
0000
,
1000
0000
0000
0000
0020
0030
2000
3000
,
0200
0300
2000
3000
0001
0000
0000
0000
,
0010
0000
0100
0000
,
2000
0000
0000
3000
0001
0000
0000
0000
,
0100
0000
0001
0000
2000
0000
0000
3000
,
0200
0000
0000
0300
1000
0000
0000
0000
,
0001
0000
0010
0000
,
0200
0300
2000
3000
0001
0000
0000
0000
,
0100
0000
0000
0000
0002
0003
0020
0030
,
0200
0300
2000
3000
0001
0000
0000
0000
,
1000
0000
0010
0000
,
2000
3000
0002
0003
0010
0000
0000
0000
,
0001
0000
0000
0000
0020
0030
0002
0003
,
1000
1000
0001
0000
,
0010
0000
0100
0000
,
0010
0001
1000
0000
,
0010
0000
0000
0000
0200
0300
0002
0003
,
0200
0300
0020
0030
1000
0000
0000
0000
,
0100
0000
1000
0000
,
0020
0030
0200
0300
0010
0000
0000
0000
,
0001
0000
0000
0000
2000
3000
0200
0300
,
0020
0030
0001
1000
,
0000
0010
1000
0100
,
0000
0010
0000
0001
,
0100
0001
0000
0010
,
0000
0100
1000
0001
,
0100
0010
1000
0100
,
0010
0001
1000
0001
,
0010
0000
0001
0000
1000
0000
0020
0030
,
0000
0000
1000
0000
,
0010
0000
0100
0000
,
0010
0100
0001
0000
,
0010
0000
0000
0000
0002
0003
2000
3000
,
0020
0030
0200
0300
0010
0000
0000
0000
,
1000
0000
0001
0000
,
0020
0030
0200
0300
1000
0000
0000
0000
,
0010
0000
0000
0000
0200
0300
0020
0030
,
2000
3000
0000
0000
0000
0000
0000
0000
;

//---------------dance-single - ----------------
#NOTES:
     dance-single:
     :
     Beginner:
     1:
     0.086553,0.132825,0.000000,0.009321,0.000000,65.000000,65.000000,0.000000,1.000000,0.000000,0.000000,0.086553,0.132825,0.000000,0.009321,0.000000,65.000000,65.000000,0.000000,1.000000,0.000000,0.000000:
0000
0000
0000
0000
,
0000
0000
0000
0000
,
0000
0000
0000
0000
,
0000
0000
0000
0000
,
0000
0000
0000
0000
,
0000
0000
0001
0000
,
0000
0000
1000
0000
,
0000
0000
0100
0000
,
0000
0000
1000
0000
,
0000
0000
0010
0000
,
0000
0000
0100
0000
,
0000
0000
0001
0000
,
0000
0000
0010
0000
,
0000
0000
0001
0000
,
0000
0000
0100
0000
,
0000
0000
0010
0000
,
0100
0000
0010
0000
,
0000
0000
1000
0000
,
0000
0000
0100
0000
,
0000
0000
1000
0000
,
0000
0000
0001
0000
,
0100
0000
0001
0000
,
0000
0000
0010
0000
,
0000
0000
0100
0000
,
0000
0000
0010
0000
,
0100
0000
1000
0000
,
0000
0000
0001
0000
,
0000
0000
0100
0000
,
0000
0000
0001
0000
,
0010
0000
0001
0000
,
0000
0000
1000
0000
,
0000
0000
0010
0000
,
0000
0000
0100
0000
,
0020
0030
1000
0000
,
0000
0000
0100
0000
,
0000
0000
1000
0000
,
0000
0000
0001
0000
,
1000
0000
0010
0000
,
0000
0000
0100
0000
,
0000
0000
0010
0000
,
0000
0000
1000
0000
,
0010
0000
1000
0000
,
0000
0000
0001
0000
,
0000
0000
0100
0000
,
0000
0000
0001
0000
,
0000
0000
0010
0000
,
0010
0000
0001
0000
,
0001
0000
1000
0000
,
1000
0000
0100
0000
,
0000
0000
1000
0000
,
0000
0000
0010
0000
,
0000
0000
0100
0000
,
0000
0000
0001
0000
,
0010
0000
0100
0000
,
0000
0000
1000
0000
,
0010
0000
1000
0000
,
0000
0000
0100
0000
,
1000
0000
0000
0000
;

//---------------dance-single - ----------------
#NOTES:
     dance-single:
     :
     Challenge:
     11:
     0.749679,0.747898,0.046605,0.316916,1.104545,563.000000,558.000000,5.000000,34.000000,7.000000,0.000000,0.749679,0.747898,0.046605,0.316916,1.104545,563.000000,558.000000,5.000000,34.000000,7.000000,0.000000:
0000
0000
0000
0000
,
0000
0000
0000
0000
0000
0000
00M0
0000
0M00
0000
00M0
0000
0M00
0000
0000
00M0
0000
0000
0M00
0000
0000
00M0
0000
0000
0001
0000
0000
0000
0000
0000
1000
0000
0000
0000
0000
0000
0001
0000
0000
0000
0000
0000
0010
0000
0000
0100
0000
0000
,
1000
0000
0010
0000
0100
0000
0001
0100
0001
0000
0010
0000
0001
0000
0100
0010
,
0100
0000
0001
0000
0001
0000
0000
0000
1000
0000
0100
0000
1000
0000
0010
1000
,
0100
0000
0010
0000
0100
0000
1000
0010
0100
0000
0010
0000
1000
0000
0100
0010
,
0100
0010
0010
0000
0002
0010
0010
0000
,
0000
0000
0000
1000
0000
0000
1003
0000
0000
0100
0010
0100
0020
0000
0000
0001
0000
0000
0001
0000
0000
0000
0000
0000
,
0030
0000
0100
1000
0010
0000
0010
1000
0200
0000
0010
0000
0010
0000
0000
0000
,
0000
0000
0000
1000
0000
0000
1300
0000
0000
0010
0100
0010
2000
0000
0000
0100
0000
0000
0100
0000
0000
0000
0000
0000
,
3000
0000
0000
0000
0000
0000
0001
0000
0100
0000
0010
0000
1000
0000
0000
0100
0000
0000
0010
0000
0000
0100
0000
0000
2000
0000
0000
0000
0000
0000
0001
0000
0000
3000
0000
0000
0001
0000
0000
0000
0000
0000
0010
0000
0000
0100
0000
0000
,
1000
0000
0000
0010
0000
0000
0010
0000
0000
0100
0001
0100
0002
0000
0000
1000
0000
0000
1000
0000
0000
0000
0000
0000
,
0003
0000
1000
0100
0010
0000
0100
0010
0002
0000
0010
0003
0010
0000
0100
0010
,
0001
0000
0000
0000
0000
0000
0100
0000
0000
0000
0000
0000
0010
0000
0000
0000
0000
0000
1000
0000
0100
0000
1000
0000
0100
0000
0000
0000
0000
0000
0010
0000
0000
0000
0000
0000
0001
0000
0000
0000
0000
0000
0100
0000
0000
0010
0000
0000
,
1000
0000
0100
0000
0100
0000
0000
0000
0020
0000
0001
0030
0001
0000
0100
0010
,
0100
0000
0000
0000
0000
0000
0001
0000
0000
0000
0000
0000
1000
0000
0000
0000
0000
0000
0001
0000
0010
0000
0001
0000
0010
0000
0000
0000
0000
0000
0100
0000
0000
0000
0000
0000
0010
0000
0000
0000
0000
0000
0001
0000
0000
0100
0000
0000
,
0010
0000
1000
0100
0010
0000
0100
0010
0001
0000
1000
0000
0010
0000
0100
0000
,
0002
0000
1000
0003
1000
0000
0100
0000
0010
0000
0100
0000
1000
0001
0000
1001
,
0000
0000
0000
0000
0000
0000
0000
0000
0000
0000
0000
0000
0000
0000
0000
0000
0000
0000
0000
0000
0000
0000
0000
0000
0001
0000
0000
0000
0000
0000
0000
0000
0000
0000
0010
0000
0100
0000
0000
1000
0000
0000
0100
0000
0000
0010
0000
0000
,
0001
0000
0000
1000
0000
0010
1000
0100
0010
0000
0100
0010
0100
1000
0010
0100
,
0000
0000
0000
0001
0000
0000
0000
0000
0000
0010
0000
0000
0000
0000
0000
0100
0000
0000
0000
0000
0000
2000
0000
0000
0000
0000
0000
0000
0000
0000
3000
0000
0000
0010
0000
0000
0000
0000
0000
0000
0100
0000
0001
0000
0000
0010
0000
0000
,
0001
0000
1000
0001
0000
0100
0000
0010
0000
1000
0100
0010
0001
0000
0100
0001
,
0000
0000
0000
0001
0000
0000
0010
0000
0000
0100
0000
0000
0010
0000
0000
0001
0000
0000
1000
0000
0000
0000
0000
0000
0010
0000
0000
0000
0000
0000
0000
0000
0000
0000
1000
0000
0100
0000
0000
1000
0000
0000
0010
0000
0000
0100
0000
0000
,
0001
0000
0010
0001
0100
0010
0100
0001
0010
0000
0100
1000
0100
1000
0001
1000
,
0000
0100
0000
0010
0000
0001
0000
1000
0000
0000
0000
0100
0000
0010
0100
1000
,
0001
0000
0100
0010
0000
0010
0100
0001
0020
0000
0030
0000
0002
0000
0003
0000
,
0011
0000
0000
0000
0000
0000
0001
0000
0010
0000
0001
0000
1000
0000
0000
0010
0000
0000
0100
0000
0000
0000
0000
0000
0010
0000
0000
0000
0000
0000
0000
0000
0000
0000
1000
0000
0100
0000
0000
0010
0000
0000
0100
0000
0000
0010
0000
0000
,
0001
0000
0000
0100
0000
0001
0010
0001
1000
0000
0100
1000
0010
1000
0000
0001
,
0000
0010
0000
0001
0000
0100
0000
0020
0000
0000
0030
0100
0000
0010
1000
0010
,
1000
0000
0100
0010
0000
0001
0000
0010
0000
0001
0100
0010
2000
0000
3100
0020
,
0000
0000
0000
0031
0000
0000
0100
0000
0000
0010
0000
0000
1000
0000
0000
0010
0000
0000
0100
0000
0000
0000
0000
0000
0001
0000
0000
0000
0000
0000
0000
0000
0001
0000
0010
0000
0001
0000
0000
0100
0000
0000
0010
0000
0000
0100
0000
0000
,
0001
0000
0010
0100
0010
0001
1000
0010
0100
0000
0001
0100
0001
0010
0000
0001
,
0000
0010
0000
0100
0000
1000
0000
0020
0000
0000
0000
1030
0000
0100
0010
0100
,
1000
0000
0010
0100
0000
0010
0000
1000
0200
0000
0300
0000
0020
0000
0030
0000
,
0100
0000
0000
0000
0000
0000
1000
0000
0010
0000
0100
0000
0010
0000
0000
1000
0000
0000
0100
0000
0000
0000
0000
0000
1000
0000
0000
0000
0000
0000
0000
0000
0000
0000
0010
0000
0100
0000
0000
0010
0000
0000
1000
0000
0000
0100
0000
0000
,
0010
0000
0000
0010
0000
0001
1000
0001
1000
0000
0010
0100
0010
0000
1000
0001
,
1000
0000
0100
0010
0100
0000
0010
0000
0001
0100
0000
0010
0000
1010
0000
0000
,
1000
0100
0000
0010
0000
0001
0000
2000
0001
0000
0000
0000
3020
0000
0030
0000
,
0200
0000
0000
0000
0000
0000
0300
0000
0000
0000
0000
0000
0020
0000
0000
0000
0000
0000
0030
0000
0000
0000
0000
0000
1000
0000
0000
0000
0000
0000
0000
0000
0000
0000
0100
0000
1000
0000
0000
0100
0000
0000
0010
0000
0000
0001
0000
0000
,
0100
0000
0000
0000
0001
0000
0010
0000
0000
0001
0000
0000
1000
0000
0000
0010
0000
0000
0000
0000
0000
0200
0000
0000
0000
0000
0000
0300
0010
0000
1000
0000
0000
0000
0100
0000
0010
0000
0000
0000
0001
0000
1000
0000
0000
0010
0000
0000
,
1000
0000
0000
0001
0000
0000
0010
0000
0000
0001
0000
0000
2000
0000
0000
3010
0000
0000
0000
0000
0000
1000
0000
0000
0000
0000
0000
0000
0000
0000
0000
0100
0000
0000
0010
0000
0100
0000
0000
0010
0000
0000
0001
0000
0000
0100
0000
0000
,
0001
1000
0000
1000
0000
0100
0000
1000
0200
0000
0000
0000
0320
0000
0000
0000
,
0031
0000
0000
0000
0000
0000
0100
0000
0010
0000
0100
0000
0010
0000
0000
1000
0000
0000
0100
0000
0000
1000
0000
0000
0001
0000
0000
0000
0000
0000
1000
0000
0000
0000
0000
0000
0100
0000
0000
0000
0000
0000
0010
0000
0000
0001
0000
0000
,
0010
0000
0100
0000
0010
0000
0001
0100
0010
0000
1000
0000
0010
0000
0100
0010
,
1000
0000
0100
0000
0100
0000
0000
0000
0010
0000
0001
0000
0100
0000
0010
1000
,
0100
0000
0010
0000
0001
0000
0100
0010
0100
0000
0010
0000
1000
0000
0100
0010
,
0001
0000
0000
0000
0000
0000
0010
0000
0001
0000
0100
0000
0010
0000
0000
1000
0000
0000
0010
0000
0000
0100
0000
0000
0001
0000
0000
0000
0000
0000
0100
0000
0000
0000
0000
0000
0010
0000
0000
0000
0000
0000
1000
0000
0000
0100
0000
0000
,
1000
0000
0010
0000
0100
0000
0001
0100
0001
0000
0010
0000
0001
0000
0010
0100
,
1000
0000
0010
0000
0100
0000
0010
0100
0001
0000
0010
0000
0100
0000
0010
0100
,
0010
0000
0001
0000
0100
0000
0010
1000
0010
0000
0100
0000
0001
0010
0000
0001
,
0000
0000
0000
0000
0000
0000
0010
0000
0001
0000
0010
0000
0001
0000
0000
0100
0000
0000
0010
0000
0000
1000
0000
0000
0010
0000
0000
0000
0000
0000
0000
0000
0000
0000
1000
0000
0010
0000
0000
1000
0000
0000
0100
0000
0000
0010
0000
0000
,
0100
0000
0000
0100
0000
1000
0010
0100
0001
0000
0010
0100
0010
0000
0001
1000
,
0001
0000
0100
0010
0100
0000
0001
0000
0010
0001
0000
1000
0000
0001
0000
0000
,
1000
0010
0000
1000
0000
0001
0000
0020
0100
0000
0000
0000
0001
0030
0000
0000
,
2000
0000
0000
0000
0000
0000
3000
0000
0000
0000
0000
0000
0020
0000
0000
0000
0000
0000
0030
0000
0000
0000
0000
0000
1000
0000
0000
0000
0000
0000
0000
0000
0000
0000
0100
0000
0010
0000
0000
0001
0000
0000
0010
0000
0000
0100
0000
0000
,
1000
0000
0000
0000
0001
0000
0100
0000
0000
0000
0010
0000
0100
0000
0000
0001
0000
0000
0000
0000
0000
1000
0000
0000
0000
0000
0000
0000
0010
0000
0100
0000
0000
0001
0000
0000
0010
0000
0000
0001
0000
0000
0100
0000
0000
0010
0000
0000
,
0100
0000
0000
0000
0001
0000
0010
0000
0000
0100
0000
0000
2000
0000
0000
3100
0000
0000
0000
0000
0000
2000
0000
0000
0000
0000
3000
0000
0000
0000
0000
0000
0001
0000
0100
0000
0010
0000
0000
0100
0000
0000
0010
0000
0000
1000
0000
0000
,
0100
0010
0000
0100
0000
1000
0000
0000
0002
0000
0013
0000
0100
0010
0001
0000
,
0011
0000
0000
2002
0000
3003
0000
0000
0000
0000
0000
0000
0000
0000
0000
0000
;
