#TITLE:METATRON;
#SUBTITLE:;
#ARTIST:SHIKI;
#TITLETRANSLIT:;
#SUBTITLETRANSLIT:;
#ARTISTTRANSLIT:;
#GENRE:TRANCE CORE;
#CREDIT:usaminseijin;
#BANNER:[Voiceless Week] - METATRON.png;
#BACKGROUND:[Voiceless Week] - METATRON-bg.png;
#LYRICSPATH:;
#CDTITLE:cdtitle.png;
#MUSIC:[Voiceless Week] - METATRON.ogg;
#OFFSET:0.000000;
#SAMPLESTART:11.368;
#SAMPLELENGTH:18.948;
#SELECTABLE:YES;
#BPMS:0.000000=190.000000
;
#STOPS:
;
#BGCHANGES:-0.750=[Voiceless Week] - METATRON.avi=1.000=0=0=0=StretchNoLoop====,
99999=-nosongbg-=1.000=0=0=0 // don't automatically add -songbackground-
;
#KEYSOUNDS:;
#ATTACKS:;

//---------------dance-single - ----------------
#NOTES:
     dance-single:
     :
     Hard:
     10:
     0.770363,1.249521,0.233011,0.407769,0.595010,648.000000,620.000000,28.000000,49.000000,0.000000,0.000000,0.770363,1.249521,0.233011,0.407769,0.595010,648.000000,620.000000,28.000000,49.000000,0.000000,0.000000:
0000
0000
0000
0000
,
0000
0000
0000
0000
,
0000
0000
0000
0000
,
0000
0000
0000
0000
,
0000
0000
0000
0000
,
0000
0000
0000
0000
,
0000
0000
0000
0000
,
1001
1001
0000
0000
0110
0110
0000
0000
,
1001
0000
0110
0000
1001
0010
0100
0010
,
1000
0100
0010
0001
1000
0100
0010
0002
,
1000
0000
1000
0000
1003
0100
0010
0001
,
1000
0000
0100
0010
0100
0000
1000
0000
0001
0000
1000
0000
0010
0000
0200
0000
,
0001
0000
0001
0000
0301
0000
1000
0001
,
1000
0001
0010
0100
1000
0001
0010
0200
,
1000
0000
1000
0000
1300
1000
0100
0010
,
0001
0000
0100
0010
0100
0000
0001
0000
1000
0000
0001
0000
1000
0000
0000
0000
,
0001
0000
0000
2000
0000
3001
0010
0001
,
2000
0000
0000
3002
0000
1003
0010
1000
,
0002
0000
0000
2003
0000
3001
1000
0001
,
1000
0000
0100
1000
0100
0000
1000
0000
0001
0010
0001
0000
0100
0010
0100
0000
,
0001
0000
1000
0001
1000
0001
1000
0000
0001
0100
0001
0000
1000
0010
1000
0000
,
0001
0000
0100
0001
0000
0100
0001
0000
1000
0010
0000
0000
1000
0001
1000
0000
,
0001
0000
0100
0001
0100
0000
0001
0000
1000
0100
1000
0000
0001
0010
0001
0000
,
2000
0000
0000
3001
,
1000
0001
1000
0001
0100
0010
1000
0001
,
1000
0000
0010
0000
0100
0000
0001
0000
0100
0000
0010
1000
0010
0000
0100
0000
,
0001
0000
1000
0000
0001
0000
1000
0000
0010
0000
0100
0010
0100
0000
0001
0000
,
2000
0000
0000
3002
0000
1003
0100
0000
,
1000
0000
0001
1000
0001
1000
0001
1000
0010
0100
0010
0100
0010
0100
0010
0100
,
0002
0000
0000
2003
0000
0000
3001
0000
,
1000
0000
0001
0010
0001
0010
0001
0010
0100
1000
0100
1000
0100
1000
0100
1000
,
0002
0000
0000
0000
0000
0000
1003
0100
1000
0000
0001
0000
1000
0000
0001
0000
,
0100
0000
0000
0000
1001
0000
0100
0010
0100
0000
0001
1000
0001
0000
0010
0100
,
0020
0000
0000
0000
0000
0000
0031
1000
0001
0000
0100
0000
0020
0000
0000
0000
,
2030
0000
0000
0000
0000
0000
3001
1000
0001
0000
0010
0000
0100
0000
1000
0100
,
2000
0000
0000
0000
0000
0000
3001
0010
0002
0000
0000
0000
2003
0000
0000
0000
,
3001
0000
0100
0001
0100
0001
0100
0001
1000
0010
1000
0010
1000
0010
1000
0010
,
0100
0000
0001
0010
0001
0010
0001
0010
0001
0000
1000
0000
0001
0000
1000
0000
,
0002
0000
0000
0000
0000
0000
1003
0100
1000
0000
0001
0000
0010
0000
0001
0000
,
1000
0000
0001
0100
0001
0000
1000
0010
2000
0000
0000
0000
3002
0000
0000
0000
,
2003
0001
0001
0001
,
0100
0100
0100
0100
,
3200
0010
0010
0010
,
1000
1000
1000
1300
,
0001
1000
0001
1000
0010
0100
0010
0100
,
0001
0010
0001
0010
0100
1000
0100
1000
,
0001
0100
0001
0100
0010
1000
0010
1000
,
0000
0010
0000
0100
0010
0100
0010
0000
,
2000
0000
0000
0000
0000
3001
0100
0001
,
0200
0000
0000
0320
0000
0000
0130
0000
,
0002
0000
0000
0000
2003
0000
3001
0200
,
0000
0000
0000
0301
0020
0000
0000
0000
,
0230
0000
0000
2300
0000
3001
1000
0001
,
0200
0000
0000
0310
2000
0000
3002
0000
,
2003
0000
0000
0000
3000
0001
1000
0001
,
0000
1001
0000
1001
0000
0100
0010
0000
,
1002
0000
0000
0000
1003
0000
0100
0010
0100
0000
0001
1000
0001
0000
0010
0100
,
0020
0000
0000
0000
0000
0000
1030
0010
0100
0000
0001
0000
0100
0000
0000
0000
,
1002
0000
0000
0000
0000
0000
1003
0010
0100
0000
0010
0000
1000
0000
0001
1000
,
0002
0000
0000
0000
0000
0000
1003
0001
2000
0000
0000
0000
3002
0000
0000
0000
,
1003
0000
0010
0100
0010
0100
0010
0100
0001
1000
0001
1000
0001
1000
0001
1000
,
0100
0000
0010
0001
0010
0001
0010
0001
0010
0000
0100
0000
0010
0000
0100
0000
,
2000
0000
0000
0000
0000
0000
3001
0100
0001
0000
0100
0000
0010
0000
1000
0000
,
0001
0000
0100
0001
0100
0000
0010
0100
0020
0000
0000
0000
1030
0000
0000
0000
,
2002
0000
0000
0000
,
3003
0000
0000
0000
0010
0000
0000
0000
0100
0000
0000
0010
0000
0000
0100
0000
,
0001
0000
0000
0000
0000
1000
0010
1000
,
0001
0000
0000
0010
0000
0000
0001
0100
,
0001
0000
0000
0000
0000
1000
0001
1000
,
0001
0000
0000
0100
0010
0000
0100
0000
,
0001
0000
0000
0000
0000
0000
1000
0000
0001
1000
0001
1000
0001
1000
0001
1000
,
0001
0000
0110
0000
0000
0000
0110
0000
0000
0000
0110
0000
0001
1000
0001
1000
,
0001
0000
1000
0000
1000
0100
1010
0001
,
1010
0000
1000
0001
0100
0001
0100
0000
,
0101
0000
0100
0010
1000
0001
1000
0000
,
0110
0000
0100
0001
1000
0010
1000
0000
,
0001
0000
1000
0010
1000
0010
1000
0010
0100
0001
0100
0001
0100
0001
0100
0001
,
1000
0000
0000
1001
0000
0000
1001
0000
0100
0000
0000
0110
0000
0000
0110
0000
,
1000
0100
1000
0100
1000
0100
1000
0100
0010
0001
0010
0001
0010
0001
0010
0001
,
1000
0000
0001
0100
0001
0100
0001
0100
0010
1000
0010
1000
0010
1000
0010
1000
,
0001
0000
0100
0000
0100
0010
0101
0010
,
1001
0000
1010
0000
1001
0010
1000
0000
,
0010
0100
0010
0100
0010
0100
0010
0100
0001
1000
0001
1000
0001
1000
0001
1000
,
0010
0000
1000
0100
1000
0000
0001
1000
0001
0000
0010
0001
0010
0000
0001
1000
,
0001
0000
1000
0010
1000
0010
1000
0010
0100
0001
0100
0001
0100
0001
0100
0001
,
1000
0000
0001
0010
0001
0000
0100
0010
0100
0000
1000
0100
1000
0000
0001
1000
,
0001
0100
0001
0100
0001
0100
0001
0100
0010
1000
0010
1000
0010
1000
0010
1000
,
0010
0100
0010
0100
0001
1000
0001
1000
0010
1000
0010
1000
0001
0100
0001
0100
,
0002
0000
0000
0000
,
0000
0000
0000
0000
,
0000
0000
0000
0000
,
0003
0000
0000
0000
;

//---------------dance-single - ----------------
#NOTES:
     dance-single:
     :
     Challenge:
     10:
     0.848826,1.249521,0.257976,0.382804,0.674068,714.000000,683.000000,31.000000,46.000000,0.000000,0.000000,0.848826,1.249521,0.257976,0.382804,0.674068,714.000000,683.000000,31.000000,46.000000,0.000000,0.000000:
0000
0000
0000
0000
,
0000
0000
0000
0000
,
0000
0000
0000
0000
,
0000
0000
0000
0000
,
0000
0000
0000
0000
,
0000
0000
0000
0000
,
0000
0000
0000
0000
,
1001
0000
1001
0000
0100
0010
0100
0010
1001
0000
1001
0000
0100
0010
0100
0010
,
1001
0000
0110
0000
1001
0010
0100
0010
,
1000
0100
0010
0001
1000
0100
0010
0002
,
1000
0000
1000
0000
1003
0100
0010
0001
,
1000
0000
0100
0010
0100
0000
1000
0000
0001
0000
1000
0000
0010
0000
0200
0000
,
0001
0000
0001
0000
0301
0000
1000
0001
,
1000
0001
0010
0100
1000
0001
0010
0200
,
1000
0000
1000
0000
1300
1000
0100
0010
,
0001
0000
0100
0010
0100
0000
0001
0000
1000
0000
0001
0000
1000
0000
0000
0000
,
0001
0000
0100
2000
0000
3001
0110
0001
,
2000
0000
0100
3002
0000
0103
0110
1000
,
0002
0000
0100
2003
0000
3001
1100
0001
,
1000
0000
0100
1000
0100
0000
1000
0000
0001
0010
0001
0000
0100
0010
0100
0000
,
0001
0000
1000
0001
0100
0001
1000
0000
0001
0100
0001
0000
1000
0010
1000
0000
,
0001
0000
0100
0001
0000
1000
0001
0000
1000
0010
0000
0000
1000
0001
1000
0000
,
0001
0000
0100
0001
0100
0000
0001
0000
1000
0100
1000
0000
0001
0010
0001
0000
,
2000
0000
0000
3001
,
1000
0001
1000
0001
0100
0010
1000
0001
,
1000
0000
0010
0000
0100
0000
0001
0000
0100
0000
0010
1000
0010
0000
0100
0000
,
0001
0000
1000
0000
0001
0000
1000
0000
0010
0000
0100
0010
0100
0000
0001
0000
,
2000
0000
0010
3002
0000
1003
0100
0000
,
1000
0000
0001
1000
0100
1000
0001
0100
0010
0100
0001
1000
0010
1000
0001
0100
,
0002
0000
0000
2003
0000
0000
3001
0000
,
1000
0000
0001
0010
0001
0100
0001
1000
0100
1000
0001
1000
0010
1000
0100
1000
,
0001
0000
1000
0100
1000
0000
0001
0100
0001
0000
1000
0000
0001
1000
0001
1000
,
0100
0000
0000
0000
1001
0000
0100
0010
0100
0000
0001
1000
0001
0000
0010
0100
,
0020
0000
0000
0000
0000
0000
0031
1000
0001
0000
0100
0000
0020
0000
0000
0000
,
2030
0000
0000
0000
0000
0000
3001
1000
0001
0000
0010
0000
0100
0000
1000
0100
,
2000
0000
0000
0000
0000
0000
3001
0010
0002
0000
0000
0000
2003
0000
0000
0000
,
3001
0000
0100
0001
1000
0001
0100
0001
1000
0010
0100
0010
1000
0001
0100
0010
,
0100
0000
0001
0010
0001
1000
0010
1000
0001
0000
1000
0000
0001
0000
1000
0000
,
0002
0000
0000
0000
1000
0000
1003
0100
1000
0000
0001
0000
0010
0000
0001
0000
,
1000
0000
0001
0100
0001
0000
1000
0010
2000
0000
0000
0000
3002
0000
0000
0000
,
2003
0100
0010
0100
0001
0100
0010
0100
,
0000
0100
0010
0100
0001
0100
0001
0010
,
3200
1000
0010
1000
0001
1000
0010
1000
,
0000
0001
1000
0010
1000
0001
1300
0000
,
0001
1000
0001
1000
0010
0100
0010
0100
,
0001
0010
0001
0010
0100
1000
0100
1000
,
0001
0100
0001
0100
0010
1000
0010
1000
,
0000
0010
0000
0100
0010
0100
0010
0000
,
2000
0000
0000
0000
0000
3001
0100
0001
,
0200
0000
0000
0320
0000
0000
0130
0000
,
0002
0000
0000
0000
2003
0000
3001
0200
,
0000
0000
0000
0301
0020
0000
0000
0000
,
0230
0000
0000
2300
0000
3001
1000
0001
,
0200
0000
0000
0310
2000
0000
3002
0000
,
1003
0001
1000
0001
1000
0001
1000
0001
0100
0010
0100
0010
0100
0010
0100
0010
,
0000
1001
0000
1001
0000
0100
0010
0000
,
1002
0000
0000
0000
1003
0000
0100
0010
0100
0000
0001
1000
0001
0000
0010
0100
,
0020
0000
0000
0000
1000
0000
1030
0010
0100
0000
0001
0000
0100
0000
0000
0000
,
1002
0000
0000
0000
1000
0000
1003
0010
0100
0000
0010
0000
1000
0000
0001
1000
,
0002
0000
0000
0000
1000
0000
1003
0001
2000
0000
0000
0000
3002
0000
0000
0000
,
1003
0000
0010
0100
0001
1000
0010
0100
0001
1000
0001
0100
0001
1000
0001
0010
,
0100
0000
0010
0001
0100
0010
1000
0001
0010
0000
0100
0000
0010
0000
0100
0000
,
2000
0000
0000
0000
0001
0000
3001
0100
0001
0000
0100
0000
0010
0000
1000
0000
,
0001
0000
0100
0001
0100
0000
0010
0100
0010
0100
0010
0100
0010
0100
0010
0100
,
2002
0000
0000
0000
,
3003
0000
0000
0000
0010
0000
0000
0000
0100
0000
0000
0010
0000
0000
0100
0000
,
0001
0010
0100
1000
0000
1000
0010
1000
,
0001
0010
0100
0010
0000
0000
0001
0100
,
0001
0010
0100
1000
0000
1000
0001
1000
,
0001
0000
0000
0100
0010
0000
0100
0000
,
0001
0000
0010
0000
0100
0000
1000
0000
0001
1000
0001
1000
0001
1000
0001
1000
,
0001
0000
0110
0000
0000
0000
1001
0000
0000
0000
0110
0000
0001
1000
0001
1000
,
0001
0000
1000
0000
1000
0100
1010
0001
,
1010
0000
1000
0001
0100
0001
0100
0000
,
0101
0000
0100
0010
1000
0001
1000
0000
,
0110
0000
0100
0001
1000
0010
1000
0000
,
0001
0000
1000
0010
0100
0001
1000
0010
0100
0001
0010
0001
1000
0010
0100
0001
,
1000
0000
0000
0101
0000
0000
1001
0000
0100
0000
0000
0110
0000
0000
0101
0000
,
1000
0100
0010
0001
1000
0100
1000
0001
0010
0001
0100
0001
1000
0001
0010
0001
,
1000
0000
0001
0100
0001
1000
0001
0100
0010
1000
0001
0100
0010
1000
0001
0100
,
0001
0000
0100
0000
0100
0010
0101
0010
,
1001
0000
1010
0000
1001
0010
1000
0000
,
0010
0100
0001
1000
0010
1000
0001
0100
0001
1000
0100
1000
0001
1000
0001
0100
,
0010
0000
1000
0100
1000
0000
0001
1000
0001
0000
0010
0001
0010
0000
0001
1000
,
0001
0000
1000
0010
0100
0001
1000
0010
0100
0001
1000
0001
0100
0010
1000
0010
,
1000
0000
0001
0010
0001
0000
0100
0010
0100
0000
1000
0100
1000
0000
0001
1000
,
0001
0100
0001
1000
0010
0100
0010
1000
0001
0100
0010
1000
0001
0100
0010
1000
,
0010
0100
0001
1000
0010
0100
0001
1000
0010
1000
0001
0100
0010
1000
0001
0100
,
0002
0000
0000
0000
,
0000
0000
0000
0000
,
0000
0000
0000
0000
,
0003
0000
0000
0000
;

//---------------dance-single - ----------------
#NOTES:
     dance-single:
     :
     Medium:
     9:
     0.555184,0.681557,0.116506,0.299586,0.012483,467.000000,453.000000,14.000000,36.000000,0.000000,0.000000,0.555184,0.681557,0.116506,0.299586,0.012483,467.000000,453.000000,14.000000,36.000000,0.000000,0.000000:
0000
0000
0000
0000
,
0000
0000
0000
0000
,
0000
0000
0000
0000
,
0000
0000
0000
0000
,
0000
0000
0000
0000
,
0000
0000
0000
0000
,
0000
0000
0000
0000
,
0001
1000
0000
0000
0010
0100
0000
0000
,
1000
0000
0010
0000
0001
0010
0100
0010
,
1000
0100
0010
0001
1000
0100
0010
0002
,
0000
0000
0000
0000
1003
0100
0010
0001
,
1000
0001
0100
0010
0100
0001
1000
0002
,
0000
0000
0000
0000
0003
0000
1000
0001
,
1000
0001
0010
0100
1000
0001
0010
0200
,
0000
0000
0000
0000
0300
1000
0100
0010
,
0001
0100
0010
1000
0001
1000
0001
0000
,
2000
0000
0000
3001
0000
1000
0010
1000
,
0002
0000
0000
1003
0000
0001
0010
0001
,
1000
0000
0000
0001
0000
1000
0001
1000
,
0010
0100
0010
1000
0001
0010
0001
0100
,
0001
1000
0010
1000
0001
0100
0010
1000
,
0001
0100
0001
0100
0001
0010
0001
0010
,
0001
1000
0010
0100
0010
1000
0001
0010
,
0002
0000
0000
1003
,
0001
1000
0001
1000
0100
0010
0001
1000
,
0001
0010
0100
1000
0100
0010
0001
0100
,
0001
1000
0001
1000
0010
0100
0010
1000
,
0002
0000
0000
1003
0000
0001
0100
0000
,
0001
1000
0001
1000
0010
0100
0010
0100
,
0002
0000
0000
2003
0000
0000
3001
0000
,
1000
0001
0010
0001
0100
0001
0100
0001
,
2000
0000
0000
3001
0100
0001
1000
0001
,
0100
0000
0001
0100
0010
1000
0001
0100
,
0020
0000
0000
1030
0001
0100
0010
0000
,
2000
0000
0000
3001
1000
0010
0100
0001
,
2000
0000
0000
3001
0200
0000
0301
0000
,
1000
0001
0100
0001
1000
0010
1000
0010
,
0100
0001
0010
0001
1000
0001
0100
0001
,
2000
0000
0000
3001
0100
0001
0010
0001
,
1000
0100
1000
0001
1000
0000
0001
0000
,
2000
0001
0001
0001
,
0100
0100
0100
0100
,
3200
0010
0010
0010
,
1000
1000
1000
1300
,
0001
1000
0001
1000
0010
0100
0010
0100
,
0001
0010
0001
0010
0100
1000
0100
1000
,
0001
0100
0001
0100
0010
1000
0010
1000
,
0000
0010
0000
0100
0010
0100
0010
0000
,
2000
0000
0000
0000
0000
3001
0100
0001
,
0200
0000
0000
0320
0000
0000
0130
0000
,
0002
0000
0000
0000
1003
0000
0001
0200
,
0000
0000
0000
0301
0020
0000
0000
0000
,
0230
0000
0000
1300
0000
0001
1000
0001
,
0200
0000
0000
0310
1000
0000
0001
0000
,
2000
0000
0000
0000
3000
0001
1000
0001
,
0200
0000
0000
0310
0200
0000
0000
0000
,
0302
0000
0003
0100
0010
1000
0001
0100
,
0020
0000
0000
1030
0100
1000
0100
0000
,
2000
0000
0000
3001
0010
0100
0010
0001
,
2000
0000
0000
3001
1000
0000
0001
0000
,
1000
0010
0100
0010
1000
0001
1000
0001
,
0100
0001
0010
0001
0100
0001
0010
0001
,
2000
0000
0000
3001
0100
0001
0010
0001
,
1000
0001
0100
0010
0100
0000
0001
0000
,
2002
0000
0000
0000
,
3003
0000
0000
0000
0010
0000
0000
0000
0100
0000
0000
0010
0000
0000
0100
0000
,
0001
0000
0000
0000
0000
1000
0010
1000
,
0001
0000
0000
0010
0000
0000
0001
0100
,
0001
0000
0000
0000
0000
1000
0001
1000
,
0001
0000
0000
0100
0010
0000
0100
0000
,
0001
0000
0000
1000
0000
0000
0001
0000
,
0100
0000
0000
0010
0100
0000
0000
0000
,
1001
0000
0000
0000
1000
0100
0010
0001
,
1100
0000
0000
0101
0000
1010
0000
0000
,
1001
0000
0000
0100
0000
0001
0000
0000
,
0110
0000
0000
1001
0000
0110
0000
0000
,
0001
1000
0010
1000
0001
0100
0001
0100
,
0001
0000
0000
1000
0000
0000
1001
0000
0100
0000
0000
0010
0000
0000
0110
0000
,
1000
0100
1000
0100
0010
0001
0010
0001
,
1000
0001
0100
0001
1000
0010
1000
0010
,
1001
0000
0000
0000
0000
0010
0001
0010
,
1001
0000
0110
0000
1000
0001
0000
0000
,
0010
0100
0010
0100
0001
1000
0001
1000
,
0010
1000
0100
1000
0001
0010
0001
1000
,
0001
1000
0010
1000
0001
0100
0001
0100
,
0001
0010
0001
0100
0010
1000
0100
1000
,
0001
0100
0001
0100
0010
1000
0010
1000
,
0010
0100
0001
1000
0010
1000
0001
0100
,
0002
0000
0000
0000
,
0000
0000
0000
0000
,
0000
0000
0000
0000
,
0003
0000
0000
0000
;

//---------------dance-single - ----------------
#NOTES:
     dance-single:
     :
     Easy:
     5:
     0.400636,0.530100,0.266298,0.183080,0.000000,337.000000,305.000000,32.000000,22.000000,0.000000,0.000000,0.400636,0.530100,0.266298,0.183080,0.000000,337.000000,305.000000,32.000000,22.000000,0.000000,0.000000:
0000
0000
0000
0000
,
0000
0001
0000
0001
0000
0001
0000
0001
,
0000
1000
0000
1000
0000
1000
0000
1000
,
0000
0010
0000
0010
0000
0010
0000
0010
,
0000
0100
0000
0100
0000
0100
0000
0100
,
0000
0001
0000
0001
0000
0001
0000
0001
,
0000
1000
0000
1000
0000
1000
0000
1000
,
1001
0000
0110
0000
,
2002
0000
3003
1001
,
1000
0000
0001
0000
1000
0100
1000
0000
,
0001
0000
0100
0000
0001
0010
0001
0000
,
1000
0000
0010
0000
0100
0010
0100
0000
,
0001
0000
1000
0000
0001
0100
0001
0000
,
1000
0000
0010
0000
0100
0010
0100
0000
,
0001
0000
1000
0000
0010
0100
0010
0000
,
0100
0000
0010
0000
1000
0001
1000
0000
,
1001
0010
0000
0010
,
0000
0100
0000
0100
,
0000
0001
0000
0001
,
0000
1000
0000
1000
,
1001
1000
1000
1000
,
0010
0010
0010
0010
,
0100
0100
0100
0100
,
2002
0000
0000
3003
,
1000
0010
0100
0010
,
1000
0000
0001
0000
1000
0001
1000
0000
,
0100
0010
0100
0001
,
1000
0000
0010
0000
0100
0010
0100
0000
,
0001
1000
0001
0100
,
0010
0000
0100
0000
0001
0010
0001
0000
,
1000
0001
1000
0010
,
0100
0010
0100
0010
0100
0010
0100
0000
,
0001
1000
0010
0100
,
0010
0000
1000
0000
0010
0100
0010
0000
,
1000
0001
0100
0010
,
1000
0000
0010
0000
0100
0010
0100
0000
,
0001
0100
0001
1000
,
0010
0000
0100
0000
0001
1000
0001
0000
,
0100
0010
1000
0010
,
2002
0000
0000
3003
,
1000
0010
0001
0100
,
1000
0010
0001
0100
,
1000
0010
0001
0100
,
1000
0010
0001
0100
,
1000
0100
0001
0010
,
1000
0100
0001
0010
,
1000
0100
0001
0010
,
0000
1001
0000
1001
,
2000
0000
0000
3000
,
0002
0000
0000
0003
,
0200
0000
0000
0300
,
0020
0000
0000
0030
,
2000
0000
0000
3000
,
0002
0000
0000
0003
,
0200
0300
0020
0030
,
0000
1001
0000
1001
0000
1001
0000
0000
,
1000
0000
0001
0000
0100
0010
0100
0000
,
0001
0000
0100
0000
0010
0100
0010
0000
,
1000
0000
0010
0000
0100
0001
0100
0000
,
0001
0000
1000
0000
0010
0100
0010
0000
,
1000
0000
0010
0000
0100
0010
0100
0000
,
0001
0000
1000
0000
0010
0100
0010
0000
,
1000
0000
0001
0000
0100
0010
0100
0000
,
2002
0000
0000
3003
,
2000
0000
0000
0000
,
0000
0000
0000
3000
,
0002
0000
0000
0000
,
0000
0000
0000
0003
,
0200
0000
0000
0000
,
0000
0000
0000
0300
,
0020
0000
0000
0030
,
0000
1001
0000
1001
0000
1000
0001
0000
,
0100
0010
0100
0110
,
1000
0001
1000
1001
,
0100
0001
0100
0110
,
1000
0010
0100
1001
,
0100
0010
0100
0001
,
1001
1001
1001
1001
,
0100
0010
1000
0110
,
0100
0010
1000
0110
,
1000
0001
0100
1001
,
0100
0010
1000
1001
,
1000
0010
0100
0110
,
1000
0001
0010
0110
,
1000
0001
0100
0110
,
1000
0001
0010
1001
,
1000
0001
0100
0010
,
1000
0001
0100
0020
,
2030
0000
0000
0000
,
0000
0000
0000
0000
,
0000
0000
0000
0000
,
3000
0000
0000
0000
;

//---------------dance-single - ----------------
#NOTES:
     dance-single:
     :
     Beginner:
     3:
     0.218745,0.329544,0.058253,0.191402,0.000000,184.000000,177.000000,7.000000,23.000000,0.000000,0.000000,0.218745,0.329544,0.058253,0.191402,0.000000,184.000000,177.000000,7.000000,23.000000,0.000000,0.000000:
// measure 0
0000
0000
0000
0000
,  // measure 1
2000
0000
0000
3000
,  // measure 2
0000
0000
0000
0000
,  // measure 3
0002
0000
0000
0003
,  // measure 4
0000
0000
0000
0000
,  // measure 5
0200
0000
0000
0300
,  // measure 6
0000
0000
0000
0000
,  // measure 7
1001
0000
0110
0000
,  // measure 8
1001
0000
0000
0000
,  // measure 9
1000
0000
1000
0000
,  // measure 10
0001
0000
0001
0000
,  // measure 11
0100
0000
0100
0000
,  // measure 12
0010
0000
0010
0000
,  // measure 13
1000
0000
1000
0000
,  // measure 14
0010
0000
0010
0000
,  // measure 15
0100
0000
0100
0000
,  // measure 16
1001
0000
0000
0000
,  // measure 17
0000
0100
0000
0100
,  // measure 18
0000
0010
0000
0010
,  // measure 19
0000
0100
0000
0100
,  // measure 20
0001
0001
0001
0000
,  // measure 21
1000
1000
1000
0000
,  // measure 22
0010
0010
0010
0000
,  // measure 23
0200
0000
0000
0300
,  // measure 24
0001
0000
0001
0000
,  // measure 25
1000
0000
1000
0000
,  // measure 26
0010
0000
0010
0000
,  // measure 27
0100
0000
0100
0000
,  // measure 28
0001
0000
0001
0000
,  // measure 29
1000
0000
1000
0000
,  // measure 30
0010
0000
0010
0000
,  // measure 31
0100
0000
0200
0300
,  // measure 32
1000
1000
1000
0000
,  // measure 33
0001
0001
0001
0000
,  // measure 34
0100
0100
0100
0000
,  // measure 35
0010
0010
0010
0000
,  // measure 36
0100
0100
0100
0000
,  // measure 37
0001
0001
0001
0000
,  // measure 38
1000
1000
1000
0000
,  // measure 39
0010
0010
0010
0000
,  // measure 40
0200
0000
0000
0000
,  // measure 41
0000
0000
0000
0300
,  // measure 42
0020
0000
0000
0000
,  // measure 43
0000
0000
0000
0030
,  // measure 44
1000
1000
1000
0000
,  // measure 45
0001
0001
0001
0000
,  // measure 46
0100
0100
0100
0000
,  // measure 47
0020
0000
0000
0030
,  // measure 48
2000
0000
0000
3000
,  // measure 49
0002
0000
0000
0003
,  // measure 50
0200
0000
0000
0300
,  // measure 51
0020
0000
0000
0030
,  // measure 52
2000
0000
0000
3000
,  // measure 53
0002
0000
0000
0003
,  // measure 54
0200
0000
0000
0300
,  // measure 55
1001
0000
0000
0000
,  // measure 56
1000
1000
1000
0000
,  // measure 57
0001
0001
0001
0000
,  // measure 58
0100
0100
0100
0000
,  // measure 59
0010
0010
0010
0000
,  // measure 60
1000
1000
1000
0000
,  // measure 61
0001
0001
0001
0000
,  // measure 62
0100
0100
0100
0000
,  // measure 63
1001
0000
0000
0000
,  // measure 64
0220
0000
0000
0330
,  // measure 65
0000
0000
0000
0000
,  // measure 66
2000
0000
0000
3000
,  // measure 67
0002
0000
0000
0003
,  // measure 68
0200
0000
0000
0300
,  // measure 69
0020
0000
0000
0030
,  // measure 70
2000
0000
0000
3000
,  // measure 71
0002
0000
0000
0003
,  // measure 72
1000
1000
1000
0000
,  // measure 73
0001
0001
0001
0000
,  // measure 74
0100
0100
0100
0000
,  // measure 75
0010
0010
0010
0000
,  // measure 76
1000
1000
1000
0000
,  // measure 77
0010
0010
0010
0000
,  // measure 78
0100
0100
0100
0000
,  // measure 79
0001
0001
0001
0000
,  // measure 80
1000
0001
1000
0000
,  // measure 81
0010
0100
0010
0000
,  // measure 82
1000
0001
1000
0000
,  // measure 83
0100
0010
0100
0000
,  // measure 84
0010
0001
0010
0000
,  // measure 85
1000
0100
1000
0000
,  // measure 86
0001
1000
0001
1000
,  // measure 87
0010
0100
0010
0100
,  // measure 88
0010
0000
0000
0000
;
