#VERSION:0.83;
#TITLE:ロリキート;
#SUBTITLE:;
#ARTIST:黄泉路テヂーモ;
#TITLETRANSLIT:Lorikeet;
#SUBTITLETRANSLIT:;
#ARTISTTRANSLIT:Tedjimo Yomigy;
#GENRE:;
#ORIGIN:;
#CREDIT:;
#BANNER:[Voiceless Week] - Lorikeet.png;
#BACKGROUND:[Voiceless Week] - Lorikeet-bg.png;
#PREVIEWVID:;
#JACKET:[Voiceless Week] - Lorikeet-jacket.png;
#CDIMAGE:;
#DISCIMAGE:;
#LYRICSPATH:;
#CDTITLE:cdtitle.png;
#MUSIC:[Voiceless Week] - Lorikeet.ogg;
#OFFSET:0.000000;
#SAMPLESTART:11.538655;
#SAMPLELENGTH:10.879121;
#SELECTABLE:YES;
#BPMS:0.000=182.000,
253.000=91.000,
269.000=182.000;
#STOPS:;
#DELAYS:;
#WARPS:;
#TIMESIGNATURES:0.000=7=2,
59.500=17=2,
68.000=4=4,
140.000=11=2,
145.500=12=2,
151.500=6=4,
163.500=11=2,
169.000=12=2,
181.000=16=2,
189.000=4=4,
349.000=7=2,
380.500=26=2,
393.500=3=4;
#TICKCOUNTS:0.000=4;
#COMBOS:0.000=1;
#SPEEDS:0.000=1.000=0.000=0,
248.500=0.926=0.500=0,
249.000=0.857=0.500=0,
249.500=0.794=0.500=0,
250.000=0.735=0.500=0,
250.500=0.680=0.500=0,
251.000=0.630=0.500=0,
251.500=0.583=0.500=0,
252.000=0.540=0.500=0,
252.500=0.500=0.500=0,
265.000=0.545=0.500=0,
265.500=0.595=0.500=0,
266.000=0.648=0.500=0,
266.500=0.707=0.500=0,
267.000=0.771=0.500=0,
267.500=0.841=0.500=0,
268.000=0.917=0.500=0,
268.500=1.000=0.500=0;
#SCROLLS:0.000=1.000,
253.000=2.000,
269.000=1.000;
#FAKES:;
#LABELS:0.000=Song Start;
#BGCHANGES:-0.600=[Voiceless Week] - Lorikeet.avi=1.000=1=0=1===CrossFade==,
396.500=[Voiceless Week] - Lorikeet-bg.png=1.000=0=0=1===FadeRight==,
99999=-nosongbg-=1.000=0=0=0 // don't automatically add -songbackground-
;
#KEYSOUNDS:;
#ATTACKS:
;

//---------------dance-single - ----------------
#NOTEDATA:;
#CHARTNAME:C 02 X 03;
#STEPSTYPE:dance-single;
#DESCRIPTION:;
#CHARTSTYLE:;
#DIFFICULTY:Beginner;
#METER:2;
#RADARVALUES:0.098035,0.179545,0.051103,0.153309,0.000000,94.000000,87.000000,7.000000,21.000000,0.000000,0.000000,0.000000,0.000000,0.000000,0.098035,0.179545,0.051103,0.153309,0.000000,94.000000,87.000000,7.000000,21.000000,0.000000,0.000000,0.000000,0.000000,0.000000;
#CREDIT:vincentw;
#NOTES:
// measure 0
0000
0000
0000
0000
,  // measure 1
0000
0000
0000
0000
,  // measure 2
0000
0000
0000
0000
,  // measure 3
0000
0000
0000
0000
,  // measure 4
0000
0000
0000
0000
,  // measure 5
0000
0000
0000
0000
,  // measure 6
0000
0000
0000
0000
,  // measure 7
0000
0000
0000
0000
,  // measure 8
0000
0000
0000
2000
,  // measure 9
0000
0000
0000
0000
0000
3000
0000
0000
,  // measure 10
0000
0000
0002
0000
,  // measure 11
0000
0000
0000
0003
0000
0000
0000
0000
,  // measure 12
0000
0200
0000
0000
,  // measure 13
0000
0300
0000
0000
0000
0000
0000
0000
,  // measure 14
0010
0000
0000
0000
0000
0000
0000
0020
,  // measure 15
0000
0000
0000
0000
,  // measure 16
0000
0000
0030
0000
,  // measure 17
1000
0000
0000
0000
,  // measure 18
1000
0000
0000
0000
,  // measure 19
1001
0000
0000
0000
,  // measure 20
0001
0000
0000
0000
,  // measure 21
0010
0000
0000
0000
,  // measure 22
0010
0000
0000
0000
,  // measure 23
0100
0000
0000
0000
,  // measure 24
0100
0000
0000
0000
,  // measure 25
1000
0000
0000
0000
,  // measure 26
1000
0000
0000
0000
,  // measure 27
0010
0000
0010
0000
,  // measure 28
0010
0000
0000
0000
0000
0000
0000
0100
,  // measure 29
0000
0000
0000
0100
0000
0000
0000
0100
,  // measure 30
0000
0000
0000
0000
0000
0000
0000
0001
,  // measure 31
0000
0000
0000
0000
,  // measure 32
1000
0000
0000
0000
0000
0000
0000
0001
,  // measure 33
0000
0000
0000
0000
0000
0000
0000
1001
,  // measure 34
0000
0000
0000
0000
,  // measure 35
0002
0000
0000
0003
,  // measure 36
0000
0000
0000
2000
0000
0000
0000
0000
,  // measure 37
0000
3000
0000
0000
0000
0000
0000
0010
,  // measure 38
0000
0000
0000
0000
0000
0010
0000
0000
,  // measure 39
0000
0000
0000
0100
0000
0000
0000
0000
,  // measure 40
0000
0100
0000
0000
0000
0000
0000
0002
,  // measure 41
0000
0000
0000
0000
0000
0003
0000
0000
,  // measure 42
0000
2000
0000
0000
,  // measure 43
3000
0000
0000
0100
,  // measure 44
0000
0000
0100
0000
,  // measure 45
0000
0020
0000
0000
,  // measure 46
0030
0000
0000
0010
,  // measure 47
0000
0110
0000
0000
,  // measure 48
0000
0100
0000
0000
,  // measure 49
0000
1000
0000
0000
0000
0000
0000
0000
,  // measure 50
0000
0000
0000
0000
,  // measure 51
0000
0110
0000
0000
0000
0000
0000
0000
,  // measure 52
0000
1000
0000
0000
,  // measure 53
0000
0002
0000
0000
0000
0000
0000
0000
,  // measure 54
0000
0003
0000
0000
,  // measure 55
0000
1001
0000
0000
0000
0000
0000
0000
,  // measure 56
0000
0100
0000
0000
0000
0000
0000
0000
,  // measure 57
0000
0220
0000
0000
0000
0000
0000
0000
,  // measure 58
0000
0330
0000
0000
,  // measure 59
0000
0001
0000
0000
0000
0000
0000
0000
,  // measure 60
0000
1000
0000
0000
0000
0000
0000
0000
,  // measure 61
0000
0200
0000
0000
0000
0000
0000
0300
,  // measure 62
0000
0020
0000
0000
0000
0000
0000
0030
,  // measure 63
0000
0001
0000
1000
,  // measure 64
0000
0001
0000
1000
,  // measure 65
0000
0010
0000
0100
,  // measure 66
0000
0020
0000
0000
,  // measure 67
0030
0100
0000
0001
,  // measure 68
0000
0100
0000
0000
,  // measure 69
0000
0001
0000
0010
,  // measure 70
0000
0001
0000
0000
,  // measure 71
0000
1000
0000
0100
,  // measure 72
0000
1000
0000
0000
,  // measure 73
0000
0010
0000
1000
,  // measure 74
0000
0010
0000
0000
,  // measure 75
0000
2000
0000
0000
,  // measure 76
0000
0000
0000
0000
,  // measure 77
0000
0000
0000
0000
,  // measure 78
0000
0000
0000
0000
,  // measure 79
3000
0001
0000
0000
,  // measure 80
0000
0010
0000
0000
,  // measure 81
0000
0001
0000
0010
,  // measure 82
0000
0001
0000
0000
,  // measure 83
0000
1000
0000
0001
,  // measure 84
0000
1000
0000
0000
,  // measure 85
0000
0010
0000
0100
,  // measure 86
0000
0010
0000
0000
,  // measure 87
0000
2000
0000
0000
,  // measure 88
0000
0000
0000
3000
0000
0000
0000
0000
,  // measure 89
1002
0000
0000
0000
0000
0000
0000
0003
,  // measure 90
0000
0000
0000
0200
,  // measure 91
0000
0000
0000
0000
0000
0300
0000
0000
,  // measure 92
0000
0000
0020
0000
,  // measure 93
0000
0000
0000
0030
0000
0000
0000
0000
,  // measure 94
0000
1000
0000
0000
,  // measure 95
0000
2000
0000
0000
0000
0000
0000
0000
,  // measure 96
0000
0000
0000
0000
,  // measure 97
0000
0000
0000
0000
,  // measure 98
0000
0000
0000
3000
0000
0000
0000
0000
;

//---------------dance-single - ----------------
#NOTEDATA:;
#CHARTNAME:C 04 X 06;
#STEPSTYPE:dance-single;
#DESCRIPTION:;
#CHARTSTYLE:;
#DIFFICULTY:Easy;
#METER:4;
#RADARVALUES:0.178339,0.287272,0.146009,0.262816,0.000000,171.000000,151.000000,20.000000,36.000000,0.000000,0.000000,0.000000,0.000000,0.000000,0.178339,0.287272,0.146009,0.262816,0.000000,171.000000,151.000000,20.000000,36.000000,0.000000,0.000000,0.000000,0.000000,0.000000;
#CREDIT:vincentw;
#NOTES:
// measure 0
0000
0000
0000
0000
,  // measure 1
0000
0000
0000
0000
,  // measure 2
0000
0000
0000
0000
,  // measure 3
0000
0000
0000
0000
,  // measure 4
0000
0000
0000
0000
,  // measure 5
0000
0000
0000
0000
,  // measure 6
0000
0000
0000
0000
,  // measure 7
0000
0000
0000
0000
,  // measure 8
0000
0000
0000
1001
,  // measure 9
0000
0000
0000
0000
0000
0001
0000
0000
,  // measure 10
0000
0000
0010
0000
,  // measure 11
0000
0000
0000
0100
0000
0000
0000
0000
,  // measure 12
0000
0110
0000
0000
,  // measure 13
0000
1000
0000
0000
0000
0000
0000
0000
,  // measure 14
0010
0000
0000
0000
0000
0000
0000
0200
,  // measure 15
0000
0000
0000
0000
0001
0000
0000
0001
,  // measure 16
0000
0001
0300
0000
,  // measure 17
0101
0000
0000
0000
,  // measure 18
0001
0000
0000
0000
,  // measure 19
1100
0000
1000
0000
,  // measure 20
0100
0000
1000
0000
,  // measure 21
0002
0000
0000
0000
,  // measure 22
0003
0000
0000
0000
,  // measure 23
0010
0000
0100
0000
,  // measure 24
0010
0000
0100
0000
,  // measure 25
0020
0000
0000
0030
,  // measure 26
0011
0000
0000
0001
0000
0001
0000
0000
,  // measure 27
1001
0000
1000
0000
,  // measure 28
0100
0000
0000
0000
1000
0000
0000
1100
,  // measure 29
0000
0000
0000
0001
0000
0000
0000
0101
,  // measure 30
0000
0000
0000
0000
0100
0000
0000
1001
,  // measure 31
0000
0000
0001
0000
,  // measure 32
0010
0000
0000
0000
0100
0000
0000
1000
,  // measure 33
0000
0000
0000
0000
0001
0000
0000
1001
,  // measure 34
0000
0000
0000
0000
,  // measure 35
1000
0000
0000
1000
,  // measure 36
0000
0000
0000
0010
0000
0000
0000
0000
,  // measure 37
0000
0010
0000
0100
0000
0010
0000
0200
,  // measure 38
0000
0000
0000
0000
0000
0302
0000
0000
,  // measure 39
0000
0000
0000
0023
0000
0000
0000
0000
,  // measure 40
0000
0032
0000
0000
0000
0000
0000
1003
,  // measure 41
0000
0000
0000
0000
0000
1000
0000
0000
,  // measure 42
0000
0100
0000
0000
,  // measure 43
0100
0000
0000
2000
,  // measure 44
0000
3000
0000
0000
0002
0000
0000
0003
,  // measure 45
0000
0200
0000
0000
,  // measure 46
0000
0000
0000
0310
,  // measure 47
0000
1001
0000
0001
,  // measure 48
0000
0010
0000
0100
,  // measure 49
0000
2000
0000
0000
0000
0000
0000
0000
,  // measure 50
0000
0000
0000
0000
,  // measure 51
0000
3001
0000
0000
0000
0000
0100
0000
,  // measure 52
0000
0010
0000
1000
,  // measure 53
0000
2000
0000
0000
0000
0000
0000
0000
,  // measure 54
0000
0000
0000
0000
0000
3000
0000
0000
,  // measure 55
0000
0101
0000
0000
0000
0000
0001
0000
,  // measure 56
0000
1001
0000
0000
0000
0000
1000
0000
,  // measure 57
0000
0020
0000
0000
0000
0000
0000
0000
,  // measure 58
0000
0000
0000
0000
0000
0030
0000
0000
,  // measure 59
0000
1100
0000
0000
0000
0000
0100
0000
,  // measure 60
0000
0110
0000
0000
0000
0000
0010
0000
,  // measure 61
0000
0022
0000
0000
0000
0000
0000
0000
,  // measure 62
0030
2000
0000
0000
0000
0000
0000
0000
,  // measure 63
0000
3003
1000
0000
0010
0000
1000
0000
,  // measure 64
0010
0200
0000
0302
,  // measure 65
0000
1003
0100
1000
,  // measure 66
0100
0020
0000
0032
,  // measure 67
0000
0003
1000
0000
0000
0000
0010
0000
,  // measure 68
0000
0100
0000
0001
,  // measure 69
0000
2000
0000
0000
,  // measure 70
0000
3001
0100
0001
,  // measure 71
0100
0001
0000
0010
,  // measure 72
0000
0100
0000
1000
,  // measure 73
0000
2200
0000
0000
,  // measure 74
3300
0022
0000
0000
0000
0000
0000
0000
,  // measure 75
0033
0000
0001
0000
,  // measure 76
0001
0000
1000
0000
,  // measure 77
1000
0000
0010
0000
,  // measure 78
0100
0000
0010
0000
,  // measure 79
0100
0000
0001
0000
,  // measure 80
0010
0000
0100
0000
,  // measure 81
1000
0000
0001
0000
,  // measure 82
0100
0000
0010
0000
,  // measure 83
0000
1001
0000
0000
,  // measure 84
1000
0010
1000
0000
,  // measure 85
0001
0010
0001
0000
,  // measure 86
1000
0100
1000
0000
,  // measure 87
0001
0000
0010
0000
0000
1000
0000
0000
,  // measure 88
0010
0000
0000
0001
0000
0000
1000
0000
,  // measure 89
2001
0000
0000
0000
0000
0000
0000
3002
,  // measure 90
0000
0000
0000
0020
,  // measure 91
0000
0000
0030
0000
0000
2000
0000
0000
,  // measure 92
0000
3000
0000
0000
0203
0000
0000
0000
,  // measure 93
0000
0000
0000
0302
0000
0000
0000
0000
,  // measure 94
0000
2003
0000
0000
,  // measure 95
0000
3020
0000
0000
0000
0000
2000
0000
,  // measure 96
0000
3000
0000
0000
0200
0000
0000
0300
,  // measure 97
0000
0000
0002
0000
0000
0003
0000
0000
,  // measure 98
0100
0000
0000
0130
0000
0000
0000
0000
;

//---------------dance-single - ----------------
#NOTEDATA:;
#CHARTNAME:C 07 X 10;
#STEPSTYPE:dance-single;
#DESCRIPTION:;
#CHARTSTYLE:;
#DIFFICULTY:Medium;
#METER:7;
#RADARVALUES:0.399439,0.502727,0.357722,0.160610,0.065704,383.000000,334.000000,49.000000,22.000000,0.000000,0.000000,0.000000,0.000000,0.000000,0.399439,0.502727,0.357722,0.160610,0.065704,383.000000,334.000000,49.000000,22.000000,0.000000,0.000000,0.000000,0.000000,0.000000;
#CREDIT:vincentw;
#NOTES:
// measure 0
0000
0000
0000
0000
,  // measure 1
0000
0000
0000
0000
,  // measure 2
0000
0000
0000
0000
,  // measure 3
0000
0000
0000
0000
,  // measure 4
0000
0000
0000
0000
,  // measure 5
0000
0000
0000
0000
,  // measure 6
0000
0000
0000
0000
,  // measure 7
0000
0000
0000
0000
,  // measure 8
0000
0000
0000
1001
,  // measure 9
0000
0000
0001
0000
0000
0100
0000
0100
,  // measure 10
0000
0010
1000
0000
,  // measure 11
1000
0000
0000
0100
0000
0100
0000
0000
,  // measure 12
0010
0001
0000
1000
,  // measure 13
0000
0010
0000
0010
0000
0000
1000
0000
,  // measure 14
0001
0000
0000
0000
0010
0000
0000
0001
,  // measure 15
0000
0001
0000
0000
0011
0000
0000
1100
,  // measure 16
0000
0000
0022
0000
0030
0003
0000
0000
,  // measure 17
1000
0000
0001
0000
0000
0001
0000
0000
,  // measure 18
1000
0000
0001
0000
0000
0001
0000
0000
,  // measure 19
0100
0000
0010
0100
0000
0010
0000
0000
,  // measure 20
0100
0000
0010
1000
0000
0010
0000
0000
,  // measure 21
1000
0000
0010
1000
0000
0010
0000
0000
,  // measure 22
0100
0000
0001
0010
0000
0001
0000
0000
,  // measure 23
0010
0000
0100
0010
0000
0100
0000
0000
,  // measure 24
0010
0000
0001
1000
0000
0001
0000
0000
,  // measure 25
1000
0000
0010
0100
0000
0001
0000
0000
,  // measure 26
0011
0000
0000
0110
0000
1100
0000
0000
,  // measure 27
1000
0000
0010
0100
0000
0010
0000
0010
,  // measure 28
1000
0000
0100
1000
0000
0001
0000
1010
,  // measure 29
0000
1000
0000
1001
0000
0001
0000
0101
,  // measure 30
0000
0100
0001
0000
0100
0001
0000
1100
,  // measure 31
0000
1000
0010
0100
,  // measure 32
0001
0000
0010
0000
0100
0000
1000
0001
,  // measure 33
0000
0000
1000
0000
0000
0100
0000
0000
0010
0000
0000
0001
0000
0000
2002
0000
,  // measure 34
0000
0000
0000
3003
0000
0000
0000
0000
,  // measure 35
1000
0000
0000
0010
0000
0000
0100
0000
,  // measure 36
0000
0001
0000
0001
0000
0000
0010
0000
,  // measure 37
0000
0100
0000
1000
0000
0001
0000
1002
,  // measure 38
0000
0000
0000
0000
0000
0203
0000
0000
,  // measure 39
0000
0010
0000
0320
0000
1000
0000
1000
,  // measure 40
0000
0230
0000
0001
0000
0301
0000
0100
,  // measure 41
0000
0000
0010
0000
0000
1000
0000
0000
,  // measure 42
0001
0000
0001
0000
0000
0010
0000
0000
,  // measure 43
0100
0000
0000
1000
0000
0000
0100
0000
0000
1000
0000
0000
1100
0000
0000
0000
,  // measure 44
0000
1100
0000
0000
0011
0000
0000
0011
,  // measure 45
0000
0000
2000
0000
0000
0002
0000
0000
,  // measure 46
0003
0000
0000
0000
0000
0000
0001
0000
0000
0001
0000
0000
3001
0000
0000
0000
,  // measure 47
0000
0110
0001
0010
,  // measure 48
0100
1000
0001
1000
,  // measure 49
0000
1001
0000
0000
0001
0000
0001
0000
,  // measure 50
0001
1000
0001
1000
,  // measure 51
0000
0110
0000
0000
0010
0000
1000
0000
,  // measure 52
0001
0010
0001
1000
,  // measure 53
0000
1001
0000
0000
1001
0000
0000
0101
,  // measure 54
0000
0000
1001
0000
0000
1100
0000
0000
,  // measure 55
1000
0200
0000
0000
0010
0000
0310
0000
,  // measure 56
0001
0200
0000
0000
0010
0000
0310
0000
,  // measure 57
0000
0110
0000
0000
0110
0000
0000
1010
,  // measure 58
0000
0000
0110
0000
0000
0101
0000
0000
,  // measure 59
0100
0002
0000
0000
1000
0000
1003
0000
,  // measure 60
0100
2000
0000
0000
0001
0000
3001
0000
,  // measure 61
1000
0200
0000
0000
0001
0000
0310
0000
,  // measure 62
0001
0200
0000
0000
0000
0000
0000
0000
,  // measure 63
0000
0000
0000
0000
0301
0000
0000
0000
0000
0000
0000
0100
0000
0001
0100
0001
,  // measure 64
0000
1000
0100
0000
1000
0000
0000
0000
0000
0000
0000
0010
0000
0100
0001
0010
,  // measure 65
0000
0001
0000
0000
1000
0000
0000
0000
0000
0000
0000
0010
0000
1000
0001
0010
,  // measure 66
0000
0000
0000
0000
0002
0000
0000
0023
0000
0000
2030
0000
0000
3200
0000
0000
,  // measure 67
0301
1000
0001
0000
0010
0000
0100
0000
,  // measure 68
0010
0001
0100
0010
,  // measure 69
1000
0100
0010
0100
,  // measure 70
1000
0010
1000
0001
,  // measure 71
0100
0101
0001
0010
,  // measure 72
0100
0010
0001
0100
,  // measure 73
0010
0110
0100
0001
,  // measure 74
0000
1010
0000
0000
0100
0000
0100
0000
,  // measure 75
0001
1000
0010
0100
,  // measure 76
0001
0000
1000
0000
0100
0000
0010
0001
,  // measure 77
0010
0001
0100
0010
,  // measure 78
1000
0000
0001
0000
0010
0000
0100
1000
,  // measure 79
0100
1100
1000
0010
,  // measure 80
1000
0000
0001
0000
0010
0000
0001
0100
,  // measure 81
0001
1000
0100
1000
,  // measure 82
0010
0000
1000
0000
0001
0000
0010
0001
,  // measure 83
0010
0100
0010
0000
0001
0000
1000
0100
,  // measure 84
1000
0000
0001
0000
0100
0000
1000
0100
,  // measure 85
0001
0000
1000
0000
0010
0000
0100
0001
,  // measure 86
0100
0000
0001
0000
0010
0000
1000
0010
,  // measure 87
0001
0000
0011
0000
0000
1010
0000
0000
,  // measure 88
1100
0000
0000
0101
0000
0000
0110
0000
,  // measure 89
1002
0000
0000
0000
0100
0000
0000
0023
,  // measure 90
0000
0001
0000
0000
0031
0000
1000
0000
,  // measure 91
0000
1000
0010
0000
0100
0010
0000
0010
,  // measure 92
0000
0100
0001
0000
0101
0000
0000
1000
,  // measure 93
0100
0000
1000
0001
0000
0001
0000
0010
,  // measure 94
0001
0000
1000
0000
0000
1000
0010
0100
,  // measure 95
0001
1000
0000
1000
0000
0000
0011
0000
,  // measure 96
0000
0110
0000
0000
1100
0000
0000
0110
,  // measure 97
0000
0000
0101
0000
0000
1001
0000
0000
,  // measure 98
1010
0000
0000
1001
0000
0000
0000
0000
;

//---------------dance-single - ----------------
#NOTEDATA:;
#CHARTNAME:C 12 X 18;
#STEPSTYPE:dance-single;
#DESCRIPTION:;
#CHARTSTYLE:;
#DIFFICULTY:Challenge;
#METER:12;
#RADARVALUES:1.019976,1.400453,0.562134,0.284717,0.985560,978.000000,901.000000,77.000000,39.000000,0.000000,0.000000,0.000000,0.000000,0.000000,1.019976,1.400453,0.562134,0.284717,0.985560,978.000000,901.000000,77.000000,39.000000,0.000000,0.000000,0.000000,0.000000,0.000000;
#CREDIT:vincentw;
#NOTES:
// measure 0
0000
0000
0000
0000
,  // measure 1
0000
0000
0000
0000
,  // measure 2
0000
0000
0000
0000
,  // measure 3
0000
0000
0000
0000
,  // measure 4
0000
0000
0000
0000
,  // measure 5
0000
0000
0000
0000
1000
0000
0100
0000
0000
0000
1000
0010
1000
0000
0001
0000
,  // measure 6
0010
0010
0001
1000
2002
3003
0001
0001
,  // measure 7
0200
0300
0200
0300
0010
1000
0010
1000
0100
0000
1000
0000
0001
0100
0001
0100
,  // measure 8
0010
0000
1000
0100
0010
0001
1000
0000
0001
0100
0010
1000
0002
0000
0003
0000
,  // measure 9
1001
1000
0010
0100
0110
0001
0000
1000
,  // measure 10
1001
0001
0010
0001
0022
0000
0033
0010
,  // measure 11
0100
0100
1000
0001
0000
0101
0000
0010
,  // measure 12
1010
0000
2100
0000
3001
0010
0100
0010
,  // measure 13
0011
0001
0000
1000
1010
0010
0100
0000
,  // measure 14
0202
0000
0000
0000
0303
0000
1000
0000
0001
0010
0001
0010
0001
0000
1010
0000
,  // measure 15
0000
0101
0000
0001
0011
0000
1000
1100
,  // measure 16
0000
0010
0110
0000
1001
1001
0000
0000
,  // measure 17
1000
0000
1000
0000
0010
0000
1000
0000
0001
0100
0010
0000
1000
0000
0010
0000
,  // measure 18
1000
0000
1000
0000
0100
0000
1000
0000
0001
0010
0100
0000
1000
0000
0100
0000
,  // measure 19
0010
0000
0001
0100
0000
0100
0001
0000
0010
0000
1000
0000
0010
0000
0002
0000
,  // measure 20
0000
0103
0010
2000
0000
3010
1000
0001
,  // measure 21
0100
0000
0000
0001
0010
0000
0100
0000
0000
0010
0001
0000
0100
0000
0010
1000
,  // measure 22
0001
1000
0001
0010
0100
0010
0001
1000
0010
0100
0010
1000
0002
0000
0203
0000
,  // measure 23
0310
0000
1000
0000
0100
0000
1000
0000
0001
0000
0000
0100
0000
0001
0010
0100
,  // measure 24
1000
0000
0010
0000
1000
0010
0000
0100
0000
0001
0010
0100
0010
0100
1000
0001
,  // measure 25
1000
0000
0000
0000
0100
0000
0010
0000
0000
0000
0000
0000
0000
0000
0000
0100
0000
0000
0010
0000
0000
0000
0000
0000
0001
0000
0000
0000
0000
0000
0100
0000
0000
0000
0000
0000
0010
0000
0000
0000
0000
0000
0001
0000
0000
0000
0000
0000
,  // measure 26
0011
0000
0010
0000
1000
0000
1010
0000
0000
0000
0202
0000
0000
0303
0001
0010
,  // measure 27
0100
0000
1000
0000
1000
0001
0000
0100
0000
0001
0010
0100
0010
0001
1000
0100
,  // measure 28
1000
0000
0010
0000
0100
0001
0000
0100
0000
0000
0001
0010
0100
1000
0001
0000
,  // measure 29
0000
0001
0100
0011
0000
1010
0000
0110
,  // measure 30
0000
0001
0010
0100
1000
0001
0100
0010
1000
0001
0010
0001
0100
0010
0100
0000
,  // measure 31
0000
0000
0001
0010
0100
0010
0001
0000
0010
0000
0001
0000
0100
0000
0001
0000
,  // measure 32
1000
0100
0010
0000
0100
0000
1000
0000
0001
0100
0010
0000
0100
0000
0110
0000
,  // measure 33
0000
0000
1010
0000
0000
1100
0000
0000
0101
0000
0000
0011
0000
0000
1010
0000
,  // measure 34
0000
1000
0010
0000
1000
0100
0010
0000
0001
0010
0100
0001
0100
0010
0001
1000
,  // measure 35
0010
0000
0100
0000
0001
0000
0010
0100
1000
0100
0010
0001
2000
3000
2000
3000
,  // measure 36
2000
3000
0001
0000
0100
0000
0001
0000
0010
0000
0010
0001
0100
0000
0010
1000
,  // measure 37
0001
0010
0001
0000
1000
0100
1000
0000
0001
0100
0001
0100
0010
1000
0020
0000
,  // measure 38
0000
2030
0000
3200
0000
0302
0000
0103
,  // measure 39
1000
0010
0100
0001
0010
0100
1000
0001
,  // measure 40
0100
0000
1000
0000
0001
0000
0010
0000
1000
0000
0001
0100
0010
1000
0001
0000
,  // measure 41
0010
0000
0001
0100
0010
0100
0001
1000
0100
0010
0002
0000
1000
0003
0001
0001
,  // measure 42
1000
0010
0100
0010
1000
0001
1000
0001
0100
0001
0010
0000
0200
0000
1300
0000
,  // measure 43
0101
0000
0000
1100
0000
0000
1010
0000
0000
0011
0000
0000
0001
0100
0010
0100
,  // measure 44
0010
0100
1000
0100
0010
0100
0010
0100
0001
0010
0100
0010
0100
0010
1000
0010
,  // measure 45
0100
0010
0100
0010
0002
0000
0000
0000
1003
0100
2000
0000
0000
0000
3010
0000
,  // measure 46
0100
0000
0010
1000
0001
0000
1000
0100
0000
0001
0000
0100
1000
0000
0010
0000
,  // measure 47
0000
0100
0000
0000
0110
0000
0000
0000
0001
0000
0010
0100
1000
0000
0010
0000
,  // measure 48
0100
0010
1000
0100
0010
0001
1000
1000
,  // measure 49
1000
0000
1001
0000
0000
0001
0010
0100
0010
0001
0100
0010
0100
0001
1000
0100
,  // measure 50
1000
0001
1000
0010
1000
0100
0010
0100
0001
0100
0010
0100
1000
0001
0100
0000
,  // measure 51
0001
0000
0101
0000
0000
0000
0100
0010
0100
0000
0010
1000
0100
0000
0010
0000
,  // measure 52
0001
0000
0100
0000
1000
0000
0100
0000
0001
0000
0010
0000
0200
0000
0000
2000
,  // measure 53
0000
3300
1100
0000
0000
0000
0010
0000
0011
0000
0000
0000
0001
0010
1000
0000
,  // measure 54
0001
0000
1000
0010
0001
0000
1000
0000
0001
0100
1000
0000
0001
0000
0010
0000
,  // measure 55
1000
0000
1010
0000
0000
0000
0001
0000
0100
0000
0001
0010
0100
0000
1000
0000
,  // measure 56
0100
0000
1100
0000
0000
0000
1000
0000
0010
0000
1000
0100
0010
0000
0001
0000
,  // measure 57
0010
0011
0000
1000
1010
0001
0010
1100
,  // measure 58
1000
0010
0101
0100
0010
1001
1000
0010
,  // measure 59
0100
0001
0010
0000
0000
0000
0001
0000
0010
0000
1000
0000
0001
0000
0100
0000
,  // measure 60
1000
0000
1100
0000
0000
0000
0100
1000
0010
0000
0001
0000
1000
0000
0100
0000
,  // measure 61
0001
0101
0000
0100
0010
1000
0001
0010
,  // measure 62
0100
0000
0110
0000
0000
0000
0010
0001
1000
0010
0100
0001
1000
0100
1000
0010
,  // measure 63
0100
0001
0010
0100
1000
0100
1000
0010
0100
0010
0100
0100
0001
0100
0001
0010
,  // measure 64
0001
0000
0001
0000
0100
0000
0010
0000
1000
0000
0100
0000
0010
0000
0100
0000
1000
0000
0001
0000
1000
0000
0010
0100
0010
0000
0100
0000
0001
0000
0010
0001
,  // measure 65
0010
0001
1000
1000
0100
0010
0001
1000
0010
0100
0001
0001
0010
0100
0001
0100
,  // measure 66
0000
0000
0000
0000
0000
0000
0000
0000
1000
0000
0010
1000
0010
0100
0001
0000
0010
0001
0010
0100
1000
0000
0001
1000
0001
0100
0001
0000
1000
0001
1000
0100
,  // measure 67
1000
0100
0010
0001
0100
0000
0001
0000
0100
0000
0000
0000
0001
0000
0000
0000
0010
0000
0000
0000
0100
0000
1000
0000
0100
0000
0000
0000
1000
0000
0000
0000
,  // measure 68
1000
0000
0010
0000
0100
0000
0001
0000
0010
0000
0001
0000
0100
0010
0100
0000
,  // measure 69
1000
0000
0100
0000
0001
0000
0010
0000
0100
0000
1000
0001
0100
0000
0001
0000
,  // measure 70
1000
0000
0010
0000
1000
0000
0100
0000
0001
0000
1000
0000
0001
0100
0000
1000
,  // measure 71
0001
0000
1000
0100
1000
0000
0010
0000
0001
0000
1000
0100
0010
0000
1000
0000
,  // measure 72
0001
0000
0010
0000
0100
0000
0001
0000
1000
0000
0010
0000
0100
0010
0001
0000
,  // measure 73
1000
0000
0010
0000
1010
0000
1000
0000
1000
0000
0100
1000
0010
0100
1000
0100
,  // measure 74
0001
0000
0202
0000
0000
0003
0301
0000
0010
0000
1000
0000
0100
0000
1000
0000
,  // measure 75
0010
0001
0010
0001
1000
0000
0010
0000
1000
0001
0010
0100
1000
0000
0010
0000
,  // measure 76
0100
0000
0001
0000
1000
0000
1000
0100
0000
0100
0001
0000
1000
0010
0100
0010
,  // measure 77
0001
0010
0100
1000
0001
0000
1000
0100
1000
0001
0010
0001
0100
0001
0010
0100
,  // measure 78
1000
0001
0200
0000
0000
0302
0000
0000
0023
0000
0000
0230
0000
0000
2300
0000
,  // measure 79
0000
3020
0000
0000
1030
0010
0100
0010
0100
0001
0010
0001
0010
0100
0010
0001
,  // measure 80
0100
0010
1000
0001
1000
0100
0010
0000
0001
0100
0010
0000
1000
0010
0100
0000
,  // measure 81
0001
0000
0000
0000
0000
0000
0010
0000
0000
0100
0000
0000
0001
0000
0000
0000
0100
0000
0000
0000
1000
0000
0000
0000
0001
0000
0000
0000
0100
0000
0000
0000
1000
0000
0000
0000
0001
0000
0000
0000
0010
0000
0000
0000
1000
0000
0000
0000
,  // measure 82
0001
0000
0000
0000
0010
0000
0000
0000
1000
0000
0000
0000
0000
0000
0000
0000
0000
0000
0010
0000
0000
0010
0000
0000
0000
0000
0000
0001
0000
0000
0000
0000
0000
0001
0000
0000
1000
0000
0000
0100
0000
0000
0010
0000
0000
0001
0000
0000
,  // measure 83
0100
0010
0100
0001
1000
0010
0100
0010
1000
0100
0010
0001
0100
0001
0010
0100
,  // measure 84
1000
0010
1000
0001
0100
0010
1000
0100
0000
0010
0001
0000
1000
0010
0100
0010
,  // measure 85
0001
0010
1000
0001
0100
1000
0100
0010
0100
0001
0010
1000
,  // measure 86
0010
0000
0000
0000
0100
0000
0000
0000
0010
0000
0000
0000
0002
0000
0000
0000
0000
0000
0000
0000
1003
0000
0000
0000
0001
0000
0000
0010
0000
0000
0100
0000
0000
0010
0000
0000
0001
0000
0000
0100
0000
0000
0010
0000
0000
0100
0000
0000
,  // measure 87
0001
1000
0110
0100
0001
1010
1000
0100
,  // measure 88
0011
0001
1000
0110
0001
0010
1100
1010
,  // measure 89
0201
0000
0301
0010
0100
1000
1100
0001
,  // measure 90
0000
0000
0001
0000
0101
0000
0100
0000
0010
0000
0000
0000
1010
0000
0000
1000
,  // measure 91
0000
0001
0010
0010
0001
0011
0000
0100
,  // measure 92
0010
0100
0110
0000
1001
0000
1100
1000
,  // measure 93
0010
0100
0110
0001
0000
0001
0101
0100
,  // measure 94
0010
0000
0000
0000
1010
0000
0000
1000
0000
0000
0001
0000
0100
0000
0010
1000
,  // measure 95
0010
0100
0010
0000
0000
0000
0101
0000
0000
0000
0001
0010
1000
0000
0010
0000
,  // measure 96
0001
1100
1000
0001
0110
1000
0100
0011
,  // measure 97
1000
0010
0101
0100
0010
1001
0001
0100
,  // measure 98
1010
0001
0110
1001
0000
0000
0000
0000
;

//---------------dance-single - ----------------
#NOTEDATA:;
#CHARTNAME:C 10 X 15;
#STEPSTYPE:dance-single;
#DESCRIPTION:;
#CHARTSTYLE:;
#DIFFICULTY:Hard;
#METER:10;
#RADARVALUES:0.724830,0.861817,0.394224,0.306619,0.361372,695.000000,641.000000,54.000000,42.000000,0.000000,0.000000,0.000000,0.000000,0.000000,0.724830,0.861817,0.394224,0.306619,0.361372,695.000000,641.000000,54.000000,42.000000,0.000000,0.000000,0.000000,0.000000,0.000000;
#CREDIT:vincentw;
#NOTES:
// measure 0
0000
0000
0000
0000
,  // measure 1
0000
0000
0000
0000
,  // measure 2
0000
0000
0000
0000
,  // measure 3
0000
0000
0000
0000
,  // measure 4
0000
0000
0000
0000
,  // measure 5
0000
0000
0000
0000
,  // measure 6
0000
0000
0000
0000
,  // measure 7
0000
0000
0000
0000
,  // measure 8
0000
0000
0000
2002
,  // measure 9
3003
1000
0100
0010
0001
0100
0000
0100
,  // measure 10
0000
0010
1000
0000
2020
0000
3030
0001
,  // measure 11
0001
0100
0100
0010
0000
0010
0000
1000
,  // measure 12
1000
0000
0220
0000
0330
0001
0100
0010
,  // measure 13
1000
0100
0000
0100
0000
0010
0001
0000
,  // measure 14
0022
0000
0033
1000
1000
0100
0100
1100
,  // measure 15
0000
1100
0000
0001
1001
0000
0010
0110
,  // measure 16
0000
0100
0101
0000
1000
1000
0000
0000
,  // measure 17
0001
0001
0100
0001
0000
1000
0010
1000
,  // measure 18
0100
0100
1000
0100
0000
0010
0001
0010
,  // measure 19
0001
0000
0100
0000
1000
0000
0100
0000
0000
0001
0100
0000
0010
0000
1000
0000
,  // measure 20
0001
0000
0010
0000
1000
0000
0010
0000
0000
0001
0010
0000
0100
0000
1000
0000
,  // measure 21
0010
0000
1000
0000
0100
0000
0001
0000
0000
1000
0010
0000
0001
0000
1000
0000
,  // measure 22
0100
0000
1000
0000
0010
0000
0001
0000
0000
1000
0100
0000
0001
0000
1000
0000
,  // measure 23
0010
0000
0100
0000
0001
0000
0010
0000
0000
0100
1000
0000
0010
0000
0100
0001
,  // measure 24
0100
0000
0001
0000
0010
0000
0100
0000
0000
1000
0001
0000
0100
0000
0010
0100
,  // measure 25
0010
0000
1000
0000
0100
0000
0001
0000
0000
1000
0001
0000
0100
1000
0100
1000
,  // measure 26
0100
0000
0000
1000
0010
0000
0101
0000
0000
0000
1001
0000
0000
0000
0010
0001
,  // measure 27
0010
0000
0010
0000
0100
0000
0010
0000
0000
0001
1000
0000
0010
0100
0010
0100
,  // measure 28
0001
0000
0010
0000
0001
0000
1000
0000
0000
0100
1000
0000
0010
1000
0010
0000
,  // measure 29
0000
1010
1000
1100
0000
0101
0000
0011
,  // measure 30
0000
0010
0110
0000
1000
1001
0000
0101
,  // measure 31
0000
0000
0100
0000
0001
0000
0010
0000
0000
0100
0010
0000
0001
0000
0100
0000
,  // measure 32
0010
0000
1000
0000
0100
0000
0010
0000
0000
0100
1000
0000
0010
0100
0020
0000
,  // measure 33
0000
0000
2030
0000
0000
3200
0000
0000
0302
0000
0000
0013
0000
0000
2020
0000
,  // measure 34
0000
0000
3030
0202
0000
0000
0303
0000
,  // measure 35
1000
0100
1000
0001
0010
0001
1000
0010
,  // measure 36
0001
0010
1000
0001
0010
0001
1000
0010
,  // measure 37
1000
0001
0010
0100
0010
1000
0010
0001
,  // measure 38
0000
0100
0000
0100
0000
0010
1000
0100
,  // measure 39
0000
0100
0000
1000
0000
0001
0000
0001
,  // measure 40
0000
0000
1000
0000
0010
0000
0100
0000
0001
0000
1000
0100
0010
0001
1000
0000
,  // measure 41
0010
0100
0001
0010
0100
1000
0100
0001
,  // measure 42
0100
1000
0001
0100
0010
1000
0100
0010
,  // measure 43
0110
0000
0000
1001
0000
0000
0110
0000
0000
1001
0000
0000
1100
0000
0000
0000
,  // measure 44
1000
0010
1000
0000
0000
0000
0010
0001
0010
0000
0000
0000
0001
0100
0001
0000
,  // measure 45
0001
0000
0100
1000
0200
0000
0000
0000
1300
0010
2000
0000
0000
0000
3100
0000
,  // measure 46
0001
0000
1000
0010
0100
0000
1000
0001
0000
0001
0000
0001
1000
0000
0010
0000
,  // measure 47
0000
0100
0000
0000
0120
0000
0000
0000
0130
0000
0010
1000
0100
0000
1000
0000
,  // measure 48
0001
0010
0001
0100
1000
0100
0020
0000
,  // measure 49
0000
1030
0000
0001
1000
0010
0100
1000
,  // measure 50
0001
0000
0010
0000
0100
0001
0100
0000
0010
1000
0010
0000
1000
0000
0100
0000
,  // measure 51
0010
0000
0012
0000
0000
0000
0000
0000
0013
0000
0001
0100
0010
0000
1000
0000
,  // measure 52
0100
0000
0010
0000
1000
0000
0010
0000
0001
0000
0100
0000
0010
0000
0000
1000
,  // measure 53
0000
0101
0000
0000
0011
0000
0010
0110
,  // measure 54
0000
0100
1100
0000
1000
1010
0000
0001
,  // measure 55
1000
1001
0000
0001
0100
1000
0001
1000
,  // measure 56
0100
0002
0000
1003
0100
0001
1000
0001
,  // measure 57
0100
0110
0000
0010
0011
0000
0001
0101
,  // measure 58
0000
0100
1100
0000
1000
1010
0000
0010
,  // measure 59
0001
1000
0001
0000
0000
0000
1000
0000
0010
0000
0001
0000
1000
0000
0001
0000
,  // measure 60
0010
2000
0000
3001
0010
1000
0001
1000
,  // measure 61
0010
0001
0000
1000
0010
0001
0100
0001
,  // measure 62
0010
1000
0000
0001
0010
1000
0100
1000
,  // measure 63
0010
0000
0001
0000
1000
0000
0000
0200
0000
1300
0010
0200
0000
0301
0010
0100
,  // measure 64
0010
0001
0010
0002
0000
2003
0000
0000
0000
0000
3010
0200
0000
0000
0000
0000
,  // measure 65
0000
0000
0302
0000
2003
0000
0000
3001
0000
0000
0010
0200
0000
0000
0000
2300
,  // measure 66
0000
0000
3010
0200
0000
0000
0000
0000
0000
0301
0010
0200
0000
0000
0000
0000
,  // measure 67
0000
1300
0010
0100
0001
0000
0000
0000
0001
0000
0000
1000
0100
0000
1000
0000
,  // measure 68
0010
0200
0000
0301
0010
0100
1000
0100
,  // measure 69
0010
0002
0000
0000
0000
0200
0300
0200
,  // measure 70
0303
0000
0000
0001
0000
0000
1000
0000
0100
0000
1000
0000
0001
0000
0100
0000
0001
0000
1000
0000
0010
0000
1000
0000
,  // measure 71
0001
0020
0001
0000
0100
0000
1000
0000
,  // measure 72
0100
0000
0000
0000
0031
0000
0000
0000
1000
0100
0020
0000
0000
0000
0032
0000
,  // measure 73
0000
0203
0010
0000
1000
0000
0010
0000
,  // measure 74
0001
0301
0000
1000
0010
0100
0000
0001
,  // measure 75
0010
0001
0010
0000
0100
0000
0000
0000
1000
0000
0000
1000
0100
0000
0100
0000
,  // measure 76
1000
0000
0000
0000
0001
0000
0001
0000
0010
0000
0100
0000
1000
0010
1000
0000
,  // measure 77
0001
0000
0100
0000
1000
0000
0100
0000
0010
0000
1000
0100
1000
0000
0010
0000
,  // measure 78
0100
0000
0001
0000
1000
0000
0100
0000
1000
0000
0001
0000
0100
0010
0100
0000
,  // measure 79
0001
0000
0010
0100
1000
0000
0000
0000
1001
0000
0000
0001
0100
0000
0100
0000
,  // measure 80
0010
0000
1000
0000
0001
0000
0010
0000
1000
0000
0010
0000
0001
0100
0010
0000
,  // measure 81
1000
0000
0010
0000
0100
0000
0001
0000
0010
0000
0100
0010
0001
0000
1000
0000
,  // measure 82
0010
0000
0100
0000
0010
0000
0100
0000
0001
0000
0100
0000
0010
1000
0100
0000
,  // measure 83
1000
0001
0100
0000
0101
0000
0000
0000
1010
0000
0000
1000
0100
0000
0010
0000
,  // measure 84
0001
0000
0100
0000
0010
0000
0001
0000
1000
0000
0100
0000
0010
1000
0001
0000
,  // measure 85
1000
0000
0100
0000
1000
0000
0010
0000
0100
0000
0001
0010
0100
0000
1000
0000
,  // measure 86
0001
0000
0010
0000
0100
0000
1000
0000
0010
0000
0001
0000
1000
0100
0001
0000
,  // measure 87
1000
0000
0001
0100
1000
0000
0001
0000
1000
0100
0001
0000
1000
0000
0001
0010
,  // measure 88
1000
0000
0001
0000
1000
0010
0001
0000
1000
0000
0001
0010
0100
1000
0010
0100
,  // measure 89
0001
0000
0000
0000
0101
0000
0000
0100
0010
0000
1000
0000
0100
0000
0001
0000
,  // measure 90
0000
0100
0010
0000
0001
0000
1000
0000
0010
0000
0000
0000
1010
0000
0000
0100
,  // measure 91
0000
0001
0010
0100
1000
0001
0000
0001
,  // measure 92
1000
0000
0100
0000
0010
0000
0000
0000
0011
0000
0000
0000
0001
0000
0100
0001
,  // measure 93
0100
0000
1000
0000
0100
0000
0001
0000
0010
0100
0010
0000
0001
0000
1000
0000
,  // measure 94
0010
0000
0000
0000
1100
0000
0000
1000
0000
0000
0001
0000
0100
0000
0001
0010
,  // measure 95
0100
1000
0001
0000
0000
0000
1001
0000
0000
0000
1000
0010
0100
0000
0000
0000
,  // measure 96
0001
0011
0000
1000
1001
0000
0100
1100
,  // measure 97
0000
1000
1010
0000
0010
0110
0000
0100
,  // measure 98
0101
0000
0110
1001
0000
0000
0000
0000
;
