#TITLE:Like Asian Spirit;
#SUBTITLE:;
#ARTIST:Valunava;
#TITLETRANSLIT:;
#SUBTITLETRANSLIT:;
#ARTISTTRANSLIT:;
#GENRE:;
#CREDIT:mf32892;
#BANNER:[Voiceless Week] - Like Asian Spirit.png;
#BACKGROUND:[Voiceless Week] - Like Asian Spirit-bg.png;
#LYRICSPATH:;
#CDTITLE:cdtitle.png;
#MUSIC:[Voiceless Week] - Like Asian Spirit.ogg;
#OFFSET:-1.202016;
#SAMPLESTART:61.616501;
#SAMPLELENGTH:20.871655;
#SELECTABLE:YES;
#BPMS:0.000000=143.016998
;
#STOPS:
;
#BGCHANGES:;
#KEYSOUNDS:;
#ATTACKS:;

//---------------dance-single - ----------------
#NOTES:
     dance-single:
     :
     Medium:
     7:
     0.404187,0.459860,0.249415,0.070148,0.050663,322.000000,32.000000,9.000000,0.000000,0.000000,0.000000,0.404187,0.459860,0.249415,0.070148,0.050663,322.000000,32.000000,9.000000,0.000000,0.000000,0.000000:
0000
0000
0000
0000
,
0000
0000
0000
0000
,
0000
0000
0000
0000
,
0000
0000
0000
0000
,
1001
1100
1001
0101
,
1000
0100
0010
0001
1000
0100
1000
0000
,
1001
0101
1001
1100
,
0001
0000
1000
0001
0000
0000
0000
0000
1000
0000
0000
0000
0001
0000
0000
0000
,
0101
1100
0101
1100
,
0001
0010
0100
1000
0001
0100
0001
0000
,
0011
1010
0011
1010
,
1000
0000
0001
1000
0000
0000
0000
0000
0001
0000
0000
0000
1000
0000
0000
0000
,
1010
0000
0001
0000
,
1000
0100
1000
0000
,
0001
0000
0010
0000
,
0001
0000
0000
0001
0000
0000
1000
0000
0000
1000
0000
0000
0001
0000
1000
0000
,
0001
0000
0000
0100
0000
0000
0001
0000
,
0001
0100
0010
0000
,
1000
0100
1000
0001
,
1000
0000
0000
0001
0000
0000
1000
0000
0100
0000
0010
0000
0100
0000
0010
0000
,
0001
0000
1000
0000
0001
0100
0001
0000
,
0100
0010
1000
0100
0010
0000
0001
0000
,
1000
0000
0001
0000
1000
0100
1000
0000
,
0001
0000
0000
0001
0000
0000
1000
0000
0000
1000
0000
0000
0001
0000
1000
0000
,
0010
0100
0010
1000
,
0001
0010
0100
1000
0100
0010
0001
0000
,
1000
0001
1000
0001
0000
0010
0100
0000
,
1000
0000
0000
0001
0000
0000
1000
0000
0001
0000
0100
0000
0001
0000
1000
0000
,
0100
0000
0000
1000
0000
0000
1000
0000
0001
0000
0000
0100
0000
0000
0100
0000
,
0010
1000
1100
0101
,
0011
0000
0000
0001
0000
0000
0010
0000
0100
0000
0000
0100
0000
0000
0010
0000
,
0001
1000
1010
0101
,
1001
0000
0000
0000
,
0110
0000
0000
0000
,
1001
0000
0000
0000
,
0110
0010
0100
0010
0100
0010
0100
0000
,
1001
0000
0001
0000
1000
0100
1000
0000
,
1001
0000
0001
0000
0001
0000
0010
0001
,
0010
0000
0010
0100
0000
0100
1000
0001
,
1000
0000
1000
0000
0010
0100
0001
0100
,
0010
0000
1000
0001
0100
0000
0100
0000
,
0010
0000
1000
0001
1000
0000
0100
0000
,
0010
0010
0100
0010
,
0001
0001
1000
0001
,
0100
0000
0101
0000
0010
1000
0001
0000
,
0010
0000
0010
0000
0010
0000
0100
0010
,
0100
0000
1000
0001
1000
0010
0100
0000
,
0110
0000
0010
0000
0100
0010
0100
0010
,
1000
0100
1000
0001
0000
0001
0010
0000
,
0001
0100
0001
1000
0000
1000
0010
0000
,
1000
0100
0010
0001
0000
0001
1000
0000
,
0001
0000
1000
0000
0001
0100
0010
1000
,
0200
0000
0000
0300
,
0020
0000
0000
0030
,
0002
0000
0000
0003
,
2000
0000
0000
3000
,
0002
0000
0000
0100
0000
0003
0000
0000
,
2000
0000
0000
0100
0000
3000
0001
0000
,
0200
0000
0010
0010
,
0302
0000
0000
0003
,
0000
0000
1010
0000
0100
0001
1000
0000
,
0100
0000
0100
0000
0100
0000
0010
0100
,
0010
0000
0001
1000
0001
0100
0010
0000
,
0110
0000
0100
0000
0010
0100
0010
0100
,
0001
0010
0001
1000
0000
1000
0001
0000
,
1000
0010
1000
0001
0000
0001
0010
0000
,
0001
0100
0001
1000
0000
1000
0100
0000
,
1000
0000
1000
1000
0001
0100
1000
0100
,
0001
1000
0100
1000
0001
0010
0001
0000
,
1000
0010
1000
0001
0100
0001
1000
0000
,
0001
0010
0001
1000
0100
1000
0001
0000
,
1000
0000
0100
0000
1000
0000
0100
0000
0010
0000
0001
0000
0010
0000
0001
1000
,
0002
0000
0000
0000
,
0000
0000
0000
0003
;

//---------------dance-single - ----------------
#NOTES:
     dance-single:
     :
     Easy:
     4:
     0.298408,0.403059,0.319564,0.210444,0.007794,200.000000,41.000000,27.000000,0.000000,0.000000,0.000000,0.298408,0.403059,0.319564,0.210444,0.007794,200.000000,41.000000,27.000000,0.000000,0.000000,0.000000:
0000
0000
0000
0000
,
0000
0000
0000
0000
,
0000
0000
0000
0000
,
0000
0000
0000
0000
,
1000
1000
0001
1000
,
0000
0000
0000
0000
0000
0000
0001
0000
0000
1000
0000
0000
0000
0000
0000
0000
,
0001
0001
1000
0001
,
0000
1001
0000
0000
0000
0000
0000
0000
,
0001
0001
1000
0001
,
0000
0000
0000
0000
0000
0000
1000
0000
0000
0001
0000
0000
0000
0000
0000
0000
,
1000
1000
0001
1000
,
0000
1001
0000
0000
0000
0000
0000
0000
,
0001
0000
0100
0000
,
0001
1000
0100
0000
,
1000
1000
0010
0100
,
0001
0001
1000
1000
,
0001
0000
0010
0000
,
0100
1000
0100
1000
,
0001
0001
1000
1000
,
0010
0010
0100
0010
,
1001
0001
0010
0000
,
1001
1000
0010
0000
,
1000
0001
1000
0010
,
0100
0100
0010
0010
,
1000
0001
0010
0000
,
0001
0001
0100
0010
,
1000
0000
0000
1000
0000
0000
0001
0000
,
0010
0010
0100
1000
,
1001
0000
0100
0000
,
1001
0001
1000
0010
,
0110
0000
0001
0000
,
0110
0010
0100
0010
,
1001
0000
0000
0000
,
0110
0000
0000
0000
,
1001
0000
0000
0000
,
0110
0000
0000
0000
,
1000
1000
1000
0100
,
0010
0010
0010
0001
,
1000
0010
0100
0001
,
1000
0000
0001
0001
,
0020
0000
0000
0130
0000
0000
0000
0000
,
2000
0000
0000
3001
0000
0000
0100
0000
,
0020
0000
1030
0001
,
0020
0000
0130
0000
,
1000
0002
0000
1003
,
0020
0000
0130
0001
,
2000
0000
0000
3001
0000
0001
0010
0000
,
0200
0000
0310
0010
,
1001
0000
0000
0101
0000
0000
0101
0000
,
1001
0000
0000
1100
0000
0000
1100
0000
,
1001
0000
0000
0011
0000
0000
0011
0000
,
1001
1001
2000
3020
,
0230
0000
0300
0000
,
0002
0000
0003
0000
,
0020
0000
0030
0000
,
0200
0000
0300
0000
,
2000
0000
0000
3100
0000
0000
0000
0000
,
0020
0000
0000
0031
0000
0000
1000
0000
,
0002
0000
0103
0010
,
2000
0000
0000
3001
,
0000
2000
0000
3001
,
0200
0000
0310
1000
,
0002
0000
0000
1003
0000
1000
0100
0000
,
0020
0000
0130
0100
,
1001
0000
0000
0101
0000
1001
0000
0000
,
1001
0000
0000
1100
0000
1001
0000
0000
,
1001
0000
0000
0011
0000
1001
0000
0000
,
1001
1001
0002
0023
,
0130
0100
1000
1001
,
1010
0010
0100
0101
,
1001
0001
0010
0110
,
2100
0000
3001
0000
0102
0000
0003
1000
,
0002
0000
0000
0000
,
0000
0000
0000
0000
0000
0000
0000
0003
;

//---------------dance-single - Revisions----------------
#NOTES:
     dance-single:
     :
     Hard:
     9:
     0.630219,0.748539,0.179267,0.148090,0.471551,524.000000,23.000000,19.000000,0.000000,0.000000,0.000000,0.630219,0.748539,0.179267,0.148090,0.471551,524.000000,23.000000,19.000000,0.000000,0.000000,0.000000:
0000
0000
0000
0000
,
0000
0000
0000
0000
,
0000
0000
0000
0000
,
0000
0000
0000
0000
,
1000
0000
0100
0000
0001
0000
0100
0000
1000
0000
0100
0000
0010
0000
0001
0100
,
0001
0100
0001
1000
0000
0000
1000
0000
0000
1000
0001
0000
1000
0001
1000
0000
,
0001
0000
0100
0000
1000
0000
0100
0000
0001
0000
0100
0000
0010
1000
0010
1000
,
0100
0000
1000
0001
0000
0001
0100
0000
0010
0000
1000
0000
0001
0000
1000
0000
,
0001
0000
0010
0000
1000
0000
0010
0000
0001
0000
0010
0000
0100
0000
1000
0100
,
1000
0100
1000
0001
0000
0000
0001
0000
0000
0001
1000
0000
0001
0010
0001
0000
,
1000
0000
0010
0000
0001
0000
0010
0000
1000
0000
0010
0000
0100
0001
0100
0001
,
0010
0000
0001
1000
0000
1000
0100
0000
0010
0000
0001
0000
1000
0000
0001
0000
,
0100
0000
0000
0000
0010
0000
1000
0001
0000
0000
1000
0000
1000
0001
0000
1000
,
0001
0000
1000
0001
0000
0000
0001
0000
0010
0000
0000
0010
0000
0000
0010
0100
,
1000
0000
0000
0000
0100
0000
1000
0001
0000
0000
1000
0000
0001
0100
0000
0001
,
1000
0000
0001
1000
0000
0000
1000
0000
0100
0000
0000
0100
0000
0000
1000
0001
,
1000
0000
0000
0000
0010
0000
0100
0001
0000
0000
1000
0000
0001
0100
0000
0001
,
1000
0000
0001
1000
0000
0000
0100
0000
0010
0000
0000
0001
1000
0001
0100
0001
,
1000
0000
0000
0001
1000
0000
0000
0100
1000
0000
0000
0010
1000
0001
0000
0001
,
1000
0000
0001
0100
0000
0001
0100
0000
0001
1000
0001
1000
0001
0000
0010
0000
,
1001
0000
1000
0000
0100
0010
0001
0000
,
0100
0001
0100
0000
0010
1000
0000
0010
1000
0000
0001
0000
0010
0000
0000
0000
,
0100
0000
1000
0001
0000
1000
0001
0000
0100
0010
0100
0000
0010
0000
1000
0000
,
0001
0010
0000
0001
0010
0000
0100
1000
0000
0100
0000
1000
0001
1000
0010
0000
,
0100
0000
0001
0100
0000
0001
0100
0000
0010
1000
0000
0010
1000
0000
0001
0000
,
1000
0100
1000
0100
0010
0000
0010
0000
0001
0100
0001
0100
0010
0000
1000
0000
,
0001
0010
0100
1000
0100
0000
1000
0010
0100
0001
0100
0000
0001
1000
0000
1000
,
0001
0000
0100
0010
0000
1000
0001
0000
1000
0100
1000
0100
0010
0001
0010
0001
,
1000
0000
0000
1000
0000
0000
1000
0000
0001
0000
0000
1000
0000
0000
0001
1000
,
0100
0000
1000
0001
0100
0000
0001
1000
0010
0000
1000
0001
0010
0000
0001
1000
,
0100
0000
0000
0100
0000
0000
0100
0000
0010
0000
0000
0100
0000
0000
1000
0001
,
0100
0000
0001
1000
0100
0000
1000
0001
0010
0000
0001
1000
0010
0000
0100
0000
,
0110
0000
0000
0000
,
1001
0000
0000
0000
,
0110
0000
0000
0000
,
1001
0001
1000
1000
0001
0001
1000
1000
,
0010
0100
0010
1000
0100
0010
0001
0000
,
0100
1000
0100
0001
1000
0000
0001
0010
,
0100
1000
0100
0001
0000
0100
1000
0010
,
0200
0000
0301
0000
0010
1000
0010
0001
,
1000
0001
0100
0010
0000
0010
0100
0000
,
0001
1000
0100
0010
0000
0010
0100
0000
,
1000
0100
0010
0000
0001
0100
1000
0100
,
0001
0000
0010
0000
0100
0000
0000
1000
0000
0001
0000
1000
0001
0000
1000
0000
,
0010
1000
0002
0000
0013
0100
0010
0000
,
0001
0010
0100
1000
0010
0000
0100
0010
,
1000
0100
0010
0001
0000
1000
0010
0000
,
0200
0000
0310
1000
0001
0010
1000
0010
,
0001
0000
1000
0100
1000
0000
0010
0000
0100
0001
0100
0000
0001
0000
1000
0000
,
0100
0000
0010
0100
0010
0000
0001
0000
1000
0001
1000
0000
0010
0000
0100
0000
,
0001
0000
0100
0001
0100
0000
0010
0000
1000
0100
1000
0000
0001
0000
0010
0000
,
0200
0000
0000
0000
1300
0000
1000
0000
0001
0010
0001
0010
0100
1000
0100
1000
,
0002
0000
0000
0000
0000
0103
0010
0000
,
2000
0000
0000
0000
0000
0000
3100
0010
,
0200
0000
0000
1300
0000
0001
1000
0010
,
0200
0000
0000
0300
0010
1000
0001
1000
,
2100
0000
3000
0102
0000
1003
0000
0000
,
0021
0000
0030
2100
0000
0000
3001
0000
,
0201
0310
1010
0101
,
2002
0000
0000
3003
,
0000
0000
2000
0000
3100
0010
0100
0000
,
1000
0100
0010
0001
0100
0000
0010
0100
,
0001
0010
0100
1000
0000
0001
0100
0000
,
0020
0000
0130
0001
1000
0100
0001
0100
,
1001
0000
0001
1000
0100
0000
0110
0000
0000
0000
1001
0000
0000
0000
1000
0000
,
1001
0000
1000
0001
0100
0000
0110
0000
0000
0000
1001
0000
0000
0000
1000
0000
,
1001
0000
0001
0010
0100
0000
0110
0000
0000
0000
1001
0000
0000
0000
1000
0000
,
1002
0000
0000
0000
0103
0000
0100
0000
0001
1000
0001
1000
0100
0010
0100
0010
,
0001
0000
0100
0010
0100
0000
0001
0000
1000
0100
1000
0000
0001
0010
0001
0000
,
0100
0000
0010
1000
0010
0000
0100
0000
0001
1000
0001
0000
0100
0010
0100
0000
,
0010
0000
1000
0100
0010
0000
0001
0000
0010
0100
1000
0000
0001
0100
0010
0000
,
0100
0000
0100
0000
0001
0000
0001
0000
0010
0000
0010
0000
1000
0000
0010
0001
,
0200
0000
0000
0000
,
0000
0000
0000
0000
0000
0000
0000
0300
;

//---------------dance-single - Cha Revisions----------------
#NOTES:
     dance-single:
     :
     Challenge:
     10:
     0.868500,0.950068,0.194856,0.179267,1.000000,732.000000,25.000000,23.000000,0.000000,0.000000,0.000000,0.868500,0.950068,0.194856,0.179267,1.000000,732.000000,25.000000,23.000000,0.000000,0.000000,0.000000:
0000
0000
0000
0000
,
0000
0000
0000
0000
,
0000
0000
0000
0000
,
0000
0000
0000
0000
,
0011
0000
0100
1000
0001
0000
0100
0001
1000
0000
0100
1000
0001
0000
0010
0100
,
1000
0100
0010
0001
0100
0010
0001
0000
0010
0100
0001
1000
0100
0010
0001
1000
,
0010
0000
1000
0001
0010
0000
0001
1000
0010
0000
1000
0001
0010
0100
1000
0010
,
0100
0000
0001
1000
0000
1000
0100
1000
0001
0100
0010
1000
0100
1000
0001
0010
,
0110
0000
0010
0001
1000
0000
0010
1000
0001
0000
0010
0001
1000
0000
0100
0010
,
0001
0010
0100
1000
0010
0100
1000
0000
0100
0010
1000
0001
0010
0100
1000
0001
,
0100
0000
0001
1000
0100
0000
1000
0001
0100
0000
0001
1000
0100
0010
0001
0100
,
0010
0000
0000
0000
0000
0000
1000
0000
0000
0001
0000
0000
0000
0000
0000
0001
0000
0000
0010
0000
0000
0001
0000
0000
1000
0000
0000
0010
0000
0000
0100
0000
0000
0001
0000
0000
0010
0000
0000
0001
0000
0000
1000
0000
0001
0000
1000
0000
,
0100
0000
0100
1000
0000
0001
0000
0100
0000
0010
0100
0001
0100
0001
1000
0001
,
0010
0010
0100
0000
1000
0100
0000
0100
1000
0000
1000
0001
0010
0100
1000
0001
,
0100
0000
0001
0100
0000
0001
0100
0000
0001
0100
0010
1000
0100
0010
0001
1000
,
0001
0001
0000
1000
1000
0000
0001
0001
0000
1000
0000
1000
0001
0010
0100
1000
,
0001
0000
0100
0010
0000
0100
0001
0000
1000
0100
0000
1000
0100
0010
0001
1000
,
0001
0100
0001
0100
0010
1000
0010
1000
0001
0010
0001
0010
0100
0010
0001
1000
,
0001
0100
0010
1000
0100
1000
0001
0100
0010
1000
0100
1000
0001
0010
0100
0010
,
0001
0000
0000
1000
0000
0000
0001
0000
0000
0100
0000
0000
0010
0000
0000
0100
0000
0000
0010
0000
0000
0100
0000
0000
0001
0000
0000
0010
0000
0000
0100
0000
0000
1000
0000
0000
0001
0000
0000
0100
0000
0000
0010
0000
0100
0000
0001
0000
,
1000
0000
1000
0100
0000
1000
0000
0001
0000
0010
0100
0010
0001
0100
0010
0000
,
1000
1000
0010
0000
0100
0001
0000
0001
1000
0000
1000
0001
0010
0100
1000
0001
,
0010
0000
0010
0100
0000
0100
0010
0000
0010
0100
1000
0010
0100
1000
0100
0010
,
1000
1000
0000
0001
0001
0000
1000
1000
0000
0001
0000
0001
1000
0010
0100
0001
,
1000
0000
0100
0010
0000
0001
1000
0000
0010
1000
0000
0001
0100
0010
1000
0001
,
1000
0100
1000
0100
0010
0001
0010
0001
0100
0001
1000
0010
0100
0010
1000
0001
,
1000
0100
0010
0001
0010
0001
1000
0010
0100
0001
0100
0001
1000
0100
0000
0100
,
1000
0001
0010
1000
0010
0001
1000
0000
1000
0010
0001
0010
1000
0001
0010
0100
,
1000
0000
0000
1000
0000
0000
1000
0000
0001
0000
0000
1000
0000
0000
0010
1000
,
0100
0000
0010
0001
0100
0000
0010
1000
0100
0000
0010
0001
0100
0000
0010
0000
,
1001
0000
0000
0001
0000
0000
0001
0000
0010
0000
0000
0100
0000
0000
0010
0001
,
0100
0000
0010
1000
0100
0000
0010
0001
0100
0000
0010
1000
0100
0000
0010
0000
,
1001
0000
0001
0000
1000
0100
0000
0100
0000
0010
0001
0000
0010
0100
1000
0000
,
1100
0000
0010
0000
0100
1000
0001
1000
0000
0010
0100
0010
0000
1000
0100
0010
,
1001
0000
0001
0000
1000
0010
0000
0010
0000
0100
0001
0000
0010
0100
1000
0000
,
1001
0000
0001
0000
1000
0100
0010
0001
0100
0010
1000
0001
0100
1000
0100
0001
,
1000
0000
0100
0010
0000
0100
0000
2000
0000
0000
3001
0000
1000
0010
0000
0010
,
0100
0000
0001
0100
0000
0001
0000
1000
0200
0000
0000
0310
0001
0000
1000
0001
,
0100
0000
0100
0010
0000
1000
0000
0001
0000
0000
0010
0100
0010
0100
0000
1000
,
0001
1000
0000
0200
0000
0000
0300
0100
1000
0000
0010
0000
0001
0010
0000
0010
,
1000
0000
0100
1000
0000
0001
0000
0020
0000
0000
0130
0000
0000
0100
0000
1000
,
0001
0000
0100
0010
0000
0100
0000
0001
2000
0000
0000
3100
0010
0001
0000
0001
,
1000
0000
0000
0010
0100
0010
0000
0010
0000
0000
1000
0100
1000
0001
0000
0001
,
0010
0000
0000
0200
0000
0000
1300
0001
0000
0000
1000
0000
0001
1000
0001
1000
,
0010
0000
0100
0001
0000
1000
0000
0200
0000
0000
0310
0000
0100
1000
0000
0001
,
0100
0000
0010
0100
0000
0001
0000
1000
0200
0000
0000
1300
0010
0000
0100
0001
,
0100
0000
0010
1000
0000
0001
0000
0020
0000
0000
0130
0000
0010
0001
0000
1000
,
0001
0000
1000
0001
0000
1001
0000
1000
0001
0000
1100
0000
1000
0000
0101
0000
,
0001
0000
0010
0100
1000
0100
0010
0000
0001
0100
0010
0000
1000
0100
1000
0001
,
0100
0000
0010
1000
0100
0010
0001
0000
1000
0001
0100
0000
0001
1000
0100
1000
,
0001
0000
0010
0001
0100
0001
1000
0000
0010
1000
0100
0000
0010
0001
1000
0001
,
0200
0000
0300
0000
0100
0000
0100
0000
0010
1000
0100
1000
0001
0010
0100
1000
,
0002
0000
0000
0000
0000
0103
0010
0000
,
2000
0000
0000
0000
0000
0000
3100
0010
,
0200
0000
0000
1300
0000
0001
1000
0010
,
0002
0000
0000
0003
1000
0100
0001
0010
,
0210
0000
0300
2100
0000
3010
0000
0000
,
0120
0000
0030
0101
0000
0000
0011
0000
,
0210
1300
1100
0011
,
0202
0000
0000
0303
,
0000
0000
0000
0000
2001
0000
0000
3010
0000
0000
0100
0000
0000
0001
0000
0010
,
0100
0000
1000
0010
0000
0100
0000
0010
2000
0000
0000
3100
0010
0000
0001
1000
,
0010
0000
0100
0001
0000
0010
0000
0001
0000
0000
1000
0100
1000
0100
0000
0010
,
0001
0000
0001
1000
0000
1001
0000
0001
1000
0000
0101
0000
0001
0000
1100
0000
,
1001
0000
0001
0100
1000
0100
0001
0000
1000
0010
0001
0000
0010
1000
0001
0010
,
0100
0000
1000
0100
0001
0100
1000
0000
0001
0010
1000
0000
0010
0001
1000
0010
,
0100
0000
1000
0100
0001
0010
1000
0000
0001
0100
1000
0000
0010
0001
0010
1000
,
0100
0000
0100
0000
0010
0000
0010
0000
0001
1000
0010
0001
0010
1000
0100
0010
,
1100
0000
0001
0010
1000
0010
0001
0000
1000
0010
0001
0000
1000
0100
0001
0010
,
1000
0000
0001
0100
1000
0100
0001
0000
1000
0010
0001
0000
0001
0100
1000
0100
,
0001
0000
1000
0010
0001
0010
1000
0000
0001
0010
1000
0000
0001
0100
1000
0010
,
0001
0000
0001
0000
0010
0000
0010
0000
1000
0000
1000
0000
0001
0000
0001
0010
,
2000
0000
0000
0000
,
0000
0000
0000
0000
0000
0000
0000
3000
;
