#TITLE:Going Haywyre;
#SUBTITLE:;
#ARTIST:Synergy Sound;
#TITLETRANSLIT:;
#SUBTITLETRANSLIT:;
#ARTISTTRANSLIT:;
#GENRE:EDM;
#CREDIT:;
#BANNER:Going Haywyre Banner.png;
#BACKGROUND:Going_Haywyre_Background.png;
#LYRICSPATH:;
#CDTITLE:;
#MUSIC:Going_Haywyre.ogg;
#OFFSET:-0.020000;
#SAMPLESTART:48.000072;
#SAMPLELENGTH:12.000000;
#SELECTABLE:YES;
#DISPLAYBPM:100.000000;
#BPMS:0.000000=100.000000
,31.000000=150.000000
,31.500000=75.000000
,32.000000=100.000000
,79.000000=150.000000
,79.750000=50.000000
,80.000000=100.000000
,85.750000=150.000000
,86.125000=50.000000
,86.250000=100.000000
,86.500000=150.000000
,86.875000=50.000000
,87.000000=100.000000
,87.250000=150.000000
,87.625000=50.000000
,87.750000=100.000000
,116.000000=150.000000
,116.500000=75.000000
,117.000000=100.000000
,121.750000=150.000000
,122.125000=50.000000
,122.250000=100.000000
,122.500000=150.000000
,122.875000=50.000000
,123.000000=100.000000
,123.250000=150.000000
,123.625000=50.000000
,123.750000=100.000000
,163.000000=150.000000
,163.500000=75.000000
,164.000000=100.000000
,170.000000=50.000000
,170.250000=150.000000
,171.000000=100.000000
,181.750000=150.000000
,182.125000=50.000000
,182.250000=100.000000
,182.500000=150.000000
,182.875000=50.000000
,183.000000=100.000000
,183.250000=150.000000
,183.625000=50.000000
,183.750000=100.000000
,204.000000=150.000000
,204.375000=50.000000
,204.500000=100.000000
,204.750000=150.000000
,205.125000=50.000000
,205.250000=100.000000
,205.500000=150.000000
,205.875000=50.000000
,206.000000=100.000000
,206.250000=150.000000
,206.625000=50.000000
,206.750000=100.000000
,207.000000=150.000000
,207.375000=50.000000
,207.500000=100.000000
;
#STOPS:
;
#BGCHANGES:;
#KEYSOUNDS:;
#ATTACKS:;

//---------------dance-single - ----------------
#NOTES:
     dance-single:
     :
     Hard:
     9:
     0.481769,0.540258,0.310196,0.477224,0.501086,424.000000,385.000000,39.000000,60.000000,20.000000,0.000000,0.481769,0.540258,0.310196,0.477224,0.501086,424.000000,385.000000,39.000000,60.000000,20.000000,0.000000:
0000
0000
0000
0000
,
0000
0000
0000
0000
,
0000
0000
0000
0000
,
0000
0000
0000
0000
,
0012
0000
0103
0000
0010
0000
2000
0000
0000
3000
0100
0000
0120
0000
0030
0000
,
0001
0100
0010
0000
1000
0000
1200
0000
0000
0300
1000
0000
1001
0000
0000
0000
,
1000
0010
0100
0000
0001
0000
0020
0000
0000
0030
0001
0000
0100
0000
0010
0000
,
1000
0100
0001
0000
0100
0000
2000
0000
0000
3000
001M
0000
0120
0000
0000
0030
,
1000
0000
0100
0010
0001
0000
0020
0000
0000
0030
0100
0000
1100
0000
1000
0010
,
0100
0000
0010
0000
1000
0000
0200
0000
0000
0300
0010
0000
0001
1000
0001
1000
,
0001
0000
0100
0010
1000
0000
0002
0000
0000
0003
0010
0000
0001
1000
0000
0000
,
0020
0000
0000
0000
0000
0000
0000
0130
,
4001
0000
0000
0000
0000
0000
0000
0000
0000
0000
0000
0000
0000
0000
3000
0100
,
0010
0001
0400
0000
0000
0000
0000
0000
0000
0000
0300
0000
0020
0000
0030
0000
,
0140
0000
0000
0000
0000
0000
0000
0000
0000
0000
0000
0000
0000
0000
0030
0100
,
0010
1000
0004
0000
0000
0000
0000
0000
0000
0000
0000
0000
0000
0000
0003
0000
,
0020
0000
0000
0030
0002
0000
0000
0003
,
0200
0000
0000
0300
0020
0000
0000
0030
,
1000
0000
0010
0100
0010
0000
1000
0010
0100
0000
0010
0100
0001
0000
0010
0100
,
1000
0000
0000
0001
0000
0010
1000
0000
0010
0100
0000
100M
0020
0000
0000
0030
,
1000
0000
0001
0000
1001
0000
1000
0010
1000
0100
0010
0000
0110
0000
0100
1000
,
0010
0100
0001
0000
0101
0000
010M
0020
0030
100M
0200
0300
100M
0020
0030
0000
,
0200
0000
0000
0300
0001
0000
0010
0001
1000
0010
1000
0000
0100
0000
0010
0000
,
0011
0000
0001
0100
0000
1000
0200
0000
0000
0000
0000
0000
0000
0000
0000
0300
,
0010
0000
1000
0000
1010
0000
0010
0100
0001
0010
0001
0000
1000
0000
0001
0100
,
0001
1000
0100
0000
0010
0000
0100
0000
0100
1000
0010
0000
1000
0200
0000
0300
,
0020
0000
0000
0030
0001
0100
0010
1000
0001
0100
0010
1000
0100
0000
1000
0100
,
1000
0000
0010
0001
0000
0010
1000
0000
0100
0001
0000
0100
1000
0000
0010
0000
,
1000
0000
0001
0010
0000
1000
0010
0000
0100
1000
0000
0010
0100
0000
0001
0000
,
2001
0000
0M00
0000
3000
0000
0010
0100
0001
1000
0001
0000
0011
0000
0010
0100
,
1000
0001
1000
0000
1001
0000
100M
0020
0030
M100
0002
0003
0M10
2000
3000
0000
,
0010
0000
0100
0000
0120
0000
0000
0030
0001
0100
0001
0000
1002
0000
0003
0000
,
1000
0000
0000
0000
0000
0000
0100
0000
0000
1000
0000
0000
0000
0000
0000
0001
0000
0000
0200
0000
0000
0000
0000
0000
0000
0000
0000
0000
0000
0000
0000
0000
0000
0000
0000
0000
0310
0000
0000
0000
0100
0000
0000
0000
0001
0000
0000
0000
,
2000
0000
0000
0000
0000
0000
0000
0000
3000
0000
0000
0000
1100
0000
0000
0000
0000
0000
0100
0000
0000
0010
0000
0000
0001
0000
0000
0010
0000
0000
0100
0000
0000
0000
0000
0000
0110
0000
0000
0000
0000
0000
0001
0000
0000
1000
0000
0000
,
0010
0100
0010
0000
1010
0000
1000
0000
1000
0001
0100
0000
0010
0200
0000
0300
,
0002
0000
0000
0003
1000
0010
1000
0001
0010
0001
1000
0100
1000
0001
0100
0000
,
1002
0000
0003
0000
1000
0000
0100
0010
0210
0000
0300
0000
0001
0000
0010
0100
,
1000
0001
0000
0100
0010
0010
1000
0100
0010
0000
0000
0110
0000
0000
0001
0010
,
0002
0000
0000
0003
0000
0000
0010
0000
0100
0000
0000
0000
002M
0000
0000
0000
0000
0000
0031
0000
0000
0000
0000
0000
,
0001
0000
0100
0010
0000
0100
0010
0000
2000
0000
0000
0000
0000
3100
0010
0001
,
0011
0000
0000
1010
0000
0000
0110
0000
0000
1200
0000
0300
1002
0000
0000
0003
,
1000
0000
0001
0000
0200
0000
0310
0100
0000
0001
1000
0000
1100
0000
0100
0010
,
0002
0000
0000
0003
0000
0000
0100
0000
0010
0000
0000
0000
M200
0000
0000
0000
0000
0000
0301
0000
0000
M000
0000
0000
,
0110
0000
0010
1000
0000
0100
0001
0000
0100
1000
0000
0001
0010
0000
0011
0000
,
2001
0000
0000
0000
0000
3000
0010
0100
0001
0010
0001
0000
0101
0000
0100
0010
,
0100
0010
1000
0000
0100
0000
001M
0200
0300
100M
0020
0030
100M
0200
0300
0000
,
0020
0000
0000
0000
0000
0000
0000
0030
0001
0010
0100
0000
1200
0000
1300
0000
,
1010
0000
0000
0000
0000
0000
0010
0000
0000
0001
0000
0000
0000
0000
0000
0010
0000
0000
0200
0000
0000
0000
0000
0000
0000
0000
0000
0000
0000
0000
0000
0000
0000
0000
0000
0000
0301
0000
0000
0000
0010
0000
0000
0000
0100
0000
0000
0000
,
2000
0000
0000
0000
0000
0000
3100
0010
0001
0010
0100
0000
0110
0000
1000
0010
,
0100
0001
1000
0000
1100
0000
0100
1000
0100
0001
0100
0000
0010
0002
0000
0003
,
2000
0000
0000
0000
3001
0010
0001
1000
0100
1000
0001
0100
0001
1000
0010
1M00
,
0002
0003
10M0
0200
0300
M001
0200
0300
M010
0002
0003
01M0
2000
3000
0100
0000
,
0120
0030
0000
0000
;

//---------------dance-single - ----------------
#NOTES:
     dance-single:
     :
     Challenge:
     11:
     0.636299,0.727270,0.246566,0.461317,0.982287,560.000000,529.000000,31.000000,58.000000,51.000000,0.000000,0.636299,0.727270,0.246566,0.461317,0.982287,560.000000,529.000000,31.000000,58.000000,51.000000,0.000000:
// measure 0
0000
0000
0000
0000
,  // measure 1
0000
0000
0000
0000
,  // measure 2
0000
0000
0000
0000
,  // measure 3
0000
0000
0000
0000
,  // measure 4
2010
0000
0000
0000
0000
0000
3010
0000
0000
0100
0000
0000
0010
0000
0000
0100
0000
0000
0002
0000
0000
1000
0000
0000
0000
0000
0000
0003
0000
0000
0010
0000
0000
0000
0000
0000
0100
0000
0000
1000
0000
0000
0100
0000
0010
0000
0001
0000
,  // measure 5
1000
0000
0100
0000
1000
0000
0010
0000
0100
0000
0001
0000
1000
0000
0000
0100
0000
0000
0010
0000
0000
0100
0000
0000
1000
0000
0000
0001
0000
0000
0100
0000
0000
0001
0000
0000
2000
0000
0000
0000
0000
0000
3000
0000
0000
0000
0000
0000
,  // measure 6
0001
0010
0100
0010
0001
0100
0010
0200
0000
0300
0001
0000
0010
0000
0100
1000
,  // measure 7
0010
0100
0001
0001
0010
0100
0020
0000
0000
0000
M031
0000
0120
0000
0000
0030
,  // measure 8
0001
0000
0000
0000
0000
0000
0100
0000
0000
0010
0000
0000
1000
0000
0000
0001
0000
0000
0020
0000
0000
0100
0000
0000
0000
0000
0000
0000
0000
0000
0031
0000
0000
0000
0000
0000
0001
0000
0000
0010
0000
0000
0001
0000
0010
0000
0100
0000
,  // measure 9
1000
0000
0001
0000
0010
0000
0001
0000
0100
0000
0010
0000
1000
0000
0100
0000
0010
0000
0100
0000
0010
0000
0001
0000
1000
0000
0100
0000
1000
0000
0010
0000
0000
0100
0000
0000
0001
0000
0000
1000
0000
0000
0010
0000
0000
1000
0000
0000
,  // measure 10
0001
0000
0010
0100
1000
0001
0100
0010
0000
0000
0100
0000
0001
1000
0000
1000
,  // measure 11
0020
0000
0000
0000
0000
0000
0000
0130
,  // measure 12
0001
0010
0100
1000
0001
0010
0001
1000
0100
1000
0010
0100
0001
0010
0100
1000
,  // measure 13
0010
M001
0010
0100
0001
0010
0100
0010
0001
1000
0010
0100
0002
0000
0000
0003
,  // measure 14
0010
0001
0010
0100
1000
0100
0010
0001
0100
0010
1000
0010
0100
0001
0010
0001
,  // measure 15
0100
100M
0100
0010
1000
0100
0010
0001
1000
0010
1000
0001
0010
0001
0100
0010
,  // measure 16
4000
0000
0000
0000
0000
0000
000M
0000
0000
0000
0000
0M00
0000
0000
0000
0000
000M
0000
0000
0000
0000
0M00
0000
0000
3004
00M0
0000
0000
0000
0M00
0000
0000
0000
00M0
0000
0000
0000
0M00
0000
0000
0000
00M0
0000
0000
0M00
0000
0000
M000
,  // measure 17
0043
0000
0M00
0000
0000
M000
0000
0000
0000
0M00
0000
0000
M000
0000
0000
0M00
0000
0000
M000
0000
0000
000M
0000
0000
M430
0000
0000
000M
0000
0000
M000
0000
000M
0000
M000
0000
000M
0000
M000
0000
000M
0000
M000
0000
000M
0000
00M0
0000
,  // measure 18
1300
0100
0010
0100
0010
0001
1000
0010
0100
0001
0010
0100
0010
0001
0010
0100
,  // measure 19
1000
0000
0000
0001
0000
0100
1000
0000
0100
0010
0000
100M
0200
0000
0000
0300
,  // measure 20
1000
0000
0001
0000
0101
0000
0100
0010
1000
0100
0010
0000
0110
0000
0010
0001
,  // measure 21
0100
0010
1000
0000
1001
0000
100M
0020
0000
013M
2000
0000
310M
0020
0000
1030
,  // measure 22
0200
0000
0010
0000
0310
0000
0001
0010
0001
1000
0010
0000
0100
0000
0010
0000
,  // measure 23
1010
0000
0000
0000
0000
0000
1000
0000
0000
0100
0000
0000
0000
0000
0000
0001
0000
0000
0100
0000
0000
0000
0000
0000
0010
0000
0100
0000
0010
0000
0001
0000
0100
0000
0010
0000
1000
0000
0000
0000
0010
0000
0000
0000
0100
0000
0000
0000
,  // measure 24
0001
0000
0010
0000
0011
0000
0001
0100
1000
0100
0001
0000
1001
0000
1000
0100
,  // measure 25
0001
0100
1000
0000
1100
0000
0200
0300
0010
0001
0100
0000
0010
0200
0000
0300
,  // measure 26
0020
0000
0000
0000
1030
0010
0100
0001
1000
0010
0100
0001
0010
0100
0010
0001
,  // measure 27
1000
0000
0000
0000
0000
0000
0100
0000
0000
0001
0000
0000
0000
0000
0000
0100
0000
0000
0010
0000
0001
0000
0010
0000
0001
0000
0000
0200
0000
0000
0300
0000
0000
0010
0000
0000
1000
0000
0000
0000
0000
0000
0001
0000
0000
0000
0000
0000
,  // measure 28
0010
0000
1000
0010
0000
0001
0100
0000
0010
0001
0000
0010
1000
0000
0100
0000
,  // measure 29
2100
0000
000M
0000
3010
0000
0100
0010
1000
0100
1000
0000
1100
0000
0100
0010
,  // measure 30
0001
1000
0001
0000
1001
0000
100M
0020
0000
M130
0002
0000
0M13
2000
0000
3010
,  // measure 31
0002
0000
0000
0000
0000
0000
0103
0000
0000
0000
0000
0000
0010
0000
0000
0000
0100
0000
0001
0000
0000
0000
0000
0000
1000
0000
0000
0001
0000
0000
1000
0000
0000
0000
0000
0000
1002
0000
0000
0000
0000
0000
0003
0000
0000
0000
0000
0000
,  // measure 32
0001
0000
0000
0000
0000
0000
0100
0000
0000
1000
0000
0000
0000
0000
0000
0100
0000
0000
0002
0000
0000
0000
0000
0000
0013
0000
0100
0000
0010
0000
0001
0000
1000
0000
0100
0000
0010
0000
0000
0000
0100
0000
0000
0000
1000
0000
0000
0000
,  // measure 33
0020
0000
0000
0030
0100
0000
0001
0010
0001
0010
0100
0000
1000
0000
0001
1000
,  // measure 34
0010
0100
0010
0000
0110
0000
0100
0000
0001
0010
0100
0000
0010
0200
0000
0000
,  // measure 35
2300
0000
0000
0000
3001
0010
0001
1000
0100
1000
0001
0100
0001
1000
0100
0000
,  // measure 36
2100
0000
0000
0000
0000
0000
3001
0000
0000
0100
0000
0000
0010
0000
0000
0000
0000
0000
1000
0000
0000
0100
0000
0000
0020
0000
0000
0000
0000
0000
0031
0000
0000
0000
0000
0000
0100
0000
0000
0000
0000
0000
0010
0000
0100
0000
0010
0000
,  // measure 37
0100
0001
0000
0010
0001
0001
1000
0010
0100
0000
0000
0210
0000
0300
0001
0010
,  // measure 38
0002
0000
0000
0000
0000
0000
0003
0000
0000
1000
0000
0000
0010
0000
0000
0000
0100
0000
0001
0000
0000
0000
0000
0000
M020
0000
0000
0000
0000
0000
0000
0000
0000
0000
0000
0000
0031
0000
0000
0000
0000
0000
0000
0000
0000
0000
0000
0000
,  // measure 39
0001
0010
0100
1000
0001
0010
0100
0010
0001
1000
0100
0010
0002
0000
0000
0000
0000
0000
1003
0000
0010
0000
0100
0000
,  // measure 40
0120
0030
0000
2010
3000
0000
1200
0300
0000
0102
0003
0000
1002
0000
0000
0000
,  // measure 41
0013
0000
0001
0000
0200
0000
0310
0100
0000
0010
1000
0000
1100
0000
0100
0010
,  // measure 42
0002
0000
0000
0000
0000
0000
0003
0000
0000
0010
0000
0000
0001
0000
0000
0000
0100
0000
0010
0000
0000
0000
0000
0000
M200
0000
0000
0000
0000
0000
0000
0000
0000
0000
0000
0000
0310
0000
0000
0000
0000
0000
M000
0000
0000
0000
0000
0000
,  // measure 43
0110
0000
0010
1000
0000
0100
0001
0000
0100
1000
0000
0001
0010
0000
0011
0000
,  // measure 44
2001
0000
0000
0000
0000
0000
3010
0100
0001
0010
0001
0000
0101
0000
0100
0010
,  // measure 45
1000
0100
0010
0000
0100
0000
001M
0200
0000
130M
0020
0000
103M
0200
0000
0310
,  // measure 46
0002
0000
0000
0000
0000
0000
0000
0000
0000
0000
0000
0000
1003
0000
0000
0000
0001
0000
0010
0000
0000
0000
0000
0000
0001
0000
0000
0010
0000
0000
0100
0000
0000
0000
0000
0000
0210
0000
0000
0000
0000
0000
1300
0000
0000
0000
0000
0000
,  // measure 47
1010
0000
0000
0000
0000
0000
0010
0000
0000
0001
0000
0000
0000
0000
0000
0010
0000
0000
0200
0000
0000
0000
0000
0000
0310
0000
0100
0000
0001
0000
0100
0000
0010
0000
1000
0000
0100
0000
0000
0000
0010
0000
0000
0000
0001
0000
0000
0000
,  // measure 48
2000
0000
0000
0000
0001
0000
3100
0010
0001
0010
0100
0000
0110
0000
0001
0100
,  // measure 49
0010
1000
0100
0000
1100
0000
1000
0100
0001
0100
1000
0000
0010
0200
0000
0300
,  // measure 50
0002
0000
0000
0000
1003
0010
1000
0001
0010
0001
1000
0100
1000
0001
0010
0M01
,  // measure 51
2000
0000
31M0
0002
0000
M103
0020
0000
M031
0200
0000
13M0
0200
0000
0310
0000
,  // measure 52
0120
0030
0000
0000
;

//---------------dance-single - ----------------
#NOTES:
     dance-single:
     :
     Medium:
     5:
     0.306787,0.353246,0.111352,0.596531,0.139190,270.000000,256.000000,14.000000,75.000000,28.000000,0.000000,0.306787,0.353246,0.111352,0.596531,0.139190,270.000000,256.000000,14.000000,75.000000,28.000000,0.000000:
0000
0000
0000
0000
,
0000
0000
0000
0000
,
0000
0000
0000
0000
,
0000
0000
0000
0000
,
0002
0000
0013
0000
0100
0000
2000
0000
0000
3000
0010
0000
0100
0000
0000
0000
,
0001
0000
0010
0000
0001
0000
2000
0000
0000
3000
0001
0000
1001
0000
0000
0000
,
1000
0000
0100
0000
0001
0000
0200
0000
0000
0300
0010
0000
0001
0000
0000
0000
,
1000
0000
0001
0000
0100
0000
0020
0000
0000
0000
103M
0000
0200
0000
0000
0300
,
1000
0100
0010
0002
0000
0103
0110
0000
,
0010
0100
0001
0020
0000
0031
1000
0010
,
2000
0000
3000
0100
1000
0000
0002
0000
0000
0003
0010
0000
0001
0000
0000
0000
,
0200
0000
0000
0000
0000
0000
0000
0301
,
0020
0000
0000
0000
0000
0000
0000
0030
,
0100
2000
0000
0000
0000
3000
1001
0000
,
0002
0000
0000
0000
0000
0000
0000
0003
,
1000
0020
0000
0000
0000
0000
0000
0030
,
2000
0000
0000
3000
0002
0000
0000
0003
,
0020
0000
0000
0030
0002
0000
0000
0003
,
0100
0010
0100
0001
0010
0100
1000
0010
,
0200
0000
0000
0301
0000
0000
1000
0000
0000
0100
0000
000M
0020
0000
0000
0030
,
0002
0000
1003
0010
0100
0001
0101
0100
,
0010
0000
1000
0000
1010
0000
000M
0020
0000
003M
0200
0000
030M
0020
0000
0030
,
2000
0000
3001
0010
0001
1000
1001
0000
,
0001
0000
0000
0100
0000
0000
0020
0000
0000
0000
0000
0000
0000
0000
0000
0000
,
1030
0100
1000
0100
0001
0100
0110
0010
,
0001
0000
0100
0000
0001
0000
0010
0000
0001
0000
0010
0000
M00M
0200
0000
0300
,
0020
0000
0031
0010
1000
0010
0001
1000
,
0200
0000
0300
2000
0000
3000
0002
0000
0003
0200
0000
0300
0020
0000
1030
0000
,
01MM
0000
0000
0010
0000
0000
0001
0000
0000
0100
0000
0000
0010
0000
0100
0000
,
0210
000M
0300
0010
1000
0100
1000
0001
,
0010
0000
0100
0000
0110
0000
M000
0002
0000
M003
0020
0000
M030
0200
0000
0300
,
0010
0000
0001
0000
2001
0000
0000
3000
0001
0000
0100
0000
0020
0000
0000
0000
,
1030
0000
0000
0100
0000
0000
0002
0000
0000
0000
0000
0000
0203
0000
0000
0000
,
0320
0030
0011
0001
0100
0001
0010
0100
,
0010
0000
0001
0000
0100
0000
1000
0000
0100
0000
0001
0000
MM00
0020
0000
0000
,
0230
0000
1300
0001
0100
0001
1000
0010
,
2000
3000
0001
0010
0200
0300
0010
0001
,
0100
0000
0000
0000
0040
0000
0000
0000
1030
0000
0000
0001
0000
0000
0010
0000
,
0200
0300
0010
0000
M002
0000
0013
0000
,
0001
0000
0000
0010
0000
0000
0100
0000
2000
0000
0000
0000
0000
3000
0010
0000
,
0200
0000
0300
0020
0000
0030
2000
0000
3000
0002
0000
0003
2001
0000
3000
0000
,
0001
0000
0100
0000
0020
0000
0030
1000
0000
0000
0100
0000
0010
0000
0000
0000
,
0002
0003
1000
0000
02M0
0000
0310
M000
,
0001
0000
0000
1000
0000
0000
0010
0000
0000
0100
0000
0000
0001
0000
0010
0000
,
0002
0000
0000
0013
0100
0010
0001
0100
,
0010
0000
1000
0000
0010
0000
000M
0200
0000
030M
0020
0000
003M
2000
0000
3000
,
0020
0000
0000
0000
0000
0000
0000
0030
0100
0000
0001
0000
0201
0000
0300
0000
,
0001
0000
0000
0010
0000
0000
0200
0000
0000
0000
0000
0000
0320
0000
0000
0000
,
0032
0000
0000
0103
0010
1000
0010
0100
,
0001
0000
0010
0000
0011
0000
0001
0000
0100
0000
1000
0000
00MM
0200
0000
0300
,
0020
0000
0000
0000
1030
0000
0100
0000
1000
0000
0001
0000
0100
0000
0001
0M00
,
2000
0000
30M0
0200
0000
M300
0020
0000
M030
0002
0000
00M3
2000
0000
3001
0000
,
0200
0300
0000
0000
;

//---------------dance-single - ----------------
#NOTES:
     dance-single:
     :
     Easy:
     3:
     0.179527,0.187012,0.015907,0.509039,0.027838,158.000000,156.000000,2.000000,64.000000,21.000000,0.000000,0.179527,0.187012,0.015907,0.509039,0.027838,158.000000,156.000000,2.000000,64.000000,21.000000,0.000000:
0000
0000
0000
0000
,
0000
0000
0000
0000
,
0000
0000
0000
0000
,
0000
0000
0000
0000
,
2000
0000
0000
3010
0000
0000
0100
0000
,
0002
0000
0000
0000
0000
0000
2003
0000
0000
3000
0000
0000
0100
0000
0000
0000
,
0020
0000
0000
0130
0000
0000
2000
0000
,
3020
0000
0000
0230
0000
030M
0010
0000
,
2000
0000
0000
3001
0000
0000
0020
0000
,
0032
0000
0000
0203
0000
0000
0320
0000
,
2030
0000
0000
0000
0000
0000
3002
0000
0000
0003
0010
0000
0001
0000
0000
0000
,
0200
0000
0000
0000
0000
0000
0000
0310
,
1000
0000
1000
0000
,
0100
0000
0100
0010
,
0001
0000
0001
0000
,
0100
0000
0100
0010
,
1000
0000
0001
0000
,
0100
0000
0010
0000
,
1000
0010
0100
0010
,
2000
0000
0000
0000
0000
0000
0000
0000
0000
0000
0000
0MM0
3001
0000
0000
0000
,
0020
0130
1000
0010
,
0100
0000
0000
0000
0002
0000
0000
0000
M000
0003
0200
M000
0000
0000
M000
0000
,
0320
1030
0100
1000
,
0010
0000
0000
0200
0000
0000
0000
0000
,
0310
1000
0001
0010
,
0001
0000
0100
0000
0020
0000
0000
0030
,
2000
3001
0010
0001
,
0200
0000
0000
0000
0000
0300
0020
0000
0000
0000
0000
0030
0200
0000
0300
0000
,
0001
0000
0000
0001
0000
0000
0001
0000
,
1001
0MM0
1000
0000
0001
0000
0100
0000
,
0010
0000
0000
0000
2000
0000
0000
0000
000M
3000
0020
000M
0000
0000
000M
0000
,
0130
0010
0100
0002
,
0023
0000
0000
0000
0000
0030
0002
0000
0000
0000
0000
0000
0203
0000
0000
0000
,
0301
0100
0001
0010
,
0100
0000
0000
0000
1000
0000
0000
0000
0020
0000
0000
0000
0000
0000
0000
0030
,
0200
0301
0010
0100
,
0020
0030
0001
0000
0200
0300
0010
0000
,
0100
0000
0000
0000
0020
0000
0000
0000
2030
0000
0000
3000
0000
0000
0001
0000
,
0200
0300
0001
0000
M020
0000
0031
0000
,
2000
0000
0000
3000
0002
0000
0000
0000
,
0203
0000
0000
0000
0000
0300
0020
0000
0000
0000
0000
0030
0200
0000
0000
0000
,
0301
0000
0020
0030
0000
0001
0010
0000
,
0200
0300
1000
0000
0020
0000
0130
M000
,
0002
0000
0000
0000
0000
0003
0020
0000
0000
0000
0000
0030
0001
0000
1000
0000
,
0020
0130
0001
0010
,
0100
0000
0000
0000
0020
0000
0000
0000
M000
0030
0002
M000
0000
0000
M000
0003
,
0020
0000
0000
0000
0000
0000
0000
0030
0100
0000
0000
0000
0110
0000
0000
0000
,
0002
0000
0000
0000
0000
0003
0200
0000
0000
0000
0000
0000
0320
0000
0000
0000
,
2030
3100
0010
0001
,
0100
0000
0000
0000
0010
0000
0000
0000
0200
0000
0000
0000
0000
0000
0000
0300
,
0020
0000
0000
0000
1030
0000
0000
0000
0100
0000
0000
0000
1000
0000
0000
0M00
,
0002
0000
00M0
0000
0000
M003
0200
0000
M000
0000
0000
03M0
0002
0000
0003
0000
,
0020
0030
0000
0000
;

//---------------dance-single - ----------------
#NOTES:
     dance-single:
     :
     Beginner:
     1:
     0.110216,0.165835,0.015907,0.174982,0.019884,97.000000,95.000000,2.000000,22.000000,20.000000,0.000000,0.110216,0.165835,0.015907,0.174982,0.019884,97.000000,95.000000,2.000000,22.000000,20.000000,0.000000:
0000
0000
0000
0000
,
0000
0000
0000
0000
,
0000
0000
0000
0000
,
0000
0000
0000
0000
,
0001
0000
0000
0100
,
0010
0000
0000
1000
,
0001
0000
0000
0010
,
0100
0000
0000
0000
0000
M000
0010
0000
,
0001
0000
0000
0100
,
0001
0000
0000
0010
,
0100
0000
0000
1000
,
0100
0000
0000
0000
,
0010
0000
0100
0000
,
1000
0000
0001
0000
,
0001
0000
1000
0000
,
0100
0000
0010
0000
,
0010
0000
0010
0000
,
0100
0000
0100
0000
,
0010
1000
0001
0010
,
0001
0000
0000
0000
0000
0000
0001
0M00
,
0020
0030
0100
0000
,
0010
0000
0000
0000
0001
0000
0000
0000
M000
0000
0000
M000
0000
0000
M000
0000
,
0200
0300
0010
0000
,
2000
0000
0000
0000
,
3010
0000
0100
0000
,
0001
0000
0010
0000
,
0100
0000
0010
0000
,
0002
0000
0000
1003
,
0002
0000
0000
0003
,
1000
0MM0
0000
0000
0001
0000
0000
0000
,
0020
0000
0000
0000
0000
0000
0000
0000
M000
0000
0000
M000
0000
0000
M000
0000
,
0130
0000
0010
0000
,
0002
0000
0000
1003
,
0001
0000
1000
0000
,
0010
0000
2000
0000
,
3200
0300
0010
0000
,
1001
0000
0110
0000
,
1000
0000
1000
0000
2000
0000
0000
3000
,
0001
0000
M020
0030
,
0001
0000
1000
0000
,
0020
0000
0000
0000
0000
0000
0000
0000
0000
0000
0000
0030
0200
0000
0000
0000
,
0301
0020
0000
0130
,
2000
0000
3000
0000
0020
0000
0030
0M00
,
2000
0000
0000
0000
,
3010
0000
1000
0000
,
0001
0000
0000
0000
0020
0000
0000
0000
M000
0000
0000
M000
0000
0000
M000
0000
,
0031
0000
0100
0000
,
0020
0000
0000
0000
,
1030
0000
0100
0000
,
0010
0000
0002
0000
,
1003
0000
0010
1000
,
0002
0000
0M00
0000
0000
0M00
0000
0000
0M00
0000
0000
0M00
0000
0000
0M03
0000
,
2000
3000
0000
0000
0000
0000
0000
0000
;
