#TITLE:Enhanced Reality;
#SUBTITLE:NO CMOD;
#ARTIST:Matduke;
#TITLETRANSLIT:;
#SUBTITLETRANSLIT:;
#ARTISTTRANSLIT:;
#GENRE:;
#CREDIT:;
#BANNER:Enhanced Reality-bn.png;
#BACKGROUND:Enhanced Reality-bg.png;
#LYRICSPATH:;
#CDTITLE:;
#MUSIC:Enhanced Reality.mp3;
#OFFSET:-0.020;
#SAMPLESTART:81.911;
#SAMPLELENGTH:11.294;
#SELECTABLE:YES;
#DISPLAYBPM:170.000;
#BPMS:0.000=170.000,60.000=20000.000,92.000=230.000,93.000=170.000,94.000=20000.000,95.500=170.000,126.000=20000.000,131.000=183.000,131.500=170.000,298.000=20000.000,299.500=170.000,328.000=20000.000,360.000=230.000,361.000=170.000,362.000=25000.002,363.500=170.000;
#STOPS:94.000=0.176
,94.500=0.176
,95.000=0.176
,126.000=0.176
,126.500=0.088
,126.750=0.088
,298.000=0.176
,298.500=0.176
,299.000=0.176
,362.000=0.175
,362.500=0.175
,363.000=0.175
;
#TIMESIGNATURES:0.000=4=4
;
#BGCHANGES:;
#KEYSOUNDS:;

//---------------dance-single - ----------------
#NOTES:
     dance-single:
     :
     Beginner:
     2:
     0.133,0.251,0.009,0.091,0.000,91.000,1.000,10.000,0.000,0.000,0.000,0.133,0.251,0.009,0.091,0.000,91.000,1.000,10.000,0.000,0.000,0.000:
0000
0000
0000
0000
,
0000
0000
0000
0000
,
0000
0000
0000
0000
,
0000
0000
0000
0000
,
0001
0000
0000
0000
,
1000
0000
0000
0000
,
0010
0010
0010
0010
,
0020
0000
0030
0000
,
0000
0010
0000
0010
,
0000
0010
0000
0000
,
0000
0100
0000
0100
,
0000
0100
0000
0000
,
0000
0001
0000
0001
,
0000
0001
0000
0000
,
0000
1000
0000
1000
,
2000
0000
0000
0000
,
0000
0000
0000
0000
,
0000
0000
0000
0000
,
0000
0000
0000
0000
,
0000
0000
0000
0000
,
0000
0000
0000
0000
,
0000
0000
0000
0000
,
0000
0000
0000
0000
,
3000
0000
0000
0000
,
2002
0000
0000
0000
,
3003
0000
0000
0000
,
0000
0000
0000
0000
,
0000
0000
0000
0000
,
1000
0000
0000
0000
,
0000
0000
0000
0000
,
0010
0010
0010
0010
,
0020
0000
0030
0000
,
0000
0000
0000
0000
,
0000
0100
0000
0100
,
0000
0100
0000
0000
,
0000
0001
0000
0001
,
0000
0001
0000
0000
,
0000
1000
0000
1000
,
0000
1000
0000
0000
,
0000
0100
0000
0100
,
0100
0000
0000
0000
,
0000
0010
0000
0001
,
0000
0010
0000
0000
,
0000
0001
0000
1000
,
0000
0001
0000
0000
,
0000
1000
0000
0010
,
0000
1000
0000
0000
,
0000
0001
0000
1000
,
2000
0000
0000
3000
,
1000
0000
0000
0000
,
0000
0000
0000
0000
,
0020
0000
0000
0000
,
0030
0000
0000
0000
,
0000
0000
0000
0000
,
0000
0000
0000
0000
,
0000
0000
0000
0000
,
0000
0000
0000
0000
,
0000
0000
0000
0000
,
0000
0000
0000
0000
,
0100
0000
0000
0000
,
0000
0000
0000
0000
,
0000
0000
0000
0000
,
0000
0000
0000
0000
,
0001
0000
0000
0000
,
0010
0000
0000
0000
,
0100
0100
0100
0100
,
0200
0000
0300
0000
,
0000
0100
0000
1000
,
0000
0100
0000
0000
,
0000
1000
0000
0001
,
0000
1000
0000
0000
,
0000
0001
0000
0100
,
0000
0001
0000
0000
,
0000
1000
0000
0010
,
0000
1000
0000
0000
,
0001
0001
0000
0100
,
0000
0001
0000
0100
,
0000
0010
0000
0100
,
0000
0010
0000
0100
,
0000
0010
0000
1000
,
0000
0010
0000
1000
,
0000
0100
0000
1000
,
2000
0000
0000
0000
,
0000
0000
0000
0000
,
0000
0000
0000
0000
,
0000
0000
0000
0000
,
0000
0000
0000
0000
,
0000
0000
0000
0000
,
0000
0000
0000
0000
,
0000
0000
0000
0000
,
3000
0000
0100
0100
,
0200
0000
0000
0000
,
0300
0000
0000
0000
;

//---------------dance-single - ----------------
#NOTES:
     dance-single:
     :
     Easy:
     4:
     0.284,0.377,0.082,0.118,0.000,196.000,9.000,13.000,0.000,0.000,0.000,0.284,0.377,0.082,0.118,0.000,196.000,9.000,13.000,0.000,0.000,0.000: // measure 1
0000
0000
0000
0000
,  // measure 2
0000
0000
0000
0000
,  // measure 3
0000
0000
0000
0000
,  // measure 4
0000
0000
0000
0000
,  // measure 5
1001
0000
0000
0000
,  // measure 6
1001
0000
0000
0000
,  // measure 7
0001
1000
0001
1000
,  // measure 8
0001
0001
0002
0000
,  // measure 9
1003
1000
0100
0100
,  // measure 10
1000
1000
0100
1000
,  // measure 11
0001
0001
0100
0100
,  // measure 12
0001
0001
0100
0001
,  // measure 13
1000
1000
0010
0010
,  // measure 14
1000
1000
0010
1000
,  // measure 15
0001
0001
0010
0010
,  // measure 16
0002
0000
0000
0000
,  // measure 17
0000
0000
0000
0000
,  // measure 18
0000
0000
0000
0000
,  // measure 19
0000
0000
0000
0000
,  // measure 20
0000
0000
0000
0000
,  // measure 21
0000
0000
0000
0000
,  // measure 22
0000
0000
0000
0000
,  // measure 23
0000
0000
0000
0000
,  // measure 24
0003
0000
0010
0000
,  // measure 25
0022
0000
0000
0000
,  // measure 26
0000
0000
0000
0000
,  // measure 27
0000
0000
0000
0000
,  // measure 28
0033
0000
0000
0000
,  // measure 29
0002
0000
0000
0000
,  // measure 30
0003
0000
0000
0000
,  // measure 31
1000
0001
1000
0001
,  // measure 32
2000
0000
0000
0000
,  // measure 33
0000
0000
0000
3000
,  // measure 34
1000
1000
0010
0010
,  // measure 35
0100
0100
0010
1000
,  // measure 36
0100
0100
0010
0010
,  // measure 37
0001
0001
0010
0100
,  // measure 38
1000
1000
0010
0010
,  // measure 39
0100
0100
0010
1000
,  // measure 40
0100
0100
0010
0010
,  // measure 41
0002
0000
0000
0000
,  // measure 42
1003
1000
0100
0100
,  // measure 43
0010
0010
0100
1000
,  // measure 44
0010
0010
0100
0100
,  // measure 45
0001
0001
0100
0010
,  // measure 46
1000
1000
0100
0100
,  // measure 47
0010
0010
0100
1000
,  // measure 48
0001
1000
0001
1000
,  // measure 49
0002
0000
0000
0003
,  // measure 50
1002
1000
1000
1000
,  // measure 51
1000
1003
0000
0000
,  // measure 52
0110
0000
0000
0000
,  // measure 53
0000
0000
0000
0000
,  // measure 54
0000
0000
0000
0000
,  // measure 55
0000
0000
0000
0000
,  // measure 56
0000
0000
0000
0000
,  // measure 57
0000
0000
0000
0000
,  // measure 58
0000
0000
0000
0000
,  // measure 59
0000
0000
0000
0000
,  // measure 60
1001
0000
0001
0000
,  // measure 61
1000
0000
1000
0000
,  // measure 62
0010
0000
0010
0000
,  // measure 63
0100
0000
0100
0000
,  // measure 64
0101
0000
0001
0000
,  // measure 65
1001
0000
1000
0000
,  // measure 66
0100
1000
0100
1000
,  // measure 67
0001
1000
0002
0000
,  // measure 68
1003
1000
0010
0010
,  // measure 69
0001
0010
1000
0010
,  // measure 70
1000
1000
0100
0100
,  // measure 71
0001
0100
1000
0100
,  // measure 72
1000
1000
0010
0010
,  // measure 73
0001
0010
1000
0010
,  // measure 74
1000
1000
0100
0100
,  // measure 75
0001
0000
0100
0000
1000
0100
1000
0000
,  // measure 76
0001
0001
0100
0100
,  // measure 77
1000
0100
0001
0100
,  // measure 78
0001
0001
0010
0010
,  // measure 79
1000
0010
0001
0010
,  // measure 80
0001
0001
0100
0100
,  // measure 81
1000
0100
0001
0100
,  // measure 82
0001
0001
0010
0010
,  // measure 83
0002
0000
0000
0000
,  // measure 84
0000
0000
0000
0000
,  // measure 85
0000
0000
0000
0000
,  // measure 86
0000
0000
0000
0000
,  // measure 87
0000
0000
0000
0000
,  // measure 88
0000
0000
0000
0000
,  // measure 89
0000
0000
0000
0000
,  // measure 90
0000
0000
0000
0000
,  // measure 91
0003
0000
0000
0000
0001
1000
0001
0000
,  // measure 92
2002
0000
0000
0000
,  // measure 93
3003
0000
0000
0000
;

//---------------dance-single - ----------------
#NOTES:
     dance-single:
     :
     Medium:
     7:
     0.376,0.628,0.127,0.219,0.000,251.000,14.000,24.000,0.000,0.000,0.000,0.376,0.628,0.127,0.219,0.000,251.000,14.000,24.000,0.000,0.000,0.000: // measure 1
0000
0000
0000
0000
,  // measure 2
0000
0000
0000
0000
,  // measure 3
0000
0000
0000
0000
,  // measure 4
0000
0000
0000
0000
,  // measure 5
0101
0000
0000
0000
,  // measure 6
0110
0000
0000
0000
,  // measure 7
0101
0001
0101
0100
,  // measure 8
0001
0100
0001
0100
0002
0000
0000
0000
,  // measure 9
1003
0000
0100
1000
0100
0000
1000
0000
,  // measure 10
0001
0000
0100
0001
0100
0000
0001
0000
,  // measure 11
1000
0000
0010
1000
0010
0000
1000
0000
,  // measure 12
0001
0000
0010
0001
0010
0000
0001
0000
,  // measure 13
1000
0000
0100
1000
0100
0000
1000
0000
,  // measure 14
0001
0000
0100
0001
0100
0000
0001
0000
,  // measure 15
1000
0000
0010
1000
0010
0000
1000
0000
,  // measure 16
0002
0000
0000
0000
,  // measure 17
0000
0000
0000
0000
,  // measure 18
0000
0000
0000
0000
,  // measure 19
0000
0000
0000
0000
,  // measure 20
0000
0000
0000
0000
,  // measure 21
0000
0000
0000
0000
,  // measure 22
0000
0000
0000
0000
,  // measure 23
0000
0000
0000
0000
,  // measure 24
0003
0000
0000
0000
0001
1000
0001
0000
,  // measure 25
0022
0000
0000
0000
,  // measure 26
0000
0000
0000
0000
,  // measure 27
0000
0000
0000
0000
,  // measure 28
0033
0000
0000
0000
,  // measure 29
0002
0000
0000
0000
,  // measure 30
0003
0000
0000
0000
,  // measure 31
1000
0001
1000
0001
1000
0001
1000
0001
,  // measure 32
2000
0000
0000
0000
,  // measure 33
0000
0000
0000
3000
,  // measure 34
1000
0000
0010
0100
0010
0000
1000
0000
,  // measure 35
0001
0000
0100
0010
0100
0000
0001
0000
,  // measure 36
1000
0000
0100
0010
0100
0000
1000
0000
,  // measure 37
0001
0000
0010
0100
0010
0000
0001
0000
,  // measure 38
1000
0000
0010
0100
0010
0000
1000
0000
,  // measure 39
0001
0000
0100
0010
0100
0000
0001
0000
,  // measure 40
1000
0000
0100
0010
0100
0000
1000
0000
,  // measure 41
2002
0000
0000
3003
,  // measure 42
0001
0000
0010
0100
1000
0000
0001
0000
,  // measure 43
1000
0000
0010
0100
0001
0000
1000
0000
,  // measure 44
0001
0000
0100
0010
1000
0000
0001
0000
,  // measure 45
1000
0000
0100
0010
0001
0000
1000
0000
,  // measure 46
0001
0001
0001
0000
2000
0000
3002
0000
,  // measure 47
0103
0100
0100
0000
0020
0000
0230
0000
,  // measure 48
0302
2003
3002
2003
,  // measure 49
3200
0000
0000
0300
,  // measure 50
2100
0001
0100
0001
,  // measure 51
0100
3001
0000
0000
,  // measure 52
2002
0000
0000
0000
,  // measure 53
3003
0000
0000
0000
,  // measure 54
0001
0000
0000
0000
,  // measure 55
1000
0000
0000
0000
,  // measure 56
0001
0000
0001
0000
,  // measure 57
1000
0000
1000
0000
,  // measure 58
0100
0000
0100
0000
,  // measure 59
0010
0000
0010
0000
,  // measure 60
0011
0000
0001
0000
,  // measure 61
1000
0000
1000
0000
,  // measure 62
0010
0000
0010
0000
,  // measure 63
0100
0000
0100
0000
,  // measure 64
0101
0000
0001
0000
,  // measure 65
1001
0000
1000
0000
,  // measure 66
1100
1000
1001
0001
,  // measure 67
0100
0001
0100
0001
0200
0000
0000
0000
,  // measure 68
0301
0000
0010
1000
0010
0000
0001
0000
,  // measure 69
1000
0000
0010
0001
0010
0000
1000
0000
,  // measure 70
0001
0000
0100
1000
0100
0000
0001
0000
,  // measure 71
1000
0000
0100
0001
0100
0000
1000
0000
,  // measure 72
0001
0000
0010
1000
0010
0000
0001
0000
,  // measure 73
1000
0000
0010
0001
0010
0000
1000
0000
,  // measure 74
0001
0000
0100
1000
0100
0000
0001
0000
,  // measure 75
1000
0000
0100
0000
1000
0001
1000
0001
,  // measure 76
1000
0000
0001
0100
1000
0000
0100
0000
,  // measure 77
0001
0000
1000
0100
0001
0000
0100
0000
,  // measure 78
1000
0000
0001
0010
1000
0000
0010
0000
,  // measure 79
0001
0000
1000
0010
0001
0000
0010
0000
,  // measure 80
1000
0000
0001
0100
1000
0000
0100
0000
,  // measure 81
0001
0000
1000
0100
0001
0000
0100
0000
,  // measure 82
1000
0000
0001
0010
1000
0000
0010
0000
,  // measure 83
0002
0000
0000
0000
,  // measure 84
0000
0000
0000
0000
,  // measure 85
0000
0000
0000
0000
,  // measure 86
0000
0000
0000
0000
,  // measure 87
0000
0000
0000
0000
,  // measure 88
0000
0000
0000
0000
,  // measure 89
0000
0000
0000
0000
,  // measure 90
0000
0000
0000
0000
,  // measure 91
0003
0000
0000
0000
0001
1000
0001
0000
,  // measure 92
0202
0000
0000
0000
,  // measure 93
0303
0000
0000
0000
;

//---------------dance-single - ----------------
#NOTES:
     dance-single:
     :
     Hard:
     9:
     0.554,1.000,0.146,0.137,0.260,395.000,16.000,15.000,0.000,0.000,0.000,0.554,1.000,0.146,0.137,0.260,395.000,16.000,15.000,0.000,0.000,0.000: // measure 1
0000
0000
0000
0000
,  // measure 2
0000
0000
0000
0000
,  // measure 3
0000
0000
0000
0000
,  // measure 4
0000
0000
0000
0000
,  // measure 5
0101
0000
0000
0000
,  // measure 6
0110
0000
0000
0000
,  // measure 7
0101
1001
1100
0110
,  // measure 8
0010
0000
0001
0000
0010
0000
0001
0000
1000
0100
1000
0100
2000
0000
0000
0000
,  // measure 9
3001
0100
0001
0000
1000
0100
1000
0000
,  // measure 10
0001
0000
0100
0000
0001
0000
0000
0000
1000
0000
0100
0000
1000
0100
1000
0100
,  // measure 11
1000
0010
1000
0000
0001
0010
0001
0000
,  // measure 12
1000
0000
0010
0000
1000
0000
0000
0000
0001
0000
0010
0000
0001
0010
0001
0010
,  // measure 13
0001
0100
0001
0000
1000
0100
1000
0000
,  // measure 14
0001
0000
0100
0000
0001
0000
0000
0000
1000
0000
0100
0000
1000
0100
1000
0100
,  // measure 15
1000
0010
1000
0000
0001
0010
0001
0000
,  // measure 16
2000
0000
0000
0000
,  // measure 17
0000
0000
0000
0000
,  // measure 18
0000
0000
0000
0000
,  // measure 19
0000
0000
0000
0000
,  // measure 20
0000
0000
0000
0000
,  // measure 21
0000
0000
0000
0000
,  // measure 22
0000
0000
0000
0000
,  // measure 23
0000
0000
0000
0000
,  // measure 24
3000
0000
0000
0000
0001
0001
0001
1000
,  // measure 25
0002
0000
0000
0000
,  // measure 26
0000
0000
0000
0000
,  // measure 27
0000
0000
0000
0000
,  // measure 28
0000
0000
0000
0000
,  // measure 29
2003
0000
0000
0000
,  // measure 30
0000
0000
0000
0000
,  // measure 31
3001
0100
0001
0100
0001
0100
0001
0100
0001
0100
0001
0100
0001
0100
0001
0100
,  // measure 32
0002
0000
0000
0000
0000
0000
0000
0000
0103
0000
0001
0100
0002
0000
0000
0000
,  // measure 33
0000
0000
0000
0003
,  // measure 34
1000
0010
0100
0000
0001
0100
0010
0000
,  // measure 35
1000
0000
0010
0000
0100
0000
0000
0000
0001
0000
0100
0000
0010
1000
0010
1000
,  // measure 36
0001
0010
0100
0000
1000
0100
0010
0000
,  // measure 37
0001
0000
0010
0000
0100
0000
0000
0000
1000
0000
0100
0000
0010
0001
0010
0001
,  // measure 38
1000
0010
0100
0000
0001
0100
0010
0000
,  // measure 39
1000
0000
0010
0000
0100
0000
0000
0000
0001
0000
0100
0000
0010
1000
0010
1000
,  // measure 40
0001
0010
0100
0000
1000
0100
0010
0000
,  // measure 41
0022
0000
0000
0033
,  // measure 42
0001
0100
0010
0000
1000
0010
0100
0000
,  // measure 43
0001
0000
0100
0000
0010
0000
0000
0000
1000
0000
0010
0000
0100
0001
0100
0001
,  // measure 44
1000
0100
0010
0000
0001
0010
0100
0000
,  // measure 45
1000
0000
0100
0000
0010
0000
0000
0000
0001
0000
0010
0000
0100
1000
0100
1000
,  // measure 46
0001
0000
0001
0000
0001
0000
0000
0000
1000
0100
1000
0100
1000
0100
0000
0000
,  // measure 47
1000
0000
1000
0000
1000
0000
0000
0000
0001
0100
0001
0100
0001
0100
0000
0000
,  // measure 48
0001
1000
0001
1000
0001
1000
0001
1000
0001
1000
0001
1000
0001
1000
0001
1000
,  // measure 49
0002
0000
0000
0003
,  // measure 50
1002
0010
1000
0100
,  // measure 51
1000
1003
0000
0000
,  // measure 52
2002
0000
0000
0000
,  // measure 53
3003
0000
0000
0000
,  // measure 54
0001
0000
1000
0000
,  // measure 55
0001
0000
0100
0000
,  // measure 56
0010
0000
1000
0000
,  // measure 57
0001
0000
1000
0000
,  // measure 58
0100
0000
0010
0000
,  // measure 59
0001
0000
0010
0000
,  // measure 60
0011
0000
0001
0000
,  // measure 61
1000
0000
0001
0000
,  // measure 62
1000
0000
0010
0000
,  // measure 63
1000
0000
0001
0000
,  // measure 64
0101
0000
0100
0000
,  // measure 65
0110
0000
0010
0000
,  // measure 66
1010
1001
1100
0110
,  // measure 67
0010
0000
0001
0000
0010
0000
0100
0000
1000
0100
1000
0100
2000
0000
0000
0000
,  // measure 68
3001
0100
0010
1000
0100
0010
0001
1000
,  // measure 69
0001
0000
0100
0000
0010
0000
1000
0000
0100
0000
0010
0000
0001
0100
0001
0100
,  // measure 70
0001
0100
0010
1000
0100
0010
0001
1000
,  // measure 71
0001
0000
0100
0000
0010
0000
1000
0000
0100
0000
0010
0000
0001
0100
0001
0100
,  // measure 72
0010
1000
0001
1000
0100
0010
0001
0100
,  // measure 73
0010
0000
0100
0000
0001
0000
1000
0000
0100
0000
0010
0000
0001
1000
0001
1000
,  // measure 74
0010
1000
0001
1000
0100
0010
0001
0100
,  // measure 75
0010
0000
0100
0000
0001
0000
1000
0000
0100
0000
0100
0000
0100
0000
1000
0100
,  // measure 76
1000
0010
0100
0001
0010
0100
1000
0001
,  // measure 77
1000
0000
0010
0000
0100
0000
0001
0000
0010
0000
0100
0000
1000
0010
1000
0010
,  // measure 78
1000
0010
0100
0001
0010
0100
1000
0001
,  // measure 79
1000
0000
0010
0000
0100
0000
0001
0000
0010
0000
0100
0000
1000
0010
1000
0010
,  // measure 80
0100
0001
1000
0001
0010
0100
1000
0010
,  // measure 81
0100
0000
0010
0000
1000
0000
0001
0000
0010
0000
0100
0000
1000
0001
1000
0001
,  // measure 82
0100
0001
1000
0001
0010
0100
1000
0010
,  // measure 83
2000
0000
0000
0000
,  // measure 84
0000
0000
0000
0000
,  // measure 85
0000
0000
0000
0000
,  // measure 86
0000
0000
0000
0000
,  // measure 87
0000
0000
0000
0000
,  // measure 88
0000
0000
0000
0000
,  // measure 89
0000
0000
0000
0000
,  // measure 90
0000
0000
0000
0000
,  // measure 91
3000
0000
0000
0000
0000
0000
0000
0000
0001
0000
1000
0000
0001
0000
1000
0010
,  // measure 92
0200
0000
0000
0000
,  // measure 93
0300
0000
0000
0000
;
