#TITLE:Designed World;
#SUBTITLE:;
#ARTIST:Alinut;
#TITLETRANSLIT:;
#SUBTITLETRANSLIT:;
#ARTISTTRANSLIT:;
#GENRE:;
#CREDIT:hooky;
#BANNER:Designed World.png;
#BACKGROUND:Designed World-bg.png;
#LYRICSPATH:;
#CDTITLE:;
#MUSIC:Designed World.ogg;
#OFFSET:0.000000;
#SAMPLESTART:55.993000;
#SAMPLELENGTH:15.000000;
#SELECTABLE:YES;
#DISPLAYBPM:150.000000;
#BPMS:0.000000=150.000000
;
#STOPS:171.979172=0.399991
;
#BGCHANGES:;
#KEYSOUNDS:;
#ATTACKS:;

//---------------dance-single - ----------------
#NOTES:
     dance-single:
     :
     Hard:
     8:
     0.507133,0.627929,0.087383,0.185689,0.196612,325.000000,317.000000,8.000000,17.000000,0.000000,0.000000,0.507133,0.627929,0.087383,0.185689,0.196612,325.000000,317.000000,8.000000,17.000000,0.000000,0.000000:
0000
0000
0000
0000
,
0000
0000
0000
0000
,
0000
0000
0000
0000
,
2000
0000
0000
3000
,
0200
0000
0000
0300
,
0020
0000
0000
0000
,
0000
0000
0000
0031
,
0200
0000
0000
0300
,
0002
0000
0000
0003
,
0020
0000
0000
0030
,
0100
0010
0100
1000
0010
0100
0010
0100
,
0110
0100
0000
0100
0000
0001
0000
0001
,
0010
0001
0000
1000
0000
0010
0000
1000
,
0010
1000
0000
0100
0000
0100
0010
0001
,
0100
0001
1000
0010
,
2100
0100
0100
3100
,
0012
0010
0010
0013
,
0201
0301
0201
0301
,
0010
0000
0001
0010
0100
1000
0010
0100
,
0010
0000
0000
0010
0100
0000
0001
0000
0010
0000
1000
0000
0010
0000
0001
0000
,
0100
0000
0000
0100
0010
0000
1000
0000
0100
0000
0001
0000
0100
0000
1000
0000
,
0010
0000
0000
0010
1000
0000
0100
0000
1000
0000
0010
0000
1000
0000
0100
0000
,
0010
0000
0000
0010
0001
0000
0100
0000
0010
0000
0100
0000
0001
0000
0100
0000
,
0010
1000
0010
1000
0010
1000
0010
1000
,
0100
1000
0100
1000
0100
1000
0100
1000
,
0001
0010
0100
1000
0010
0100
0001
1000
,
0002
0000
1000
2000
0000
3003
0110
0000
,
0010
0000
1000
0100
0000
0000
1000
0000
0010
0000
1000
0000
0100
0000
1000
0000
,
0010
0000
0100
0001
0000
0000
0010
0000
0001
0000
0100
0000
0001
0000
0010
0000
,
0100
0000
1000
0010
0000
0000
0100
0000
0001
0000
0010
0000
0001
0000
0100
0000
,
0010
0000
1000
0100
0000
0000
1000
0000
0001
0000
0010
0000
0001
0000
0100
0000
,
0010
0000
0100
0010
0000
0000
1000
0000
0100
0000
1000
0000
0010
0000
0100
0000
,
0001
0000
0010
0001
0000
0000
0100
0000
0010
0000
0100
0000
0001
0000
0010
0000
,
0001
0000
0100
0001
0000
0000
0010
0000
0001
0000
0100
0000
1000
0000
0100
0000
,
0001
0000
0001
0010
0000
0000
0001
0000
0100
0000
0010
0000
1000
0000
0100
0000
,
1000
0000
0010
1000
0000
0100
1000
0000
0010
0000
0100
0000
0001
0000
0010
0000
,
0001
0000
0100
0001
0000
0001
0010
0000
0001
0000
0100
0000
0010
0000
1000
0000
,
0100
0000
1000
0100
0000
0100
1000
0000
1000
0000
0010
0000
0100
0000
0001
0000
,
0001
0000
0010
0100
0000
0100
0010
0000
0001
0000
1000
0000
0001
0000
0001
0000
,
0100
0000
0010
1000
0000
0010
1000
0000
1000
0000
0100
0000
1000
0000
1000
0000
,
0010
0000
0100
0001
0000
0001
0010
0000
0001
0000
0100
0000
0001
0000
0001
0000
,
0100
0000
0010
0100
0000
0100
0001
0000
1000
0000
0010
0000
0100
0000
0100
0000
,
0001
0010
0100
1000
0100
0002
0000
0000
,
0103
0000
1000
0000
1000
0000
0010
0000
1000
0000
0100
0000
1000
0000
0010
1000
,
0000
1000
0100
0000
1000
0000
0010
0000
0100
0000
0001
0000
0010
0000
0001
0010
,
0000
0010
0001
0000
0001
0000
0100
0000
0010
0000
1000
0000
1000
0000
0100
0010
,
0000
0010
0100
0000
1000
0000
0001
0000
1000
0000
1000
0000
0010
0000
1000
0000
,
0010
1000
0010
0100
0010
0100
0001
0010
,
0001
0000
0010
0000
0001
0000
1000
0000
0001
0000
1000
0000
0010
0100
0010
0000
,
1000
0000
0100
0000
1000
0010
1000
0000
0001
0000
0001
0000
1010
0000
0010
0100
,
0000
0100
0001
0000
0000
0000
0001
0000
1000
0000
0100
0000
2200
0000
0000
0000
,
0000
0000
0300
0002
,
0000
0000
0003
0020
,
0000
0000
0000
0000
,
0000
0000
0000
3030
;

//---------------dance-single - ----------------
#NOTES:
     dance-single:
     :
     Medium:
     7:
     0.382301,0.508323,0.120152,0.174766,0.000000,245.000000,234.000000,11.000000,16.000000,0.000000,0.000000,0.382301,0.508323,0.120152,0.174766,0.000000,245.000000,234.000000,11.000000,16.000000,0.000000,0.000000:
0000
0000
0000
0000
,
0000
0000
0000
0000
,
0000
0000
0000
0000
,
2000
0000
0000
3000
,
0200
0000
0000
0300
,
0020
0000
0000
0000
,
0000
0000
0000
0031
,
0200
0000
0000
0300
,
0002
0000
0000
0003
,
0020
0000
0000
0000
,
0000
0000
0000
0030
,
0100
1000
0000
0010
0000
1000
0000
0100
,
0000
1000
0000
0010
0000
0100
0000
0001
,
0000
0010
0000
0001
0000
0100
0000
0001
,
0000
0010
0000
0001
0000
1000
0000
0001
,
0100
0001
0000
0100
0000
0100
0000
0010
,
1000
0010
0000
1000
0000
1000
0000
0100
,
1000
0100
0000
0010
0100
0010
0000
0001
,
0100
0001
0010
0001
0100
0001
1000
0010
,
0100
0001
0100
0000
0001
0010
0001
0000
,
0100
0010
0100
0000
0010
1000
0010
0000
,
1000
0100
1000
0000
0010
0100
0001
0000
,
0010
0100
1000
0000
0001
1000
0001
0100
,
0020
0100
0100
0130
,
0002
0010
0010
0013
,
0200
1000
1000
1300
,
0010
0000
0100
0010
0000
0100
0000
0000
,
0011
0000
1100
0000
1000
0010
0100
0000
,
0110
0000
0011
0000
1000
0010
0100
0000
,
0101
0000
0110
0000
1000
0100
1000
0000
,
0010
0100
0001
0000
0010
0001
0100
0000
,
0010
1000
0100
0000
1000
0001
1000
0000
,
0010
0100
0001
0000
0001
0100
1000
0000
,
1000
0100
0001
0000
0001
0100
0010
0000
,
1000
0100
1000
0000
0010
0100
0001
0001
,
2000
0000
3010
0000
0010
0100
0100
0000
,
0002
0000
0103
0000
0010
0010
0100
0000
,
0001
0010
0100
0000
1000
0010
0100
0001
,
1000
0000
1000
0000
0010
0100
0010
0000
,
0100
0001
0010
0001
0100
0000
0100
0000
,
0010
1000
0100
1000
0010
0000
0010
0000
,
0010
1000
0100
1000
0001
0000
0001
0000
,
0100
0010
1000
0000
1001
0000
1001
0000
,
0110
0000
0010
1000
0100
0000
1000
0010
,
0100
0000
0100
0001
0010
0000
0001
0100
,
0001
0010
0001
0100
0010
1000
0100
1000
,
1000
0010
0100
0100
0001
0000
1000
0100
,
1000
0100
1000
0100
1000
0000
0010
0100
,
0010
0100
0010
0100
0010
0000
0100
0001
,
0010
0001
1000
0010
0100
0001
2001
0000
,
0001
0100
3010
0220
,
0000
0000
0030
2000
,
0000
0000
3000
0002
,
0000
0000
0000
0000
,
0000
0000
0000
0303
;

//---------------dance-single - ----------------
#NOTES:
     dance-single:
     :
     Easy:
     4:
     0.259028,0.299014,0.021846,0.229380,0.000000,166.000000,164.000000,2.000000,21.000000,0.000000,0.000000,0.259028,0.299014,0.021846,0.229380,0.000000,166.000000,164.000000,2.000000,21.000000,0.000000,0.000000:
0000
0000
0000
0000
,
0000
0000
0000
0000
,
0000
0000
0000
0000
,
2000
0000
0000
3000
,
0200
0000
0000
0300
,
0020
0000
0000
0000
,
0000
0000
0000
0031
,
0002
0000
0000
0003
,
0200
0000
0000
0300
,
0020
0000
0000
0000
,
0000
0000
0000
0030
,
1000
0100
0000
1000
0000
0010
0000
0100
,
0000
0001
0000
0010
0000
0001
0000
0100
,
0000
0001
0000
1000
0000
0010
0000
0100
,
0000
0010
0000
1000
0000
0001
0000
0100
,
0002
1000
1003
0000
,
2000
0001
3001
0000
,
0020
0130
0200
0310
,
0001
1000
0010
0100
,
0001
1000
0001
0001
,
0100
0010
1000
1000
,
0100
1000
0010
0010
,
0100
0001
0010
0010
,
0200
1000
1000
1300
,
0002
0100
0100
0103
,
0020
0100
0100
0130
,
0001
0000
0010
0001
0000
0100
0000
0000
,
0010
1000
0100
0100
,
1000
0010
0100
0100
,
0001
0010
0100
0100
,
1000
0001
0100
0100
,
0001
0010
0001
0001
,
1000
0010
1000
1000
,
0100
1000
0010
0010
,
0100
0001
0010
0010
,
0001
1000
0001
0010
,
0100
1000
0010
0100
,
0001
0010
0001
0100
,
0010
1000
0100
1000
,
0010
0010
0100
0001
,
0100
0100
0010
1000
,
0100
1000
0010
0100
,
0001
0010
0001
0100
,
0110
0010
1000
0100
,
1000
0010
0100
0001
,
0010
0001
1000
0010
,
0010
0100
0100
0002
,
0010
0013
0000
0200
,
1000
1300
0000
0020
,
0000
0200
0330
0001
,
0010
0100
1000
2020
,
0000
0000
3000
0002
,
0000
0000
0003
0200
,
0000
0000
0000
0000
,
0000
0000
0000
0330
;

//---------------dance-single - ----------------
#NOTES:
     dance-single:
     :
     Beginner:
     2:
     0.129514,0.172854,0.021846,0.043691,0.000000,83.000000,81.000000,2.000000,4.000000,0.000000,0.000000,0.129514,0.172854,0.021846,0.043691,0.000000,83.000000,81.000000,2.000000,4.000000,0.000000,0.000000:
// measure 0
0000
0000
0000
0000
,  // measure 1
0000
0000
0000
0000
,  // measure 2
0000
0000
0000
0000
,  // measure 3
1000
0000
0000
0000
,  // measure 4
0100
0000
0000
0000
,  // measure 5
0010
0000
0000
0000
,  // measure 6
0000
0000
0000
0001
,  // measure 7
0001
0000
0000
0000
,  // measure 8
0100
0000
0000
0000
,  // measure 9
0010
0000
0000
0000
,  // measure 10
0000
0000
0000
0000
,  // measure 11
1000
0000
0000
0000
,  // measure 12
0100
0000
0000
0000
,  // measure 13
1000
0000
0010
0000
,  // measure 14
0100
0000
0000
0000
,  // measure 15
0001
0000
0000
0000
,  // measure 16
1000
0000
0000
0000
,  // measure 17
0001
0000
0000
0000
,  // measure 18
0010
0000
0001
0000
,  // measure 19
1000
0000
1000
0000
,  // measure 20
0001
0000
0001
0000
,  // measure 21
1000
0000
0001
0000
,  // measure 22
0100
0000
0100
0000
,  // measure 23
0010
0000
0000
0000
,  // measure 24
0100
0000
0000
0000
,  // measure 25
0001
0000
1000
0000
,  // measure 26
2002
0000
0000
3003
,  // measure 27
0100
0000
0100
0000
,  // measure 28
0010
0000
0010
0000
,  // measure 29
0100
0000
0100
0000
,  // measure 30
0010
0000
0010
0000
,  // measure 31
1000
0000
0001
0000
,  // measure 32
1000
0000
1000
0000
,  // measure 33
0001
0000
1000
0000
,  // measure 34
0001
0001
0001
0000
,  // measure 35
0010
0000
0001
0000
,  // measure 36
0100
0000
0010
0000
,  // measure 37
1000
0000
0100
0000
,  // measure 38
1000
1000
1000
0000
,  // measure 39
0010
0000
0100
0000
,  // measure 40
0001
0000
0010
0000
,  // measure 41
0100
0000
1000
0000
,  // measure 42
0010
0010
0010
0000
,  // measure 43
0000
0100
0000
0010
,  // measure 44
0000
1000
0000
0100
,  // measure 45
0000
0100
0000
1000
,  // measure 46
0000
1000
0000
0002
,  // measure 47
0000
0000
0003
0200
,  // measure 48
0000
0000
0300
0010
,  // measure 49
0000
1000
0000
0100
,  // measure 50
0000
1000
0000
1001
,  // measure 51
0000
0000
0000
0100
,  // measure 52
0000
0000
0000
0010
;
