#TITLE:Borealis;
#SUBTITLE:;
#ARTIST:ginkiha;
#TITLETRANSLIT:;
#SUBTITLETRANSLIT:;
#ARTISTTRANSLIT:;
#GENRE:FLURRYCORE;
#CREDIT:;
#BANNER:[Voiceless Week] - Borealis.png;
#BACKGROUND:;
#LYRICSPATH:;
#CDTITLE:IAN-cdtitle.png;
#MUSIC:[Voiceless Week] - Borealis.ogg;
#OFFSET:0.750000;
#SAMPLESTART:20.066000;
#SAMPLELENGTH:15.000000;
#SELECTABLE:YES;
#DISPLAYBPM:196.000000;
#BPMS:0.000000=196.000000
,100.000000=392.000000
,102.000000=196.000000
,103.000000=98.000000
,103.500000=49.000000
,103.750000=196.000000
;
#STOPS:103.750000=0.542000
;
#BGCHANGES:;
#KEYSOUNDS:;
#ATTACKS:;

//---------------dance-single - ----------------
#NOTES:
     dance-single:
     :
     Hard:
     10:
     0.816630,1.106921,0.067650,0.211406,0.334021,676.000000,668.000000,8.000000,25.000000,0.000000,0.000000,0.816630,1.106921,0.067650,0.211406,0.334021,676.000000,668.000000,8.000000,25.000000,0.000000,0.000000:
// measure 0
0000
0000
0000
0000
,  // measure 1
0000
0000
0000
0000
,  // measure 2
0000
0000
0000
0000
,  // measure 3
0000
0000
0000
0000
,  // measure 4
0000
0000
0000
0000
,  // measure 5
0002
0000
0000
0000
,  // measure 6
0203
0000
0000
0000
,  // measure 7
0320
0000
0000
0000
,  // measure 8
2030
0000
3100
0110
,  // measure 9
0001
0010
0100
0010
1000
0010
0001
0000
,  // measure 10
1000
0100
0010
0100
0001
0100
1000
0000
,  // measure 11
0001
0100
0010
0100
1000
0100
0001
0000
,  // measure 12
1000
0010
0100
0010
0001
0010
1000
0000
,  // measure 13
0001
0100
0100
1000
0100
0100
0001
0010
,  // measure 14
0010
1000
0010
0010
0001
0010
0100
0010
,  // measure 15
0001
0000
0100
0010
1000
0100
0010
0001
,  // measure 16
0100
0010
0100
0000
0010
0100
0110
0000
,  // measure 17
0001
0100
0010
1000
0100
0010
0001
0010
,  // measure 18
0100
1000
0010
1000
0010
0100
0001
0100
,  // measure 19
0002
0000
0010
0000
1000
0000
0103
0010
,  // measure 20
2000
0000
0010
0000
0001
0000
3100
0010
,  // measure 21
0001
0010
0100
1000
0010
0100
0001
0010
,  // measure 22
0100
1000
0100
1000
0001
0100
0001
0100
,  // measure 23
0020
0000
1000
0000
0100
0000
0031
0010
,  // measure 24
0200
1000
0010
0301
,  // measure 25
2002
0000
0000
0000
0000
0000
0000
0000
0000
0000
0000
0000
0000
0000
0000
3003
,  // measure 26
1000
0100
0010
0001
0100
0010
1000
0100
0010
0000
0001
0000
0010
0000
0001
0000
,  // measure 27
1000
0010
1000
0010
0100
0001
0010
0100
,  // measure 28
1000
0010
0001
1000
0100
0001
0100
0010
,  // measure 29
1000
0100
0010
0001
0200
0000
0000
1300
,  // measure 30
0100
0001
0010
0100
1000
0001
0100
0100
,  // measure 31
1000
0100
0100
0001
0010
0100
0001
0100
,  // measure 32
0010
1000
0010
0001
0100
0010
1000
0100
,  // measure 33
0010
0001
0100
1000
0100
0000
0100
0001
,  // measure 34
1000
0001
0010
0000
1000
0010
0100
0010
,  // measure 35
1000
0100
0001
0200
0000
1300
0100
0010
,  // measure 36
0000
0001
0100
0010
0100
0001
0010
0100
,  // measure 37
1000
0100
0010
0001
0200
0000
1300
0100
,  // measure 38
0001
0010
0100
0010
0100
1000
0010
0100
,  // measure 39
0001
0010
0100
1000
0001
0010
0100
1000
,  // measure 40
0100
0010
0100
1000
0001
0100
0010
0100
,  // measure 41
0001
1000
0100
0010
0001
0010
0100
1000
,  // measure 42
0001
0010
0100
0010
0001
0100
0010
1000
,  // measure 43
0100
0000
0010
0000
0001
0000
1000
0010
1000
0000
0010
0000
0100
0000
0001
0000
,  // measure 44
0010
0000
0100
1000
0000
1000
0010
0000
0100
0000
0001
0000
0100
0000
0010
0000
,  // measure 45
1000
0000
0100
0000
0010
0000
0001
0010
0001
0000
0010
0000
0100
0000
1000
0000
,  // measure 46
0010
0000
0100
0001
0000
0001
0010
0000
0100
0000
1000
0000
0100
0000
0010
0000
,  // measure 47
0100
0000
1000
0000
0010
0000
0100
0001
0100
0000
0001
0000
0010
0000
0100
0000
,  // measure 48
0010
0000
0001
0010
0000
0100
0010
0000
0001
0000
0100
0000
0010
0000
0100
0000
,  // measure 49
0001
0000
0010
0000
0100
0000
0010
0001
0010
0000
0100
0000
1000
0000
0010
0000
,  // measure 50
1000
0000
0100
1000
0000
0100
0010
0000
0100
0000
1000
0000
0010
0000
0100
0000
,  // measure 51
0001
0000
0010
0000
0100
0000
1000
0100
1000
0000
0010
0000
0100
0000
0001
0000
,  // measure 52
0010
0000
0100
0010
0000
0100
1000
0000
0010
0000
0100
0000
0001
0000
0010
0000
,  // measure 53
0100
0000
1000
0000
0010
0000
0100
0001
0100
0000
0010
0000
1000
0000
0100
0000
,  // measure 54
0010
0000
0001
0010
0000
0100
0010
0000
0001
0000
0010
0000
0100
0000
1000
0000
,  // measure 55
0001
0100
0010
1000
0100
0010
0001
1000
,  // measure 56
0010
0000
0100
0000
0001
0000
0010
0000
0100
1000
0100
1000
0001
0100
0001
0100
,  // measure 57
0010
1000
0010
1000
0001
0010
0001
0010
0200
0000
0000
0000
0000
0000
0000
0000
,  // measure 58
1300
0100
1000
0000
0001
0010
0100
1000
0001
0000
0000
0000
1001
0000
1000
0000
,  // measure 59
0010
0100
0001
1000
0100
0010
0001
0010
,  // measure 60
0100
1000
0001
1000
0010
0100
0001
0100
,  // measure 61
0010
1000
0100
0010
0001
0100
0010
1000
,  // measure 62
0100
0001
0100
1000
0001
0100
0001
0100
,  // measure 63
0010
1000
0010
1000
0100
1000
0100
0010
,  // measure 64
0001
0010
0001
0100
0010
1000
0100
0010
,  // measure 65
0001
0010
0100
1000
0010
0100
0001
1000
,  // measure 66
0100
0010
0001
0100
1000
0100
0001
0010
,  // measure 67
0100
1000
0100
1000
0001
0100
0001
0100
,  // measure 68
0010
0100
0001
1000
0001
0010
0100
1000
,  // measure 69
0001
0100
0010
1000
0010
0100
0001
1000
,  // measure 70
0100
0010
0001
0100
0010
0010
1000
1000
,  // measure 71
0001
0001
0100
0100
0001
0001
1000
1000
,  // measure 72
0100
0000
0100
0000
0010
0000
0010
0000
0001
0010
0100
1000
0010
0100
0001
0100
,  // measure 73
0010
1000
0100
0010
0100
1000
0001
0100
0020
0000
0000
0000
0000
0000
0000
0000
,  // measure 74
0130
0000
0110
0000
2002
3003
0100
1000
,  // measure 75
0010
1000
0100
0010
0001
0100
0010
0100
0001
0100
0010
0100
0001
0010
0100
1000
,  // measure 76
0010
0000
0100
0000
0001
0000
1000
0000
0100
0010
0001
0000
0010
0100
1000
0001
,  // measure 77
0100
0000
0000
0010
0000
0000
0100
0000
0000
0001
0000
0000
0010
0000
0000
0100
0000
0000
1000
0000
0000
0010
0000
0000
0100
0000
0000
0000
0001
0000
0000
0000
1000
0000
0000
0000
0100
0000
0000
0000
0010
0000
0000
0000
0001
0000
0000
0000
,  // measure 78
0100
0010
1000
0001
0010
0000
0100
1000
,  // measure 79
0100
0000
0010
0001
0100
0010
0100
0001
0010
0100
1000
0100
0010
0001
1000
0010
,  // measure 80
0100
0001
0010
0100
1000
0010
0100
0001
1000
0000
0100
0000
0010
0000
0000
0000
,  // measure 81
0001
0010
0100
0000
0001
1000
0001
1000
,  // measure 82
1002
0000
0100
0000
0013
0100
1000
0001
,  // measure 83
0100
0010
1000
0100
0001
1000
0010
0001
,  // measure 84
0100
0010
1000
0001
0200
0000
1000
0000
,  // measure 85
0010
0000
0301
1000
0020
0000
0001
0000
,  // measure 86
1000
0000
0230
0000
1300
0100
0001
0010
,  // measure 87
0100
1000
0001
0010
0100
1000
0001
0100
,  // measure 88
0010
0000
1000
0000
0100
0000
0010
0000
0100
1000
0001
0100
0010
1000
0100
0010
,  // measure 89
0001
0010
0100
1000
0010
0100
0001
0010
0200
0000
0000
0000
0000
0000
0000
0000
,  // measure 90
0020
0330
2002
0000
,  // measure 91
0000
0000
0000
0000
,  // measure 92
0000
0000
0000
0000
,  // measure 93
0000
0000
3003
0000
;

//---------------dance-single - ----------------
#NOTES:
     dance-single:
     :
     Medium:
     7:
     0.525494,0.672059,0.050737,0.202950,0.038053,435.000000,429.000000,6.000000,24.000000,0.000000,0.000000,0.525494,0.672059,0.050737,0.202950,0.038053,435.000000,429.000000,6.000000,24.000000,0.000000,0.000000:
0000
0000
0000
0000
,
0000
0000
0000
0000
,
0000
0000
0000
0000
,
0000
0000
0000
0000
,
0000
0000
0000
0000
,
2000
0000
0000
0000
,
3200
0000
0000
0000
,
0320
0000
0000
0000
,
0032
0000
0010
0010
,
0013
0000
0100
0000
1000
0001
1000
0000
,
0100
0000
0010
0000
0001
1000
0001
0000
,
0100
0000
0010
0000
1000
0100
1000
0000
,
0100
0000
0010
0000
0001
0100
0001
0000
,
0100
0010
0100
0010
1000
0001
1000
0001
,
0010
0100
0010
0100
1000
0001
1000
0001
,
0100
0000
0010
0000
1000
0100
1000
0000
,
0001
0100
0001
0000
0010
0100
1000
0000
,
0001
0010
1000
0100
,
1000
0010
0001
1000
,
0002
0000
1000
0000
1000
0000
0013
0100
,
2000
0001
0001
3010
,
1000
0100
0001
0010
,
0001
0100
1000
0010
,
0200
0000
0010
0000
0010
0000
0301
1000
,
0020
0100
0100
1030
,
2002
0000
0000
0000
0000
0000
0000
0000
0000
0000
0000
0000
0000
0000
0000
3003
,
0100
0100
0100
0100
0010
1000
0010
0000
,
0100
0001
0100
0000
0010
1000
0100
0010
,
0001
0010
0100
1000
0010
0000
0100
0010
,
0100
0000
0010
1000
0200
0000
0000
0000
,
0010
0000
0010
0000
0301
0100
1000
0000
,
1000
0010
0000
0100
0001
0000
0001
0010
,
0000
0100
1000
0100
1000
0000
0010
0000
,
0100
0001
0100
0000
0020
0000
0000
0000
,
0100
0000
0100
0000
0031
0010
1000
0000
,
0100
1000
0100
0000
0010
0001
0100
0010
,
0000
1000
0100
0010
1000
0010
0001
0000
,
0100
0010
0100
0000
0002
0000
0000
0000
,
1000
0000
1003
0000
0100
0010
0001
0000
,
0010
0100
0010
0000
0100
1000
0100
0010
,
0000
0010
0001
0100
0010
0100
1000
0100
,
0010
1000
0100
0010
0100
0000
0001
1000
,
0001
0000
0110
0000
1000
0001
0100
0000
,
0010
0000
0000
0010
0000
0000
0010
0000
0000
0000
1000
0000
0100
0000
0000
0000
,
0010
0000
0000
0001
0000
0000
1000
0000
0000
0000
0001
0000
0010
0000
0000
0000
,
0100
0000
0000
0100
0000
0000
0100
0000
0000
0000
1000
0000
0010
0000
0000
0000
,
0100
0000
0000
0001
0000
0000
0010
0000
0000
0000
0100
0000
1000
0000
0000
0000
,
0001
0000
0000
0001
0000
0000
0001
0000
0000
0000
0100
0000
0010
0000
0000
0000
,
1000
0000
0000
0100
0000
0000
0010
0000
0000
0000
0010
0000
0100
0000
0000
0000
,
1000
0000
0000
1000
0000
0000
1000
0000
0000
0000
0001
0000
0100
0000
0000
0000
,
0010
0000
0000
0100
0000
0000
0010
0000
0100
0000
0001
0000
0010
0000
0000
0000
,
0100
1000
0100
1000
0000
0001
0100
0000
,
0010
1000
0010
1000
0100
0010
0001
0000
,
0010
0001
0010
0001
0000
1000
0010
0000
,
0100
0001
0100
0001
1000
0000
1000
0000
,
0001
0001
0010
0010
,
0100
0100
2000
0000
,
0002
3003
1001
0000
,
0010
0100
0010
0100
0001
0000
1001
0000
,
1000
0010
0100
0001
,
0010
0100
1000
0100
,
0010
0001
1000
0010
,
0100
0001
1000
1000
,
0100
0010
0001
0000
0100
0000
0100
0000
,
0010
1000
0010
0000
1000
0100
0010
0000
,
0001
0010
0100
0000
1000
0000
0001
0000
,
0100
0010
0100
0000
0010
1000
0010
1000
,
0000
0001
0010
0000
0100
1000
0100
1000
,
0000
0001
0100
0000
0001
0010
0001
0010
,
0000
0100
1000
0000
0001
0100
0001
0100
,
0000
0010
1000
0000
0100
0000
0100
0000
,
0010
0010
0001
0001
,
1000
0000
1000
0000
0100
0010
0001
1000
,
0100
0010
0001
1000
0200
0000
0000
0000
,
0010
0310
1001
0100
,
0010
1000
0100
1000
0010
1000
0100
0010
,
0001
0010
0100
0010
0001
0100
0010
0100
,
0010
0000
1000
0000
0001
0010
0100
1000
,
0010
0000
0000
0100
0000
0000
0001
0000
1000
0000
0100
0000
0010
0000
0000
0000
,
0100
0010
0001
0000
0001
0100
0010
0000
,
0010
1000
0100
0000
0020
0000
0001
0000
,
0001
0031
0200
1000
,
1000
0010
0310
0001
,
0010
0000
0100
0000
1000
0100
1000
0000
,
0001
0100
0001
0000
0020
0000
0100
0000
,
0100
0130
2000
0001
,
0001
3001
1000
0100
,
0010
0000
0001
0000
0100
0001
0100
0000
,
0010
1000
0010
0000
0200
0000
0010
0000
,
0010
0310
0002
1000
,
1000
1003
2002
0000
,
0000
0000
0000
0000
,
0000
0000
0000
0000
,
0000
0000
3003
0000
;

//---------------dance-single - ----------------
#NOTES:
     dance-single:
     :
     Easy:
     4:
     0.315297,0.355796,0.008456,0.245231,0.000000,261.000000,260.000000,1.000000,29.000000,0.000000,0.000000,0.315297,0.355796,0.008456,0.245231,0.000000,261.000000,260.000000,1.000000,29.000000,0.000000,0.000000:
0000
0000
0000
0000
,
0000
0000
0000
0000
,
0000
0000
0000
0000
,
0000
0000
0000
0000
,
0000
0000
0000
0000
,
2000
0000
3000
0000
,
2000
0000
3000
0000
,
0002
0000
0003
0000
,
0002
0000
0103
0010
,
1000
0000
0010
0000
,
0100
0000
0001
0000
,
0010
0000
0010
0000
,
0100
0000
0100
0000
,
1000
1000
1000
0000
,
0001
0001
0001
0000
,
0100
0010
0100
0010
,
1000
0001
1000
0001
,
0100
0010
1000
0100
,
0010
0001
0010
0100
,
2000
0000
0000
0000
,
3002
0000
0000
0000
,
0013
0100
1000
0001
,
0100
0010
1000
0010
,
0200
0000
0000
0000
,
0320
0000
0000
0000
,
0130
0000
0000
0000
,
2000
3002
0013
0100
,
1000
0001
0100
0100
,
0010
0010
1000
0100
,
0010
0001
0020
0000
,
0100
0130
1000
0001
,
1000
0001
0100
0010
,
0100
0010
1000
0100
,
0001
0100
1000
0010
,
0001
0010
1000
0100
,
0010
0001
0010
0000
,
0010
0000
0100
1000
,
0001
0100
0002
0000
,
1000
1000
0013
0010
,
0001
0001
0100
0100
,
1000
1000
0001
0100
,
0001
0010
0200
0000
,
1000
1300
0010
0001
,
0100
0100
0010
1000
,
0001
1000
1000
0100
,
0010
0001
0001
0010
,
0100
0100
1000
0010
,
0100
0100
0001
0010
,
1000
1000
0010
0001
,
0100
0100
0010
1000
,
0001
0001
0010
0100
,
1000
0001
1000
0010
,
0100
0001
0100
0010
,
1000
0100
1000
0010
,
0100
0010
0100
0001
,
0010
0100
0010
0100
,
1000
0100
2000
0000
,
3002
0000
0103
0000
,
0100
0010
0110
0000
,
1000
0000
1000
0000
,
0001
0000
0001
0000
,
0100
0000
0100
0000
,
0010
0000
0010
0000
,
1000
0000
0100
0000
,
0010
0000
0001
0000
,
0100
0000
0010
0000
,
1000
0000
0100
1000
,
0100
0000
0010
0001
,
0010
0000
0100
0001
,
0100
0000
0010
1000
,
0010
0000
1000
1000
,
0100
0100
0010
0010
,
0001
0001
0200
0000
,
0320
0000
0130
0000
,
2000
3002
0023
0000
,
0130
1000
0001
0100
,
0010
1000
0100
0010
,
0001
0010
0100
0100
,
0010
0010
0001
1000
,
0010
0100
0001
0001
,
1000
1000
0020
0000
,
0230
0000
0302
0000
,
2003
0000
3100
0000
,
0100
0000
0100
0010
,
0001
1000
0020
0000
,
0000
0000
0230
0000
,
0000
0000
0310
1000
,
0100
0010
0001
0001
,
1000
1000
0002
0000
,
0000
0000
2003
0000
,
0010
0010
3020
0000
,
0000
0000
0000
0000
,
0000
0000
0000
0000
,
0000
0000
0030
0000
;
