#TITLE:Bad Time;
#SUBTITLE:;
#ARTIST:源屋;
#TITLETRANSLIT:;
#SUBTITLETRANSLIT:;
#ARTISTTRANSLIT:Minamotoya;
#GENRE:;
#CREDIT:;
#BANNER:[Voiceless Week] - Bad Time.png;
#BACKGROUND:[Voiceless Week] - Bad Time-bg.png;
#LYRICSPATH:;
#CDTITLE:cdtitle.png;
#MUSIC:[Voiceless Week] - Bad Time.ogg;
#OFFSET:-0.036000;
#SAMPLESTART:65.864571;
#SAMPLELENGTH:10.971428;
#SELECTABLE:YES;
#BPMS:0.000000=175.000000
;
#STOPS:
;
#BGCHANGES:;
#KEYSOUNDS:;
#ATTACKS:;

//---------------dance-single - ----------------
#NOTES:
     dance-single:
     :
     Hard:
     9:
     0.699851,1.109197,0.033612,0.731062,0.348725,583.000000,579.000000,4.000000,87.000000,0.000000,0.000000,0.699851,1.109197,0.033612,0.731062,0.348725,583.000000,579.000000,4.000000,87.000000,0.000000,0.000000:
0000
0000
0000
0000
,
0000
0000
0000
0000
,
0000
0000
0000
0000
,
0000
0000
0000
0000
,
1000
0000
0001
0100
0001
0000
0010
0000
,
0100
0000
1000
0000
0010
0000
0000
0000
0100
0000
0000
0001
1000
0000
0010
0000
,
0100
0000
0001
0010
0001
0000
0100
0000
,
0010
0000
1000
0000
0001
0000
1000
0000
1000
0000
0000
0100
0000
0000
0010
0000
,
0001
1000
0001
0100
0010
0000
2000
0000
,
3002
0000
0013
0100
2000
0000
3010
0100
,
0002
0000
1003
0100
0010
0000
0001
0100
,
0020
0000
1030
0001
0100
1000
0100
0001
,
0010
0100
0010
0100
1000
0010
1000
0010
,
1000
0100
1000
0100
0010
0001
0010
0001
,
0100
0010
1000
0001
0100
0010
1000
0001
,
0020
0230
2300
3002
,
0103
0010
1000
0010
0200
0000
0302
0000
,
2003
3200
0320
0032
,
0203
0000
1300
0100
0002
0000
1003
0010
,
0200
0302
0023
0230
,
1300
0100
0010
0100
2000
0000
3020
0000
,
0230
0302
2003
3200
,
0320
0000
1030
0010
0002
0000
1003
0010
,
0200
0302
0023
0230
,
1300
0001
1000
0001
1000
0010
1000
0010
,
1000
0100
1000
0100
0010
0001
0010
0001
,
0100
0001
0100
0001
1000
0001
1000
0001
,
1000
0010
1000
0010
0100
0001
0100
0001
,
1000
0001
1000
0001
1000
0001
1000
0001
1000
0010
1000
0010
1000
0010
1000
0010
,
1000
0001
1000
0001
1000
0001
1000
0001
0010
0001
0010
0001
0010
0001
0010
0001
,
1000
1000
0001
0001
0100
0100
0010
0010
,
1010
1001
0011
1001
,
1000
0000
0100
0000
0020
0000
0001
0000
0031
0000
0000
0001
0200
0000
0310
0000
,
0100
0000
0000
0000
0002
0000
1000
0000
1003
0000
0000
1000
0200
0000
0310
0000
,
0100
0000
0000
0000
2000
0000
0010
0000
3010
0000
0000
0010
0200
0000
0301
0000
,
0100
0000
0000
0000
0002
0000
1000
0000
1003
0000
0100
0020
0000
0000
0130
0000
,
0100
0000
1000
0000
0020
0000
0100
0000
0130
0000
0000
0100
0002
0000
0013
0000
,
0001
0000
0000
0000
2000
0000
0100
0000
3100
0000
0010
0100
0000
0000
0100
0010
,
0001
0000
0000
0000
0200
0000
0010
0000
0310
0000
0000
0010
2000
0000
3001
0000
,
1000
0000
0200
0010
0310
0200
1000
1300
,
0100
0010
0100
0010
0001
1000
0001
1000
,
0010
1000
0010
1000
0100
1000
0100
1000
,
0010
0100
0010
0100
0001
0010
0001
0010
,
0100
1000
0100
1000
0010
0100
0010
0100
,
0001
1000
0001
1000
0001
1000
0001
1000
0010
1000
0010
1000
0010
1000
0010
1000
,
0001
1000
0001
1000
0001
1000
0001
1000
0001
0100
0001
0100
0001
0100
0001
0100
,
0001
0001
1000
1000
0010
0010
0100
0100
,
0002
0000
0023
0000
0230
2000
0000
0300
,
3001
0010
0100
1000
0020
0000
0230
0000
,
0302
0023
0230
2300
,
3020
0000
0031
0010
2000
0000
3100
0010
,
0002
0203
0320
2030
,
3100
0010
0001
1000
0020
0000
0230
0000
,
0302
0023
0230
2300
,
3200
0000
0301
0100
2000
0000
3010
0100
,
0002
0000
0000
0000
2003
0000
0000
0000
3020
0000
0030
0100
0010
0000
1000
0000
,
0001
0100
1000
0100
0002
0000
0023
0000
,
0230
2300
3020
0032
,
0023
0000
1030
0100
0020
0000
1030
0010
,
0002
0203
0320
2030
,
3001
0010
1000
0010
0001
0010
1000
0010
,
0001
0100
1000
0100
0001
0100
1000
0100
,
0001
0010
0001
0010
0001
0010
0001
0010
0100
1000
0100
1000
0100
1000
0100
1000
,
0010
1000
0010
1000
0010
1000
0010
1000
0001
0100
0001
0100
0001
0100
0001
0100
,
0001
0000
0010
0000
0001
0000
0100
0000
0001
0000
0000
0001
0100
0000
0010
0000
,
0100
0000
0001
0000
0100
0000
0010
0000
0100
0000
0000
0100
0010
0000
1000
0000
,
0010
0000
0100
0000
0010
0000
1000
0000
0010
0000
0000
0010
1000
0000
0001
0000
,
1000
0000
0010
0000
1000
0000
0100
0000
1000
0000
0000
1000
0001
0000
0100
0000
,
0001
0000
0010
0000
0001
0000
0100
0000
0001
0000
0000
0001
0100
0000
0010
0000
,
0100
0000
0001
0000
0100
0000
0010
0000
0100
0000
0000
0100
0010
0000
1000
0000
,
0010
0000
0100
0000
0010
0000
1000
0000
0010
0000
0000
0010
1000
0000
0001
0000
,
1000
0000
0100
0000
1000
0000
0010
0000
1000
0000
0000
1000
0001
0000
0100
0000
,
0001
0000
0010
0000
1000
0000
0010
0000
0001
0000
0000
0001
0100
0000
1000
0000
,
0100
0000
0001
0000
0100
0000
1000
0000
0100
0000
0000
0100
0010
0000
0001
0000
,
0010
0000
1000
0000
0010
0000
0001
0000
0010
0000
0000
0010
1000
0000
0001
0000
,
1000
0000
0100
0000
0001
0000
0100
0000
1000
0000
0000
1000
0010
0000
0001
0000
,
0010
1000
0010
0001
0010
1000
0010
0001
,
1000
0100
0001
0100
1000
0100
0001
0100
,
0010
1000
0010
1000
0010
1000
0010
1000
0001
1000
0001
1000
0001
1000
0001
1000
,
0010
0100
0010
0100
0010
0000
0010
0000
0010
0000
0100
0000
0001
1000
0001
1000
,
0001
0000
0000
0000
;

//---------------dance-single - ----------------
#NOTES:
     dance-single:
     :
     Medium:
     6:
     0.558200,0.571405,0.025209,0.630226,0.063023,465.000000,462.000000,3.000000,75.000000,0.000000,0.000000,0.558200,0.571405,0.025209,0.630226,0.063023,465.000000,462.000000,3.000000,75.000000,0.000000,0.000000:
0000
0000
0000
0000
,
0000
0000
0000
0000
,
0000
0000
0000
0000
,
0000
0000
0000
0000
,
1000
0001
1000
0001
,
0100
0000
0000
0000
0001
0000
0000
0000
0100
0000
0000
0100
0010
0000
1000
0000
,
0100
0010
0100
0010
,
0001
0000
0000
0000
0010
0000
0000
0000
0001
0000
0000
0001
0100
0000
0010
0000
,
0100
0001
0100
0002
,
1000
0103
0200
0010
,
0302
1000
0013
0020
,
0100
0000
0130
0000
1000
0100
0010
0001
,
1000
0001
1000
0001
0100
0001
0100
0001
,
0010
0001
0010
0001
1000
0001
1000
0001
,
0100
0010
1000
0001
0100
0010
1000
0001
,
2000
3200
0320
0032
,
0103
0010
0100
0010
2000
0000
3002
0000
,
2003
3020
0230
0302
,
0023
0000
0130
1000
0200
0000
1300
0010
,
2000
3002
0203
0320
,
1030
0001
1000
0001
0020
0000
0230
0000
,
2300
3002
0023
0230
,
2300
0000
3001
0010
0002
0000
0103
0010
,
0200
0302
2003
3020
,
0130
0001
0100
0001
0100
0001
0100
0001
,
1000
0001
1000
0001
1000
0001
1000
0001
,
1000
0010
1000
0010
1000
0010
1000
0010
,
1000
0001
1000
0001
1000
0001
1000
0001
,
0100
0010
0100
0010
1000
0001
1000
0001
,
0100
0010
0100
0010
1000
0001
1000
0001
,
0100
0100
0010
0010
0100
0100
0010
0010
,
1000
0001
1000
1001
,
0001
0000
0200
0001
0300
0000
0002
0013
,
0100
0000
2000
0010
3000
0000
0020
1030
,
0100
0000
0200
1000
0300
0000
2000
3001
,
0100
0000
0200
0010
0300
0020
0000
1030
,
0100
0000
0020
0001
0030
0000
0002
0103
,
0010
0000
0020
0100
0030
0220
0330
2020
,
3030
0000
2000
0001
3000
0000
0002
0103
,
0010
0000
0020
1000
0030
0200
0000
0010
,
0310
0001
0010
0001
0010
0001
0010
0001
,
1000
0001
1000
0001
1000
0001
1000
0001
,
1000
0100
1000
0100
1000
0100
1000
0100
,
1000
0001
1000
0001
1000
0001
1000
0001
,
0100
0010
1000
0001
0100
0010
1000
0001
,
0010
0100
1000
0001
0010
0100
1000
0001
,
0100
0100
0010
0010
0100
0100
0010
0010
,
2000
0000
3002
0000
0003
2000
0000
0000
,
3010
0100
0010
0100
0002
0000
1000
0000
,
0010
1000
0100
0010
,
2003
0000
3100
0010
0002
0000
0013
0100
,
2000
3020
0230
0302
,
0013
0100
0010
0100
2000
0000
0001
0000
,
0010
0001
0100
0010
,
3002
0000
0103
0010
2000
0000
3010
0100
,
0002
0000
0000
0000
2003
0000
0000
0000
3020
0000
0000
0130
0010
0000
1000
0000
,
0001
1000
0001
1000
0020
0000
0100
0000
,
1000
0100
0001
0100
,
2030
0000
3100
0010
0002
0000
0013
0100
,
2000
3020
2030
3002
,
1003
0001
1000
0001
0200
0000
0010
0000
,
0001
0010
1000
0010
,
0301
1000
0010
0100
0001
1000
0010
0100
,
0001
0010
0100
1000
0001
0010
0100
1000
,
0010
0000
0000
0000
0100
0000
0001
0000
0100
0000
0000
0100
0001
0000
0000
0000
,
0010
0000
0000
0000
0100
0000
1000
0000
0100
0000
0000
0100
1000
0000
0010
0000
,
0010
0000
0000
0000
1000
0000
0010
0000
1000
0000
0000
1000
0010
0000
0000
0000
,
1000
0000
0000
0000
0100
0000
0010
0000
0100
0000
0000
0100
0010
0000
0001
0000
,
0001
0000
0000
0000
0100
0000
0010
0000
0100
0000
0000
0100
0010
0000
0000
0000
,
1000
0000
0000
0000
0100
0000
0010
0000
0100
0000
0000
0100
0010
0000
0001
0000
,
0001
0000
0000
0000
1000
0000
0010
0000
1000
0000
0000
1000
0010
0000
0000
0000
,
0100
0000
0000
0000
0001
0000
0010
0000
0001
0000
0000
0001
0010
0000
0100
0000
,
0100
0000
0000
0000
1000
0000
0010
0000
1000
0000
0000
1000
0010
0000
0000
0000
,
0100
0000
0000
0000
0001
0000
0010
0000
0001
0000
0000
0001
0010
0000
0100
0000
,
1000
0000
0000
0000
0010
0000
0100
0000
0010
0000
0000
0010
0100
0000
0000
0000
,
0001
0000
0000
0000
0010
0000
0100
0000
0010
0000
0000
0010
0100
0000
0000
0000
,
1000
0001
1000
0001
1000
0001
1000
0001
,
1000
0010
1000
0010
1000
0010
1000
0010
,
0100
0001
1000
0010
0100
0001
1000
0010
,
0100
0001
0010
0100
1000
0010
0100
0100
,
0010
0000
0000
0000
;

//---------------dance-single - ----------------
#NOTES:
     dance-single:
     :
     Easy:
     4:
     0.351726,0.571405,0.109239,0.294105,0.000000,293.000000,280.000000,13.000000,35.000000,0.000000,0.000000,0.351726,0.571405,0.109239,0.294105,0.000000,293.000000,280.000000,13.000000,35.000000,0.000000,0.000000:
// measure 0
0000
0000
0000
0000
,  // measure 1
0000
0000
0000
0000
,  // measure 2
0000
0000
0000
0000
,  // measure 3
0000
0000
0000
0000
,  // measure 4
1000
0001
1000
0001
,  // measure 5
0100
0001
0100
0001
,  // measure 6
0100
0010
0100
0010
,  // measure 7
1000
0010
1000
0010
,  // measure 8
0100
0001
0100
0020
,  // measure 9
0100
0130
0002
0100
,  // measure 10
0103
0010
0100
0020
,  // measure 11
1000
1030
0100
0010
,  // measure 12
0001
0001
1000
1000
,  // measure 13
0001
0001
1000
1000
,  // measure 14
0010
0100
0001
1000
,  // measure 15
0010
0100
0001
1000
,  // measure 16
0002
0000
0203
0000
,  // measure 17
0320
0000
2030
0000
,  // measure 18
3200
0000
0320
0000
,  // measure 19
0032
0000
0203
0000
,  // measure 20
0320
0000
2030
0000
,  // measure 21
3002
0000
0023
0000
,  // measure 22
0230
0000
2300
0000
,  // measure 23
3020
0000
0230
0000
,  // measure 24
0301
0001
1000
1000
,  // measure 25
0010
0010
0100
0100
,  // measure 26
0001
0001
1000
1000
,  // measure 27
0010
0010
0100
0100
,  // measure 28
0010
1000
0001
1000
,  // measure 29
0100
0010
0001
1000
,  // measure 30
1010
1010
1001
1001
,  // measure 31
0101
1001
1010
1001
,  // measure 32
0001
0200
0300
0200
,  // measure 33
0301
0020
0030
0020
,  // measure 34
0031
2000
3000
2000
,  // measure 35
3010
0000
0200
0000
0300
0002
0000
0000
,  // measure 36
1003
0200
0300
0200
,  // measure 37
1300
0000
0020
0000
0030
0010
0000
1000
,  // measure 38
0001
0002
1003
0002
,  // measure 39
1003
0000
0020
0000
0030
0200
0000
0000
,  // measure 40
0301
0001
1000
1000
,  // measure 41
0001
0001
1000
1000
,  // measure 42
0010
0010
0100
0100
,  // measure 43
0010
0010
0100
0100
,  // measure 44
0010
1000
0001
1000
,  // measure 45
0100
0010
0001
0010
,  // measure 46
0110
1001
0110
1001
,  // measure 47
0002
0000
0000
0000
,  // measure 48
0103
0010
0100
0001
,  // measure 49
0010
0100
1000
0100
,  // measure 50
0010
0001
0100
0001
,  // measure 51
0010
0001
1000
0010
,  // measure 52
1000
0100
0010
0001
,  // measure 53
0100
0001
0010
0001
,  // measure 54
1000
0100
1000
0010
,  // measure 55
1000
0100
0010
0001
,  // measure 56
1000
0010
0100
0010
,  // measure 57
1000
0100
0010
0100
,  // measure 58
1000
0010
0100
0001
,  // measure 59
1000
0100
0010
0001
,  // measure 60
1000
1000
0001
0001
,  // measure 61
1000
1000
0001
0001
,  // measure 62
0100
0010
1000
0001
,  // measure 63
0100
0100
0100
0100
,  // measure 64
0010
1000
0010
1000
,  // measure 65
0001
1000
0001
1000
,  // measure 66
0001
0100
0001
0100
,  // measure 67
0001
1000
0001
1000
,  // measure 68
0010
0100
0010
0100
,  // measure 69
0001
0010
0001
0010
,  // measure 70
0100
1000
0100
1000
,  // measure 71
0010
0010
0010
0010
,  // measure 72
0100
0001
0100
0001
,  // measure 73
1000
0001
1000
0001
,  // measure 74
1000
0010
1000
0010
,  // measure 75
1000
0001
1000
0001
,  // measure 76
0100
0100
0010
0010
,  // measure 77
1000
1000
0001
0001
,  // measure 78
0010
0100
1000
0001
,  // measure 79
0100
0100
0100
0100
,  // measure 80
1001
0000
0000
0000
;
