#TITLE:Backflip Dinosaur;
#SUBTITLE:;
#ARTIST:Preyfour feat. Mizuki's Last Chance;
#TITLETRANSLIT:;
#SUBTITLETRANSLIT:;
#ARTISTTRANSLIT:;
#GENRE:Chipstep;
#CREDIT:;
#BANNER:bn.png;
#BACKGROUND:bg.png;
#LYRICSPATH:;
#CDTITLE:;
#MUSIC:Backflip Dinosaur.ogg;
#OFFSET:0.006;
#SAMPLESTART:54.557;
#SAMPLELENGTH:12.000;
#SELECTABLE:YES;
#BPMS:0.000=109.990,63.000=220.000,63.667=55.000,64.000=109.990;
#STOPS:;
#BGCHANGES:;
#KEYSOUNDS:;

//---------------dance-single - warpdr!ve (9++)----------------
#NOTES:
     dance-single:
     warpdr!ve (9++):
     Challenge:
     9:
     0.672,0.733,0.204,0.668,0.680:
0000
0000
0000
0000
,
0000
0000
0000
0000
,
0000
0000
0000
0000
,
0000
0000
0000
0000
,
2000
0000
3100
0000
1100
0000
0000
1001
0000
0000
1000
0000
0010
0100
0000
0100
,
0001
0000
0000
0000
0101
0000
0000
0110
0000
0000
0100
0000
0010
1000
0000
1000
,
0200
0000
0300
0000
1100
0000
0000
1001
0000
0000
1000
0000
0001
0100
0010
1000
,
0001
0000
0000
0000
0011
0000
0000
1100
0000
0000
1000
0000
1000
0000
1000
0000
,
0002
0000
0103
0000
0010
1000
0001
1000
0200
0000
0000
0000
1300
0001
0100
0001
,
2000
0000
0000
0000
3010
0100
0001
0100
0020
0000
1000
0000
1030
0000
1000
0000
,
0002
0000
0003
0000
0010
0100
1000
0100
0020
0000
0000
0000
0031
1000
0001
0100
,
0020
0000
0000
1000
0030
0010
0100
0001
0000
0000
0011
0000
0000
1001
0000
0000
,
2000
0000
3010
0000
0400
0000
0000
0000
0301
0010
0001
0010
0100
1000
0100
1000
,
0001
0000
0000
0000
0400
0000
0000
0000
0310
1000
0010
1000
0001
0010
0001
0010
,
0100
0000
0100
0000
4000
0000
0000
0000
3001
0100
0001
0100
0010
0100
0010
0100
,
0001
1000
0001
0000
0010
0000
0100
0000
1000
0000
0010
0000
0100
0000
0001
0000
0010
0000
0000
0000
0001
0000
1000
0000
0M02
0000
0000
0000
0000
0000
0000
0000
,
1M03
0000
0020
0000
0030
0000
2000
0000
3001
0000
0200
0000
0310
0000
1000
0001
,
0010
0000
0001
0010
1000
0010
0001
1000
0010
0100
0020
1030
0001
0200
0301
1000
,
0002
0000
0013
0000
0200
0000
1300
0000
0001
0100
0001
0100
0010
1000
0010
1000
,
0002
0000
0003
0000
0020
0000
0030
0000
2000
3020
0032
0000
2003
0000
3020
0000
,
0130
0001
1000
0100
0000
0000
2000
0000
3001
0000
0100
0000
0001
0000
1000
0100
,
0010
0000
0002
0103
1000
0100
0002
1003
0100
1000
0100
0010
0001
1000
0001
0100
,
0010
0000
2000
0000
3001
0000
0020
0000
0130
1000
0100
1000
0001
1000
0001
1000
,
0002
0000
0103
0010
2000
0000
3020
0000
0032
0023
2030
0000
3002
0000
0023
0000
,
0130
0000
0000
0000
1000
0000
0000
0001
0000
0000
0100
0000
0100
0010
1000
0001
,
0010
0000
0000
0000
0001
0000
0000
1000
0000
0000
0001
0000
0002
0000
0000
0000
,
0103
0000
0000
0000
0010
0000
0000
1000
0000
0000
0001
0000
0002
0000
0023
0000
,
0130
0000
0000
0000
1000
0000
0000
0001
0000
0000
0100
0000
0100
0010
0100
0010
,
1000
0000
0000
0000
0100
0000
0000
0010
0000
0000
0001
0000
0001
1000
0010
1000
,
0001
0000
0000
0000
0000
0000
0000
0000
0000
0000
0000
0000
0010
0000
0000
0000
0000
0000
0000
0000
0000
0001
0000
0000
0000
0000
0000
0000
0000
0000
1000
0000
0000
0000
0000
0000
1000
0000
0000
0000
0010
0000
0000
0000
0100
0000
0000
0000
,
0001
0000
0000
0000
1000
0000
0000
0100
0000
0000
0010
0000
0020
0000
0032
0000
,
1003
0000
0000
0000
0010
0000
0000
1000
0000
0000
0001
0000
0001
0010
0001
0010
,
0100
0000
0000
0000
2000
0000
3002
0000
0103
0000
0010
0000
0000
0010
0000
0010
,
1000
0000
0002
0000
0003
0000
0000
0000
1000
0000
0100
0010
0000
0010
0001
1000
,
0001
0000
0020
0000
0230
0000
2300
0000
3001
0000
0100
0000
0000
0100
0000
0100
,
0001
0000
2000
0000
3001
0000
0020
0000
0130
0000
1000
0001
0100
0001
0100
0010
,
1000
0000
0000
0000
0200
0000
2300
0000
3001
0000
0100
0000
0000
0100
0000
0100
,
0001
0000
2000
0000
3000
0000
0000
0000
0001
0000
0200
0310
0000
0020
1030
0001
,
0010
0000
0200
0000
0320
0000
0032
0000
1003
0000
0010
0000
0000
0010
0000
0010
,
0100
0000
0002
0000
1003
0000
0200
0000
0310
0000
0100
1000
0000
1000
0001
0100
,
0002
0000
0203
0000
0310
1000
0001
1000
0200
0000
0320
0000
0230
0000
1300
0001
,
0100
0000
0001
0010
1000
0010
0001
1000
0001
0100
0001
0100
0010
0010
1000
1000
,
0001
0010
0001
1000
0020
0000
0000
0000
0230
0000
0302
0000
1003
0100
2000
0000
,
3001
0000
0001
0000
0010
0100
1000
0000
1000
0000
0001
0100
0010
0000
0010
0000
0100
0000
0001
0000
0001
0000
1000
0000
,
0200
0000
2300
0000
3001
0100
0010
0100
0002
0000
2003
0000
3200
0000
1300
0001
,
0100
0000
0001
0100
1000
0100
0001
1000
0001
0010
0001
0010
0100
0100
0010
0010
,
0001
1000
0010
1000
0020
0000
0000
0000
0230
0000
0302
0000
1003
0100
0020
0000
,
0230
0000
0000
0000
2300
0000
0000
0000
3001
0000
0100
0000
0010
0000
0100
0001
0100
0000
0010
0000
0100
0000
0010
0000
1000
0000
0010
0000
1000
0000
0010
0000
,
0100
0000
0100
0000
0101
0000
0000
1001
0000
0000
0001
0000
0001
0000
0000
0000
,
1000
0000
0000
0000
1100
0000
0000
1001
0000
0000
0001
0000
0001
0000
0000
0000
,
0100
0000
0000
0000
0101
0000
0000
1010
0000
0000
0010
0000
0010
0000
1000
0001
,
0010
0000
0000
0000
0000
0000
0000
0000
0011
0000
0000
0000
0000
0001
0010
0000
0001
0000
1000
0000
0001
0000
1000
0000
0010
0000
1000
0000
0010
0000
1000
0000
,
0001
0000
0000
0000
0101
0000
0000
1001
0000
0000
0000
0000
0000
0000
0000
0000
,
1000
0000
0000
0000
1100
0000
0000
1001
0000
0000
0000
0000
0000
0000
0000
0000
,
0001
0000
0000
0000
0101
0000
0000
0110
0000
0000
0000
0000
0000
0000
0100
0001
,
1000
0000
0000
0000
1100
0000
0000
1001
0000
0000
0000
0000
0000
0000
0001
0000
,
0200
0300
0000
0000
;

//---------------dance-single - NOVICE----------------
#NOTES:
     dance-single:
     NOVICE:
     Beginner:
     1:
     0.063,0.046,0.008,0.000,0.000:
0000
0000
0000
0000
,
0000
0000
0000
0000
,
0000
0000
0000
0000
,
0000
0000
0000
0000
,
1000
0000
0000
0000
,
0001
0000
0000
0000
,
1000
0000
0000
0000
,
0010
0000
0000
0000
,
0100
0000
0000
0000
,
0001
0000
0000
0000
,
1000
0000
0000
0000
,
0100
0000
0000
0000
,
1000
0000
0000
0000
,
0001
0000
0000
0000
,
0010
0000
0000
0000
,
0001
0000
0000
0000
,
1000
0000
0000
0000
,
0010
0000
0000
0000
,
0100
0000
0000
0000
,
0001
0000
0000
0000
,
1000
0000
0000
0000
,
0100
0000
0000
0000
,
0010
0000
0000
0000
,
0001
0000
0000
0000
,
1000
0000
0000
0000
,
0001
0000
0000
0000
,
1000
0000
0000
0000
,
0001
0000
0000
0000
,
0100
0000
0000
0000
,
0001
0000
0000
0000
,
1000
0000
0000
0000
,
0010
0000
0000
0000
,
1000
0000
0000
0000
,
0001
0000
0000
0000
,
0010
0000
0000
0000
,
0100
0000
0000
0000
,
1000
0000
0000
0000
,
0001
0000
0000
0000
,
1000
0000
0000
0000
,
0010
0000
0000
0000
,
0100
0000
0000
0000
,
0001
0000
0000
0000
,
1000
0000
0000
0000
,
0100
0000
0000
0000
,
0010
0000
0000
0000
,
0100
0000
0000
0000
,
1000
0000
0000
0000
,
0001
0000
0000
0000
,
0100
0000
0000
0000
,
0010
0000
0000
0000
,
0100
0000
0000
0000
,
0001
0000
0000
0000
,
1000
0000
0000
0000
,
0001
0000
0000
0000
,
1000
0000
0000
0000
,
0001
0000
0000
0000
,
1001
0000
0000
0000
;

//---------------dance-single - waprdr!ve (3)----------------
#NOTES:
     dance-single:
     waprdr!ve (3):
     Easy:
     3:
     0.150,0.160,0.024,0.008,0.000:
0000
0000
0000
0000
,
0000
0000
0000
0000
,
0000
0000
0000
0000
,
0000
0000
0000
0000
,
1000
0000
0000
0000
,
0001
0000
0000
0000
,
1000
0000
0000
0000
,
0001
0000
0000
0000
,
0100
0000
0010
0000
,
0100
0000
0010
0000
,
1000
0000
0001
0000
,
1000
0000
0001
0000
,
1000
0000
0100
0100
,
1000
0000
0001
0001
,
0100
0000
0010
0010
,
1000
0000
0001
1001
,
1000
0000
0010
0000
,
0100
0000
0001
1000
,
0001
0000
0010
0000
,
0100
0000
1000
0001
,
1000
0000
0010
0000
,
0100
0000
0010
1000
,
0010
0000
1000
0000
,
0001
0000
0010
0100
,
0010
0000
0001
1000
,
0001
0000
1000
0100
,
1000
0000
0001
0100
,
0001
0000
1000
0100
,
1000
0000
0001
0010
,
0001
0000
1000
0010
,
1000
0000
0001
0010
,
0001
0000
1000
0010
,
1000
0000
0001
0000
,
0100
0000
0010
1000
,
0010
0000
0100
0000
,
0001
0000
1000
0100
,
1000
0000
0100
0000
,
0010
0000
0001
1000
,
0001
0000
0100
0000
,
0010
0000
1000
0100
,
1000
0000
0001
0000
,
0100
0000
0010
0100
,
0010
0000
1000
0000
,
0001
0010
1000
0010
,
0001
0000
1000
0000
,
0010
0000
0100
0010
,
0100
0000
0001
0000
,
1000
0000
0100
0010
,
0100
0000
1000
0000
,
0001
0000
0100
0000
,
0010
0000
1000
0000
,
0001
0000
0020
0000
,
0130
0000
1000
0000
,
0001
0000
0100
0000
,
0010
0000
1000
0000
,
1001
0000
0000
0000
,
1001
0000
0000
0000
;

//---------------dance-single - warpdr!ve (5+)----------------
#NOTES:
     dance-single:
     warpdr!ve (5+):
     Medium:
     5:
     0.310,0.297,0.163,0.187,0.090:
0000
0000
0000
0000
,
0000
0000
0000
0000
,
0000
0000
0000
0000
,
0000
0000
0000
0000
,
1000
0000
0000
0000
0010
0000
0000
0010
0000
0000
0000
0000
0000
0000
0000
0000
,
0100
0000
0000
0000
0001
0000
0000
0001
0000
0000
0000
0000
0000
0000
0000
0000
,
2000
0000
0000
0000
3100
0000
0000
0100
0000
0000
0000
0000
0000
0000
0010
0000
,
0001
0000
0000
0000
1000
0000
0000
1000
0000
0000
0010
0000
0100
0000
0010
0000
,
2000
0000
3001
0010
0001
0000
0010
0100
,
0010
0000
0100
1000
0100
0000
1000
0000
,
0002
0000
0103
0010
0100
0000
0010
1000
,
0010
0000
0000
0000
0100
0000
0001
0000
0100
0000
0010
0000
0000
0100
0000
0000
,
0001
0000
2000
0000
3100
0010
0100
0000
,
1000
0000
0002
0000
0103
0010
0100
0000
,
0001
0000
2000
0000
3100
0010
0100
0000
,
1000
0001
0100
0110
,
0010
1000
0000
0001
0000
1000
0100
0000
,
0010
0000
0000
0000
0100
0000
0000
0000
1000
0000
0001
0000
0000
0100
0000
0000
,
0020
0000
2030
0000
3001
0010
0001
0010
,
0100
1000
0001
0100
,
0010
0000
0100
0001
0000
1000
0100
0000
,
0010
0100
0000
1000
0001
0000
0100
0000
,
0010
1000
0000
0001
0010
0000
0001
0000
,
2000
0000
3020
0000
0130
0001
0100
0001
,
1000
0000
0000
0000
0100
0000
0000
0010
0000
0000
0100
0000
0010
0000
0000
0000
,
0100
0000
0000
0000
1000
0000
0000
0001
0000
0000
0100
0000
0001
0000
0000
0000
,
0100
0000
0000
0000
0010
0000
0000
1000
0000
0000
0100
0000
1000
0000
0000
0000
,
0001
0000
0000
0000
0010
0000
0000
0100
0000
0000
1000
0000
0100
0000
0000
0000
,
1000
0000
0000
0000
0001
0000
0000
0100
0000
0000
0010
0000
0100
0000
0000
0000
,
0001
0000
0000
0000
1000
0000
0000
0100
0000
0000
0010
0000
0200
0000
0000
0000
,
1300
0000
0000
0000
0001
0000
0000
1000
0000
0000
0010
0000
1000
0000
0000
0000
,
0001
0000
0000
0000
0010
0000
0000
0100
0000
0000
1000
0000
0100
0000
0000
0000
,
1100
0000
0011
0000
,
1001
0000
2020
3030
,
1001
0000
0011
0000
,
0110
0110
2200
3300
,
1001
0000
0101
0000
,
0110
0000
2020
3030
,
1001
0000
1100
0000
,
0011
0011
0220
0330
,
1100
0000
1000
0000
0001
0100
0010
0000
,
0100
0000
0001
0000
1000
0000
0100
0100
,
1000
0000
0001
0000
0100
0010
0100
0000
,
0002
0023
2030
3200
,
0301
0000
1000
0000
0010
0100
0010
0000
,
1000
0000
0001
0000
0010
0000
0100
0100
,
1000
0000
0001
0000
0100
0001
1000
0000
,
0100
0000
0010
0000
0100
1000
0100
1000
,
0001
0000
0000
0000
0100
0000
0000
0100
0000
0000
0000
0000
0000
0000
0000
0000
,
0010
0000
0000
0000
1000
0000
0000
1000
0000
0000
0000
0000
0000
0000
0000
0000
,
0001
0000
0000
0000
0010
0000
0000
0010
0000
0000
0000
0000
0000
0000
0000
0000
,
0001
0000
0000
0000
1000
0000
0000
1000
0000
0000
0000
0000
0000
0000
0000
0000
,
0010
0000
0000
0000
0100
0000
0000
0100
0000
0000
0000
0000
0000
0000
0000
0000
,
0001
0000
0000
0000
0010
0000
0000
0010
0000
0000
0000
0000
0000
0000
0000
0000
,
0100
0000
0000
0000
1000
0000
0000
1000
0000
0000
0000
0000
0000
0000
0000
0000
,
0001
0000
0000
0000
0100
0000
0000
0100
0000
0000
0000
0000
0000
0000
0010
0000
,
1000
0000
0000
0000
;

//---------------dance-single - warpdr!ve (7+)----------------
#NOTES:
     dance-single:
     warpdr!ve (7+):
     Hard:
     7:
     0.496,0.642,0.057,0.554,0.228:
0000
0000
0000
0000
,
0000
0000
0000
0000
,
0000
0000
0000
0000
,
0000
0000
0000
0000
,
2000
0000
3100
0000
0010
0000
0000
0010
0000
0000
0001
0000
1000
0000
0000
0000
,
0010
0000
0000
0000
0100
0000
0000
0100
0000
0000
0001
0000
1000
0000
0000
0000
,
0200
0000
0300
0000
1000
0000
0000
1000
0000
0000
0001
0000
0100
0000
0010
0000
,
1000
0000
0000
0000
0001
0000
0000
0001
0000
0000
0010
0000
0010
0000
0010
0000
,
0002
1003
0010
0100
0002
0000
1003
0100
,
0020
0000
0130
1000
0002
0100
0103
0100
,
0020
0030
1000
0001
0020
0000
0130
0010
,
0002
0000
0000
1000
0003
0000
0010
0100
0000
0000
0001
0000
0000
0001
0000
0000
,
0020
0031
1002
0000
1003
0010
1000
0010
,
0100
0000
0201
0000
0310
1000
0010
1000
,
0001
0000
1002
0000
0013
0001
0010
0001
,
1000
0010
1000
0010
1000
0010
1000
0000
0001
0000
1000
0000
00M2
0000
0000
0000
,
M103
0020
0030
2000
3000
0002
0013
0100
,
1000
0000
0010
0000
0001
0000
0010
0000
1000
0000
0100
0000
0000
0100
0000
0000
,
0020
0031
2000
3010
0100
0001
0100
0001
,
1001
0000
0000
0000
1100
0000
0000
0000
1000
0001
1000
0000
0001
0000
1000
0000
,
0010
0100
0000
0002
0003
1000
0010
1000
,
0001
0020
1030
0020
0031
0100
0010
1000
,
0001
0020
0030
0200
1300
0010
0001
0010
,
1010
0000
0000
0000
0101
0000
0000
0000
0100
0001
0100
0000
0010
0000
1000
0000
,
0001
0000
0000
0000
0010
0000
0000
0100
0000
0000
1000
0000
1000
0000
0000
0000
,
0001
0000
0000
0000
0100
0000
0000
0010
0000
0000
1000
0000
1000
0000
0000
0000
,
0001
0000
0000
0000
0010
0000
0000
0001
0000
0000
1000
0000
1000
0000
0000
0000
,
0001
0000
0000
0000
1000
0000
0000
0100
0000
0000
0010
0000
0010
0000
0000
0000
,
0100
0000
0000
0000
1000
0000
0000
0001
0000
0000
0100
0000
0100
0000
0000
0000
,
0010
0000
0000
0000
0000
0000
0000
0000
0000
0000
0000
0000
1000
0000
0000
0000
0000
0000
0000
0000
0000
0001
0000
0000
0000
0000
0000
0000
0000
0000
0010
0000
0000
0000
0000
0000
0010
0000
0000
0000
0001
0000
0000
0000
1000
0000
0000
0000
,
0010
0000
0000
0000
0100
0000
0000
0001
0000
0000
1000
0000
1000
0000
0000
0000
,
0001
0000
0000
0000
0010
0000
0000
0100
0000
0000
0010
0000
0010
0000
0000
0000
,
0002
0003
0000
0000
0200
0000
0320
0000
2030
3000
0100
0000
0000
0100
0000
0100
,
0020
0030
0002
0000
0003
0000
0000
0000
0200
0300
0000
0002
0003
0000
2000
3000
,
0200
0300
2000
0000
3002
0000
0203
0000
0320
0030
1000
0000
0000
1000
0000
1000
,
0002
0003
0020
0000
0230
0300
2000
0000
3002
0003
0100
0010
0000
0010
1000
0001
,
2000
3000
0000
0000
0200
0000
2300
0000
3002
0003
0100
0000
0000
0100
0000
0100
,
0020
0030
2000
0000
3000
0000
0000
0000
0200
0300
0000
0020
0030
0000
0002
0003
,
2000
3000
0020
0000
0230
0000
0320
0000
2030
3000
0001
0000
0000
0001
0000
0001
,
0010
0000
0000
0000
0001
0000
0000
0000
1000
0000
0010
0100
0000
0100
0001
1000
,
0002
0013
0100
0010
0200
2300
3002
1003
,
0001
0100
1000
0100
0001
0010
0100
0100
,
1000
0001
0200
0000
0301
1000
0100
1000
,
0001
0100
0001
0100
0010
0100
0010
1000
0010
1000
0001
1000
,
0001
0010
0100
0010
0002
2003
3020
0130
,
0001
0010
1000
0010
0001
1000
0010
0010
,
0100
0001
2000
0000
3100
0010
0100
1000
,
0001
0000
0100
0000
0010
0000
0000
0000
1000
0100
1000
0100
1000
0100
1000
0100
,
1000
0000
0000
0000
0001
0000
0000
0001
0000
0000
0100
0000
0100
0000
0000
0000
,
0010
0000
0000
0000
1000
0000
0000
1000
0000
0000
0001
0000
0001
0000
0000
0000
,
0010
0000
0000
0000
0100
0000
0000
0100
0000
0000
1000
0000
1000
0000
0010
0000
,
0100
0000
0000
0000
0001
0000
0000
0002
0000
0000
0000
0000
0000
0000
0000
0000
,
1003
0100
1000
0100
0010
0001
0010
0001
,
1000
0010
1000
0010
0100
0001
0100
0001
,
1000
0100
0010
0001
0010
0100
1000
0001
,
1000
0000
0000
0000
0010
0000
0000
0010
0000
0000
0000
0000
0000
0000
1000
0000
,
0002
0003
0000
0000
;
