#TITLE:三年又三年;
#SUBTITLE:無間道;
#ARTIST:陳光榮;
#TITLETRANSLIT:Always Three More Years;
#SUBTITLETRANSLIT:Infernal Affairs;
#ARTISTTRANSLIT:Chen Guan Rong;
#GENRE:;
#CREDIT:;
#BANNER:Always Three More Years-banner.png;
#BACKGROUND:Always Three More Years-bg.jpg;
#LYRICSPATH:;
#CDTITLE:;
#MUSIC:Always Three More Years.mp3;
#OFFSET:-0.815000;
#SAMPLESTART:30.000000;
#SAMPLELENGTH:12.000000;
#SELECTABLE:YES;
#BPMS:0.000000=200.031006
;
#STOPS:
;
#BGCHANGES:;
#KEYSOUNDS:;
#ATTACKS:;

//---------------dance-single - ----------------
#NOTES:
     dance-single:
     :
     Easy:
     3:
     0.207713,0.282932,0.000000,0.000000,0.000000,134.000000,134.000000,0.000000,0.000000,0.000000,0.000000,0.207713,0.282932,0.000000,0.000000,0.000000,134.000000,134.000000,0.000000,0.000000,0.000000,0.000000:
0000
0000
0000
0000
,
0000
0000
0000
0000
,
0001
0000
1000
0000
,
0010
0100
0001
0000
,
0010
0000
0001
0000
,
0001
0001
0100
0000
,
0001
0000
0100
0000
,
0001
1000
1000
0000
,
1000
0000
0001
0000
,
1000
1000
0000
0001
,
0000
0010
1000
0000
,
1000
0000
1000
0000
,
1000
0000
0000
1000
,
0001
0000
0100
0000
,
0010
0001
0100
0001
,
0100
0000
0000
0000
,
0100
0000
0001
0000
,
0100
0000
0010
1000
,
0001
0000
1000
0000
,
1000
0000
1000
0000
,
0001
0000
0000
1000
,
0010
0000
0100
0001
,
0001
0000
0001
0000
,
0100
0000
1000
0000
,
0010
0000
0000
0010
,
0010
0000
0010
0000
,
0001
0000
0001
0000
,
0001
0000
0000
0001
,
0100
0000
0100
0000
,
1000
0000
0100
0000
,
0001
0010
0000
0100
,
0000
0000
0000
0000
,
0000
0000
0000
0000
,
1000
0000
0000
0000
,
0001
0000
0000
0000
,
0100
0000
0000
0000
,
1000
0000
0001
0000
,
0010
0000
0000
0010
,
0000
0000
0000
0000
,
0000
0000
1000
0000
,
0001
0000
0100
0100
,
0000
0010
0000
0000
,
0000
0000
0000
0000
,
0001
0000
0000
0100
,
0000
0000
0000
0000
,
0100
0000
0000
0001
,
0000
0000
0000
0000
,
1000
0000
0000
0100
,
0000
0000
0000
0000
,
0100
0000
0000
0000
,
0001
0000
0100
0000
,
0100
0100
0000
1000
,
0000
0000
0010
0000
,
0100
0000
0010
0000
,
0100
0000
0001
0000
,
0010
0000
1000
0000
,
0100
0000
0001
0000
,
0001
0000
0001
0000
,
1000
0000
0010
0000
,
0001
0000
0001
0000
,
0100
0000
0000
0000
,
0100
0000
0000
0000
,
0010
0000
0000
0000
,
0000
0000
0000
0000
,
0100
0000
0001
0000
,
1000
0000
0100
0001
,
0100
0000
0100
0000
,
1000
0001
0001
0000
,
0001
0000
0010
0000
,
0100
1000
0100
0000
,
0010
0000
0010
0000
,
0100
0000
0001
0000
,
1000
0010
0000
0001
,
0000
0000
0001
0000
,
0001
1000
0001
0000
;

//---------------dance-single - ----------------
#NOTES:
     dance-single:
     :
     Medium:
     6:
     0.370474,0.485026,0.054253,0.119358,0.000000,239.000000,234.000000,5.000000,11.000000,0.000000,0.000000,0.370474,0.485026,0.054253,0.119358,0.000000,239.000000,234.000000,5.000000,11.000000,0.000000,0.000000:
0000
0000
0000
0000
,
0000
0000
0000
0000
,
0001
0001
0010
0001
,
0010
0001
0000
1000
0100
0000
0010
0000
,
0100
0001
0100
1000
,
0100
0000
1000
0000
0001
0010
0001
0000
,
0010
0100
0001
0100
,
0010
0001
0000
1000
0001
0000
0100
0000
,
0001
0000
0100
0000
,
0001
1000
0000
0100
,
0000
0000
0000
0000
,
1000
0100
1000
0100
,
1000
0000
0000
0100
,
1000
0000
0000
0000
0000
0000
0000
0010
,
0001
0010
0100
1000
0100
0010
0001
0010
,
0100
0000
0000
0000
,
0001
0000
0000
0001
,
0000
0010
0100
1000
,
0001
1000
0000
0100
1000
0000
0100
0000
,
0010
0001
0000
0010
0001
0000
0010
0000
,
0001
1000
0000
0010
1000
0000
0001
0000
,
0010
0001
0000
1000
0001
0000
0010
0000
,
0100
1000
0000
0010
1000
0000
0001
0000
,
0100
0010
0000
0100
0001
0000
1000
0000
,
0001
0000
0000
0010
,
0000
0000
0000
0000
,
0000
0000
0000
0100
0010
0001
1000
0000
,
0001
0000
0000
1000
,
0000
0000
0000
0000
,
0100
0000
0000
0000
0000
0000
1000
0100
,
1000
0000
0000
0000
,
0000
1000
0010
0100
,
0020
0000
0030
0001
,
0020
0000
0030
0100
,
0002
0000
0003
1000
,
0200
0000
0300
0000
,
1000
0010
0100
0010
0001
0000
0010
0000
,
0100
0000
0000
0000
0010
1000
0000
0100
,
1000
0100
0000
0000
,
0000
0000
0010
0001
,
0010
0100
0001
0100
,
1000
0001
0100
1000
,
0100
0000
0000
0000
0001
0000
0010
0100
,
0010
0000
0000
0000
,
0000
0000
0000
0000
,
0001
1000
0000
0100
1000
0000
0001
0000
,
1000
0100
0000
1000
0010
0000
1000
0000
,
0001
0100
0000
1000
0100
0000
0010
0000
,
0100
0010
0000
0100
0001
0000
1000
0000
,
0100
1000
0000
0100
0001
0000
0100
0000
,
1000
0001
1000
0010
,
0100
0001
0010
0001
,
0100
0010
0001
0010
,
2000
0000
0000
3000
0001
0000
0100
0000
,
0020
0000
0000
0030
1000
0000
0100
0000
,
1000
0000
0000
0010
,
2000
0000
0100
0000
0100
3000
0100
0000
,
1000
0001
0000
0100
0001
0000
0100
0000
,
0010
1000
0000
0010
1000
0000
0100
0000
,
1000
0010
0000
1000
0010
0000
1000
0000
,
0220
0000
0000
0000
0000
0330
0000
0000
,
2002
0000
0000
0000
0000
3003
0000
0000
,
0000
0000
0000
0000
,
0000
0000
0000
0000
,
1000
0000
0010
0100
0001
0000
1000
0000
,
0100
0000
1000
0100
0000
0010
0001
0000
,
0010
0000
0100
0010
0000
0001
1000
0000
,
0010
0000
1000
0010
0000
0000
0100
0000
,
0001
0000
0100
0000
,
0010
0100
0010
0000
,
1000
0000
0010
0000
,
0001
0000
0010
0000
,
0010
1000
0000
0001
,
0000
0000
0100
0000
,
1001
0110
1001
0000
;

//---------------dance-single - ----------------
#NOTES:
     dance-single:
     :
     Hard:
     9:
     0.616939,0.687120,0.184462,0.097656,0.000000,398.000000,381.000000,17.000000,9.000000,4.000000,0.000000,0.616939,0.687120,0.184462,0.097656,0.000000,398.000000,381.000000,17.000000,9.000000,4.000000,0.000000:
// measure 0
0000
0000
0000
0000
,  // measure 1
0000
0000
0000
0000
,  // measure 2
1000
0010
1000
0001
,  // measure 3
1000
1100
0000
0100
0010
0000
0100
0000
,  // measure 4
1000
0010
0100
0001
,  // measure 5
0010
0000
0001
0000
1000
0010
0001
0000
,  // measure 6
1000
0100
0010
0100
,  // measure 7
0010
0011
0000
0010
1000
0000
1000
0000
,  // measure 8
0001
0010
0001
0100
0001
0000
1000
0000
,  // measure 9
0010
0100
0010
0001
0010
0000
0100
0000
,  // measure 10
0001
1000
0001
0100
0010
0000
1000
0000
,  // measure 11
0100
1000
0100
0010
0001
0000
0100
0000
,  // measure 12
0010
0000
1000
0100
1000
0010
1000
0000
,  // measure 13
0001
0000
0010
1000
0010
0001
1000
0000
,  // measure 14
0100
1000
0010
1000
0001
0100
0010
0001
,  // measure 15
0010
0100
0001
1000
0100
0000
0010
0000
,  // measure 16
0001
0010
0100
1000
0001
0000
0100
0000
,  // measure 17
0010
1000
0100
0010
,  // measure 18
0001
0101
0000
1000
0010
0000
0100
0000
,  // measure 19
0001
0101
0000
0010
0001
0000
1000
0000
,  // measure 20
0100
0110
0000
1000
0010
0000
1000
0000
,  // measure 21
0010
0110
0000
0100
1000
0000
0100
0000
,  // measure 22
0010
1010
0000
0001
0010
0000
0001
0000
,  // measure 23
1000
1010
0000
0001
0100
0000
1000
0000
,  // measure 24
0100
0001
0M10
1000
0010
0000
0100
0000
,  // measure 25
0010
0000
1000
0010
M001
0100
1000
0000
,  // measure 26
0100
0000
1000
0001
M010
1000
0100
0000
,  // measure 27
0010
0000
1000
0010
M001
0100
1000
0000
,  // measure 28
1000
0100
0000
0010
1000
0001
0100
0000
,  // measure 29
0010
1000
0100
0001
0100
1000
0010
0001
,  // measure 30
0010
1000
0100
0001
0100
0000
1000
0100
,  // measure 31
1000
1000
0001
0100
,  // measure 32
0020
0000
1030
0100
,  // measure 33
2000
0000
3100
0010
,  // measure 34
0002
0000
0103
0001
,  // measure 35
0020
0000
0130
0000
,  // measure 36
1000
0100
1000
0100
1000
0000
0100
0000
,  // measure 37
0010
0000
0001
0000
0001
0010
0000
0001
,  // measure 38
1000
0000
0100
0000
1000
0100
1000
0000
,  // measure 39
0001
0100
0001
0000
1000
0100
1000
0001
,  // measure 40
2000
0000
3020
0000
,  // measure 41
0230
0000
0302
0000
,  // measure 42
0003
0000
0000
0000
1000
0100
1000
0001
,  // measure 43
0010
0001
0100
0010
,  // measure 44
1000
1000
0001
0000
,  // measure 45
0001
1000
0000
0100
1000
0000
0001
0000
,  // measure 46
1000
0100
0000
1000
0010
0000
1000
0000
,  // measure 47
0001
0100
0000
1000
0100
0000
0010
0000
,  // measure 48
0100
0010
0000
0100
0001
0000
1000
0000
,  // measure 49
0100
1000
0000
0100
0001
0000
0100
0000
,  // measure 50
1000
0100
1000
0000
0010
0100
0001
0000
,  // measure 51
1100
0101
0000
1010
,  // measure 52
0000
0000
1000
0000
1000
0100
0000
0010
,  // measure 53
0001
0000
0001
0000
0001
0000
0000
0010
,  // measure 54
0001
0100
0010
1000
,  // measure 55
0100
0000
0000
0100
1000
0000
1000
0000
,  // measure 56
2000
0000
0100
0000
0010
3000
0001
0000
,  // measure 57
1000
1001
0000
0001
0100
0000
0010
0000
,  // measure 58
1000
1010
0000
0010
0100
0000
0001
0000
,  // measure 59
1000
1010
0000
1000
0100
0000
0010
0000
,  // measure 60
0001
0000
1000
0100
1000
0000
0001
0000
,  // measure 61
0100
0000
0100
0010
0100
0000
0010
1000
,  // measure 62
0010
0101
0000
1010
,  // measure 63
0000
0000
0000
0000
,  // measure 64
1000
0100
1000
0100
0010
0001
0010
0001
,  // measure 65
0100
0001
0100
1000
0100
0001
0010
1000
,  // measure 66
0010
0001
0010
0100
1000
0001
0100
0010
,  // measure 67
1000
0100
0001
0100
1000
0010
0001
0010
,  // measure 68
1000
0001
0100
0010
1000
0100
0001
0100
,  // measure 69
1000
0010
0001
0010
1000
0100
1000
0100
,  // measure 70
0001
0100
0001
0100
1000
0010
0001
0010
,  // measure 71
1000
0100
0010
0001
0010
1000
0010
0100
,  // measure 72
0010
0100
0010
0001
0010
1000
0010
0001
,  // measure 73
0100
1000
0100
0001
0100
0010
1000
0100
,  // measure 74
1000
0100
0011
0000
;
