#TITLE:Time, Love and Tenderness;
#SUBTITLE:;
#ARTIST:Michael Bolton;
#TITLETRANSLIT:;
#SUBTITLETRANSLIT:;
#ARTISTTRANSLIT:;
#CREDIT:;
#BANNER:;
#BACKGROUND:;
#LYRICSPATH:;
#CDTITLE:;
#MUSIC:Michael Bolton - Time, Love And Tenderness.ogg;
#OFFSET:-0.120;
#SAMPLESTART:44.656;
#SAMPLELENGTH:11.200;
#SELECTABLE:YES;
#BPMS:0.000=85.040;
#STOPS:;
#BGCHANGES:;

//---------------dance-single - ----------------
#NOTES:
     dance-single:
     :
     Challenge:
     7:
     0.140,0.134,0.126,0.034,0.051:
0000
0000
0000
0000
,
0000
0000
0000
0000
,
0011
0001
0100
0020
1030
0001
0100
0000
,
0001
0000
0010
0000
0011
0000
0001
1000
0001
1000
0001
0000
1001
0000
0000
0000
,
1000
0010
0101
0001
0010
0001
0100
0000
,
1010
0000
0101
0000
0011
0001
1001
0000
,
1000
0000
0010
0100
0010
0000
1000
0001
1000
0001
1000
0000
0101
0000
0000
0000
,
0001
0000
0010
0000
0100
0000
1000
0000
0002
0000
0000
0003
0100
0000
0000
0000
,
0010
0000
1000
0010
1000
0000
0001
0100
0001
0010
0001
0000
1000
0000
0000
0000
,
0001
0010
0011
0001
0100
0000
1010
0000
,
1001
0000
0001
0100
0001
0000
0010
0100
1000
0100
0010
0000
0011
0000
0000
0000
,
0001
0000
1000
0000
0010
0000
0100
0000
0020
0000
0000
0030
1000
0000
0000
0000
,
1001
0000
0000
0000
0001
0000
0000
0000
0010
0000
0100
1000
0000
0001
0000
0000
,
0020
0000
0100
0200
0000
0330
0110
0000
,
1001
0001
0100
0001
0010
0001
0100
0001
,
0000
0000
0010
0000
0200
0000
0000
0000
0000
0000
0000
0300
1000
0000
0000
0000
,
1001
0000
0001
0000
0100
0000
0001
0000
0010
0001
0010
0000
0001
0000
0100
0000
,
0110
0000
0010
0000
1000
0000
0010
0000
0100
0001
0100
0000
0001
0000
0010
0000
,
1001
0000
0010
0000
1000
0000
0010
0000
1000
0100
0001
0000
0100
0000
1000
0000
,
0010
0100
0011
0001
0100
0010
1000
0001
,
0010
0000
0100
0000
1000
0000
0000
1000
0000
0010
0100
0000
0001
0000
0010
0000
,
0110
0100
1000
0100
0001
0100
1000
0010
,
0100
0000
0001
0000
0010
0000
0100
0000
2000
0000
0000
3000
0001
0000
0100
0000
,
0010
1000
0010
0100
0020
0000
1030
0000
,
1001
0000
0011
0001
0110
1010
1001
0001
,
0101
0000
0010
0000
1000
0000
0010
0100
0000
0001
0000
0000
0000
0010
0100
1000
,
0000
0000
0100
0000
0010
0000
0100
0010
0001
0000
0000
0000
0000
0000
0001
1000
,
0001
0000
0000
0100
0010
0000
0010
0100
0000
0001
0000
0000
0000
0000
0001
0000
,
1001
0000
0011
0001
1001
0010
0110
0002
,
0000
0000
1003
0010
0100
0010
1000
0010
,
1010
1000
0001
0100
0010
0010
1000
0000
,
0001
0000
0000
0001
0000
0000
0010
0100
,
1001
0000
0000
0000
;

//---------------dance-single - Copied from----------------
#NOTES:
     dance-single:
     Copied from:
     Hard:
     6:
     0.112,0.103,0.053,0.027,0.021:
0000
0000
0000
0000
,
0000
0000
0000
0000
,
1000
0001
0100
0020
0000
0000
1030
0000
,
0001
0100
0010
1000
0100
0010
0001
0000
,
0100
0010
1000
0002
0000
0000
1003
0000
,
0010
0000
0100
0000
0001
1000
0001
0000
,
0100
0010
1000
0010
0100
0001
0011
0000
,
0001
0000
0100
0000
0010
0000
1000
0000
0002
0000
0000
0003
0100
0000
0000
0000
,
0010
1000
0010
0100
0001
0010
0011
0000
,
0001
0100
0010
1000
0020
0000
0130
0000
,
0101
0001
1000
0001
0100
0010
1010
0000
,
1000
0001
0100
0010
1000
0000
1001
0000
,
0002
0000
0000
0000
0103
0000
0000
0000
0010
0000
0000
0010
0000
1000
0000
0000
,
0001
0000
0001
0101
0000
0000
0010
0000
,
1000
0001
0100
1000
0100
0001
0100
0010
,
0000
1000
0020
0000
0000
0000
1030
0000
,
0001
0000
1000
0000
0001
0000
1000
0000
0001
1000
0001
0000
1000
0000
0010
0000
,
0000
0000
0100
0000
0010
0000
0100
0000
0010
0100
0010
0000
0100
0000
0000
0000
,
0000
0000
0001
0000
0010
0000
0001
0000
0010
0001
0010
0000
0001
0000
1000
0000
,
0001
0100
0010
1000
0100
0010
0001
0200
,
0000
0000
0310
0000
1000
0000
0001
0100
,
0001
0100
0010
1000
0010
0100
0001
0010
,
1000
0010
0001
0100
0010
0000
1000
0100
,
0001
0100
1000
0010
0100
0000
0001
0000
,
0011
0000
1001
0000
0010
0010
1001
0000
,
0100
0000
0001
0000
0100
0000
0010
1000
0000
0001
0000
0000
0000
0000
0000
0000
,
0100
0000
0001
0000
1000
0000
0001
1000
0000
0000
0000
0000
0000
0000
1000
0010
,
1000
0000
0000
0001
0100
0000
0100
0001
0000
0000
0000
0000
0000
0000
1000
0000
,
1001
0000
1001
0000
0010
0010
1001
0100
,
0000
0000
0010
0000
1000
0100
0001
0100
,
1001
0000
0001
0100
0010
0000
1000
0001
,
0100
0000
0010
1000
0001
0000
0010
0000
,
1001
0000
0000
0000
;

//---------------dance-single - ----------------
#NOTES:
     dance-single:
     :
     Medium:
     5:
     0.095,0.085,0.034,0.046,0.006:
0000
0000
0000
0000
,
0000
0000
0000
0000
,
1000
0000
0001
0100
0001
0000
0010
0000
,
0001
1000
0010
0100
,
0001
0000
0010
0010
0000
0000
0100
0000
,
1001
0000
0101
0000
0001
1000
0010
0000
,
0100
0000
0000
0000
0001
0000
0000
0000
1000
0001
1000
0000
0000
0000
0000
0000
,
0001
0010
0200
1300
,
0001
0000
0000
0000
0100
0000
0000
0000
0010
0100
0010
0000
0000
0000
0000
0000
,
1000
0001
0100
0010
2000
0000
3001
0000
,
1001
0000
0000
0000
0001
0000
0000
0000
1000
0001
1000
0000
0000
0000
0000
0000
,
0010
0000
0100
0000
0001
0000
0010
0000
0200
0000
0000
0300
1000
0000
0000
0000
,
0002
0000
0000
0000
0203
0000
0000
0300
0020
0000
0000
0000
2030
0000
0000
0000
,
3001
0000
0100
0010
0000
0000
1000
0000
,
0001
0100
0001
0000
0010
0000
0100
1000
,
0000
1000
0200
0000
0000
0000
0310
0000
,
0001
0010
0001
0000
1000
1000
0010
0010
,
0100
0001
0010
0000
0100
0100
1000
0000
,
0001
0001
0100
0000
0010
1000
0010
0000
,
0100
0001
0100
0100
0010
1000
0001
0200
,
0000
0000
0310
0000
1000
0000
0100
0100
,
0010
0010
0001
0001
0100
0000
0010
0010
,
1000
1000
0001
0000
0101
0000
1000
0010
,
0001
0000
1000
0100
0001
0000
1000
0000
,
0011
0000
1001
0000
0010
0010
0100
0000
,
0001
0100
0010
1000
,
0001
0100
0010
1000
,
0100
0010
0001
0100
,
1001
0000
0011
0000
0100
0100
0100
0200
,
0000
0000
0310
0000
1000
0001
0100
0000
,
0010
1000
0010
1000
0010
1000
0010
0000
,
0200
0000
0000
0302
0000
0000
0013
0000
,
0110
0000
0000
0000
;

//---------------dance-single - ----------------
#NOTES:
     dance-single:
     :
     Easy:
     4:
     0.076,0.079,0.008,0.030,0.004:
0000
0000
0000
0000
,
0000
0000
0000
0000
,
2000
3001
0100
0010
,
1000
0001
0010
0100
,
1000
0010
0100
0001
,
0010
0010
0100
0100
,
0000
0000
0000
0000
1000
0000
0000
0000
0001
1000
0001
0000
0000
0000
0000
0000
,
0000
1000
0010
0100
,
0000
0000
0000
0000
0001
0000
0000
0000
0100
0010
0100
0000
0000
0000
0000
0000
,
0001
0010
0100
1000
,
0001
0000
0100
0000
0010
0010
0000
0000
,
1000
0001
0100
0010
,
1000
0001
0100
0010
,
1000
0000
0000
0000
0001
0000
2000
0000
0000
0000
0000
3000
1001
0000
0000
0000
,
1000
0010
0100
0001
,
0010
0200
1300
0001
,
1000
1000
0010
0010
,
0100
0100
0001
0001
,
0100
0100
0010
0010
,
1000
0001
0100
0010
,
0100
0010
1000
0001
,
1000
0100
1000
0100
1000
0100
1000
0100
,
0010
0001
0010
0001
0010
0000
0001
1000
,
0001
0100
0010
1000
,
0001
0000
0100
0000
0010
1000
0010
0000
,
0200
0000
0301
0000
0010
0010
0001
0000
,
0100
0010
1000
0010
,
0200
0000
0000
0300
0001
0000
0000
0000
0010
0000
0000
0000
0100
0000
0000
0000
,
0001
0000
0100
0000
0010
0010
0010
0020
,
0000
0000
0130
0000
1000
0001
0100
0000
,
0000
0000
1000
1000
1000
0000
0100
0000
,
0002
0000
0000
0023
0000
0000
0130
0000
,
1001
0000
0000
0000
;

//---------------dance-single - ----------------
#NOTES:
     dance-single:
     :
     Beginner:
     1:
     0.037,0.041,0.015,0.000,0.000: // measure 1
0000
0000
0000
0000
,  // measure 2
0000
0000
0000
0000
,  // measure 3
1000
1000
0000
0000
,  // measure 4
0010
0010
0000
0100
,  // measure 5
0100
0100
0000
0000
,  // measure 6
0010
0010
0010
0000
,  // measure 7
1001
0000
1000
0000
,  // measure 8
0010
0000
0100
0100
,  // measure 9
0100
0000
0001
0000
,  // measure 10
1000
1000
1000
0000
,  // measure 11
1001
0000
0100
0000
,  // measure 12
0010
0000
1000
1000
,  // measure 13
1000
0000
0010
0000
,  // measure 14
0100
0000
0000
0000
,  // measure 15
0110
0000
1000
0000
,  // measure 16
0001
0000
0100
0000
,  // measure 17
0010
0010
0010
0000
,  // measure 18
0100
0000
1000
0000
,  // measure 19
0010
0000
0010
0000
,  // measure 20
0100
0000
0100
0000
,  // measure 21
0010
0000
0010
0000
,  // measure 22
1001
0000
0010
0000
,  // measure 23
0100
0000
0010
0000
,  // measure 24
1000
0000
0010
0000
,  // measure 25
0100
0000
0001
0000
,  // measure 26
0100
0000
0010
0000
,  // measure 27
1000
0000
0100
0000
,  // measure 28
0010
0000
0100
0000
,  // measure 29
0010
0000
0010
0000
,  // measure 30
1000
0000
0001
0000
,  // measure 31
0100
0000
0010
0000
,  // measure 32
1000
0000
0000
0000
;
